osu file format v14

[General]
AudioFilename: Brain Power.mp3
AudioLeadIn: 0
PreviewTime: 71070
Countdown: 0
SampleSet: Soft
StackLeniency: 0.5
Mode: 0
LetterboxInBreaks: 0
EpilepsyWarning: 1
WidescreenStoryboard: 1

[Editor]
Bookmarks: 24887,46417,73851
DistanceSpacing: 1
BeatDivisor: 4
GridSize: 32
TimelineZoom: 2.3

[Metadata]
Title:Brain Power
TitleUnicode:Brain Power
Artist:NOMA
ArtistUnicode:ノマ
Creator:Jacob
Version:Anxient's ADVANCED
Source:SOUND VOLTEX II -infinite infection-
Tags:Yauxo Anxient Exote SnowNiNo_ Len Cryptic sdvx O-oooooooooo AAAAE-A-A-I-A-U- JO-oooooooooooo AAE-O-A-A-U-U-A- E-eee-ee-eee AAAAE-A-E-I-E-A- JO-ooo-oo-oo-oo EEEEO-A-AAA-AAAA
BeatmapID:786883
BeatmapSetID:357777

[Difficulty]
HPDrainRate:5
CircleSize:4
OverallDifficulty:6.5
ApproachRate:8
SliderMultiplier:1.7
SliderTickRate:1

[Events]
//Background and Video events
0,0,"Brain Power.png",0,0
//Break Periods
//Storyboard Layer 0 (Background)
//Storyboard Layer 1 (Fail)
//Storyboard Layer 2 (Pass)
//Storyboard Layer 3 (Foreground)
//Storyboard Sound Samples

[TimingPoints]
888,352.941176470588,4,2,0,50,1,0
2299,-100,4,2,0,70,0,0
2652,-100,4,2,0,60,0,0
7946,-100,4,2,0,70,0,0
8299,-100,4,2,0,60,0,0
13593,-100,4,2,0,70,0,0
13946,-100,4,2,0,60,0,0
22064,-100,4,2,0,55,0,0
22770,-100,4,2,0,60,0,0
23476,-100,4,2,0,70,0,0
35476,-100,4,2,0,70,0,0
36182,-100,4,2,0,50,0,0
47829,-125,4,2,0,60,0,0
56652,-111.111111111111,4,2,0,60,0,0
58770,352.733686067019,4,2,0,70,1,0
60180,352.526439482961,4,2,0,70,1,0
61590,352.319436288902,4,2,0,70,1,0
62999,352.071353127567,4,2,0,65,1,0
64407,351.802990325418,4,2,0,65,1,0
65814,351.493848857645,4,2,0,65,1,0
67219,350.877192982456,4,2,0,50,1,0
68622,350.262697022767,4,2,0,60,1,0
70023,349.243306169965,4,2,0,65,1,0
71419,348.027842227378,4,2,0,65,1,0
72811,346.820809248555,4,2,0,80,1,1
106105,-100,4,2,0,80,0,0
108706,-100,4,2,0,5,0,0

[Colours]
Combo1 : 245,137,237
Combo2 : 47,16,103
Combo3 : 145,37,233
Combo4 : 226,4,251

[HitObjects]
379,51,1946,5,0,0:0:0:0:
379,51,2123,1,0,0:0:0:0:
379,51,2299,2,0,P|393:108|391:155,1,85,6|0,0:0|0:0,0:0:0:0:
337,198,2652,2,0,P|325:238|322:281,1,85,10|0,0:0|0:0,0:0:0:0:
391,331,3005,6,0,P|448:337|521:243,2,170,2|10|2,0:0|0:0|0:0,0:0:0:0:
322,281,3887,1,0,0:0:0:0:
243,247,4064,2,0,P|200:254|160:284,1,85,10|0,0:0|0:0,0:0:0:0:
102,333,4417,2,0,P|82:275|102:222,1,85,2|0,0:0|0:0,0:0:0:0:
145,191,4770,2,0,P|146:148|128:111,1,85,10|0,0:0|0:0,0:0:0:0:
55,66,5123,6,0,P|96:35|203:73,1,170,2|10,0:0|0:0,0:0:0:0:
259,129,5652,1,0,0:0:0:0:
331,84,5829,2,0,L|424:77,2,85,2|0|10,0:0|0:0|0:0,0:0:0:0:
259,129,6358,1,0,0:0:0:0:
318,190,6535,6,0,P|330:239|323:290,1,85,2|2,0:0|0:0,0:0:0:0:
260,325,6887,2,0,P|309:355|348:356,1,85,10|0,0:0|0:0,0:0:0:0:
252,244,7240,2,0,P|216:239|182:246,3,42.5,2|0|0|0,0:0|0:0|0:0|0:0,0:0:0:0:
171,258,7593,2,0,P|129:264|78:251,1,85,10|2,0:0|0:0,0:0:0:0:
131,182,7946,6,0,P|122:124|153:14,2,170,6|10|2,0:0|0:0|0:0,0:0:0:0:
171,258,8829,1,0,0:0:0:0:
252,244,9005,2,0,P|297:252|349:288,1,85,10|0,0:0|0:0,0:0:0:0:
393,329,9358,6,0,P|442:325|474:201,1,170,2|10,0:0|0:0,0:0:0:0:
425,167,9887,1,0,0:0:0:0:
457,88,10064,2,0,P|495:115|508:161,2,85,2|0|10,0:0|0:0|0:0,0:0:0:0:
425,167,10593,1,0,0:0:0:0:
371,100,10770,6,0,P|328:98|287:109,1,85,0|0,0:0|0:0,0:0:0:0:
217,158,11123,2,0,P|174:159|133:148,1,85,0|0,0:0|0:0,0:0:0:0:
296,194,11476,2,0,P|310:241|276:356,1,170,0|8,0:0|0:0,0:0:0:0:
194,373,12005,1,0,0:0:0:0:
130,316,12182,6,0,P|96:310|67:314,4,42.5,2|2|2|2|10,0:0|0:0|0:0|0:0|0:0,0:0:0:0:
194,373,12711,1,2,0:0:0:0:
277,353,12887,2,0,P|333:326|357:293,3,56.6666666666667,2|2|2|10,0:0|0:0|0:0|0:0,0:0:0:0:
387,268,13417,1,2,0:1:0:0:
423,155,13593,6,0,P|375:174|250:116,1,170,6|10,0:0|0:0,0:0:0:0:
219,66,14123,1,0,0:0:0:0:
142,102,14299,2,0,P|133:143|139:185,1,85,2|0,0:0|0:0,0:0:0:0:
58,287,14652,2,0,P|64:245|55:203,1,85,10|0,0:0|0:0,0:0:0:0:
147,267,15005,6,0,P|195:286|320:228,1,170,2|10,0:0|0:0,0:0:0:0:
351,180,15535,1,0,0:0:0:0:
420,228,15711,2,0,L|523:235,2,85,2|0|10,0:0|0:0|0:0,0:0:0:0:
351,180,16240,1,0,0:0:0:0:
410,119,16417,6,0,P|416:77|407:35,2,85,2|0|10,0:0|0:0|0:0,0:0:0:0:
351,180,16946,1,0,0:0:0:0:
285,125,17123,2,0,B|243:121|243:121|208:98,1,85,2|0,0:0|0:0,0:0:0:0:
128,60,17476,2,0,B|86:64|86:64|51:87,1,85,10|0,0:0|0:0,0:0:0:0:
37,171,17829,6,0,P|57:214|57:253,1,85,2|0,0:0|0:0,0:0:0:0:
125,361,18182,2,0,B|126:319|126:319|145:282,1,85,10|0,0:0|0:0,0:0:0:0:
208,340,18535,1,2,0:0:0:0:
292,335,18711,1,0,0:0:0:0:
374,353,18887,2,0,B|372:311|372:311|353:274,1,85,10|2,0:0|0:0,0:0:0:0:
277,234,19240,6,0,P|264:182|295:59,2,170,10|0|0,0:0|0:0|0:0,0:0:0:0:
353,274,20123,1,0,0:0:0:0:
421,223,20299,2,0,P|449:218|472:220,3,42.5,0|0|0|0,0:0|0:0|0:0|0:0,0:0:0:0:
503,233,20652,6,0,P|517:178|506:123,1,85,2|0,0:0|0:0,0:0:0:0:
447,97,21005,2,0,B|434:56|434:56|435:14,1,85,10|0,0:0|0:0,0:0:0:0:
377,140,21358,2,0,B|321:158|297:143|255:115|198:155,1,170,2|0,0:0|0:0,0:0:0:0:
258,218,21887,1,0,0:0:0:0:
164,339,22064,6,0,L|169:249,1,85,2|0,0:0|0:0,0:0:0:0:
114,188,22417,2,0,L|109:98,1,85,10|0,0:0|0:0,0:0:0:0:
41,51,22770,2,0,P|86:22|189:68,1,170,2|10,0:0|0:0,0:0:0:0:
204,91,23211,1,2,0:0:0:0:
232,109,23299,1,2,0:0:0:0:
264,118,23387,1,2,0:0:0:0:
298,115,23476,6,0,B|361:109|361:109|418:137,4,127.5,6|4|4|4|4,0:0|0:0|0:0|0:0|0:0,0:0:0:0:
276,215,24711,1,4,0:0:0:0:
321,305,24887,6,0,B|265:314|265:314|224:298|224:298|149:305,1,170,6|10,0:0|0:0,0:0:0:0:
88,249,25417,1,0,0:0:0:0:
144,185,25593,2,0,P|154:142|145:87,1,85,2|0,0:0|0:0,0:0:0:0:
64,48,25946,2,0,B|60:90|60:90|69:131,1,85,10|0,0:0|0:0,0:0:0:0:
149,101,26299,6,0,B|197:80|231:97|272:120|315:98,1,170,2|10,0:0|0:0,0:0:0:0:
393,62,26829,1,0,0:0:0:0:
449,123,27005,2,0,P|457:164|452:206,1,85,2|0,0:0|0:0,0:0:0:0:
380,252,27358,2,0,B|373:297|373:297|380:335,1,85,10|0,0:0|0:0,0:0:0:0:
377,168,27711,6,0,B|324:187|324:187|294:226|294:226|233:246,1,170,2|10,0:0|0:0,0:0:0:0:
161,201,28240,1,0,0:0:0:0:
84,236,28417,2,0,P|77:194|89:154,1,85,2|0,0:0|0:0,0:0:0:0:
164,114,28770,2,0,P|136:82|96:69,1,85,10|0,0:0|0:0,0:0:0:0:
161,201,29123,6,0,L|272:162,1,85,2|0,0:0|0:0,0:0:0:0:
273,145,29387,1,0,0:0:0:0:
300,111,29476,2,0,L|411:72,1,85,10|0,0:0|0:0,0:0:0:0:
458,49,29829,1,2,0:0:0:0:
450,141,30005,2,0,P|448:170|453:208,1,42.5,0|0,0:0|0:0,0:0:0:0:
471,223,30182,2,0,B|434:244|434:244|392:248,1,85,10|2,0:0|0:0,0:0:0:0:
352,265,30446,1,0,0:0:0:0:
310,280,30535,6,0,L|225:286,1,85,2|0,0:0|0:0,0:0:0:0:
146,255,30887,2,0,L|61:248,1,85,10|0,0:0|0:0,0:0:0:0:
215,202,31240,2,0,P|229:153|215:91,1,85,2|0,0:0|0:0,0:0:0:0:
148,82,31593,2,0,P|134:41|136:0,1,85,10|0,0:0|0:0,0:0:0:0:
217,28,31946,6,0,B|305:17|305:17|395:46,1,170,2|10,0:0|0:0,0:0:0:0:
429,114,32476,1,0,0:0:0:0:
365,169,32652,2,0,P|360:218|378:264,1,85,2|0,0:0|0:0,0:0:0:0:
444,302,33005,2,0,P|455:261|450:220,1,85,10|0,0:0|0:0,0:0:0:0:
364,338,33358,6,0,L|191:326,1,170,2|10,0:0|0:0,0:0:0:0:
131,269,33887,1,0,0:0:0:0:
48,290,34064,2,0,B|49:247|49:247|67:209,1,85,2|0,0:0|0:0,0:0:0:0:
125,146,34417,2,0,P|87:127|44:125,1,85,10|0,0:0|0:0,0:0:0:0:
195,207,34770,5,2,0:0:0:0:
195,206,35123,2,0,B|193:234|193:234|201:261,2,56.6666666666667,8|0|0,0:0|0:0|0:0,0:0:0:0:
206,172,35476,6,0,B|288:188|288:188|378:163,2,170,6|12|2,0:0|0:0|0:0,0:0:0:0:
125,146,36358,1,0,0:0:0:0:
43,178,36535,2,0,P|39:135|54:96,1,85,10|0,0:0|0:0,0:0:0:0:
119,41,36887,2,0,L|215:36,1,85,2|2,0:0|0:0,0:0:0:0:
274,84,37240,2,0,L|358:88,1,85,10|0,0:0|0:0,0:0:0:0:
431,44,37593,6,0,P|441:95|360:173,1,170,2|10,0:0|0:0,0:0:0:0:
298,226,38123,1,0,0:0:0:0:
359,284,38299,2,0,L|411:289,4,42.5,2|2|2|2|10,0:0|0:0|0:0|0:0|0:0,0:0:0:0:
285,327,38829,1,0,0:0:0:0:
201,312,39005,6,0,B|119:296|119:296|29:321,1,170,2|8,0:0|0:0,0:0:0:0:
38,233,39535,1,0,0:0:0:0:
68,154,39711,2,0,B|40:148|40:148|12:152,2,56.6666666666667,2|2|2,0:0|0:0|0:0,0:0:0:0:
97,159,40064,2,0,L|194:150,1,85,10|0,0:0|0:0,0:0:0:0:
252,104,40417,5,2,0:0:0:0:
319,152,40593,2,0,B|340:158|340:158|361:160,2,42.5,0|0|10,0:0|0:0|0:0,0:0:0:0:
252,104,40946,1,0,0:0:0:0:
182,151,41123,2,0,P|169:202|232:300,1,170,2|10,0:0|0:0,0:0:0:0:
309,317,41652,1,2,0:0:0:0:
391,295,41829,6,0,P|391:337|374:375,1,85,2|0,0:0|0:0,0:0:0:0:
484,301,42182,2,0,P|464:256|482:130,1,170,10|2,0:0|0:0,0:0:0:0:
433,65,42711,1,2,0:0:0:0:
362,111,42887,2,0,L|273:117,1,85,10|0,0:0|0:0,0:0:0:0:
207,67,43240,6,0,L|122:61,1,85,2|0,0:0|0:0,0:0:0:0:
37,55,43593,2,0,P|25:99|39:154,1,85,10|0,0:0|0:0,0:0:0:0:
89,199,43946,2,0,L|83:261,1,42.5,2|2,0:0|0:0,0:0:0:0:
52,269,44123,2,0,L|46:331,1,42.5,2|2,0:0|0:0,0:0:0:0:
71,346,44299,6,0,P|117:318|241:357,1,170,10|2,0:0|0:0,0:0:0:0:
303,376,44829,1,0,0:0:0:0:
380,340,45005,2,0,P|384:281|366:233,1,85,10|0,0:0|0:0,0:0:0:0:
325,189,45358,2,0,B|319:147|319:147|327:105,1,85,2|0,0:0|0:0,0:0:0:0:
272,40,45711,1,10,0:0:0:0:
196,78,45887,1,0,0:0:0:0:
116,113,46064,6,0,P|111:71|124:30,1,85,2|0,0:0|0:0,0:0:0:0:
186,162,46417,2,0,P|153:188|112:199,1,85,10|0,0:0|0:0,0:0:0:0:
49,257,46770,2,0,L|-22:264,2,56.6666666666667,2|2|2,0:0|0:0|0:0,0:0:0:0:
93,329,47123,2,0,L|149:334,2,56.6666666666667,10|2|2,0:0|0:0|0:0,0:0:0:0:
208,262,47476,5,2,0:0:0:0:
208,262,47829,2,0,P|253:269|335:201,2,136,0|0|0,0:0|0:0|0:0,0:0:0:0:
249,183,48711,1,0,0:0:0:0:
192,115,48887,6,0,P|186:71|216:9,2,102,2|0|0,0:0|0:0|0:0,0:0:0:0:
249,182,49593,2,0,B|289:129|289:129|304:47,1,136,0|0,0:0|0:0,0:0:0:0:
376,13,50123,1,0,0:0:0:0:
456,48,50299,1,2,0:0:0:0:
456,48,50652,1,0,0:0:0:0:
456,48,51005,5,0,0:0:0:0:
465,136,51182,1,0,0:0:0:0:
449,222,51358,1,0,0:0:0:0:
449,222,51711,6,0,P|400:206|379:295,1,136,2|0,0:0|0:0,0:0:0:0:
306,337,52240,1,0,0:0:0:0:
241,274,52417,2,0,B|175:262|175:262|106:281,1,136,0|0,0:0|0:0,0:0:0:0:
35,231,52946,1,0,0:0:0:0:
112,186,53123,6,0,P|121:120|99:56,1,136,2|0,0:0|0:0,0:0:0:0:
176,12,53652,1,0,0:0:0:0:
244,68,53829,2,0,L|316:61,2,45.3333333333333,0|0|0,0:0|0:0|0:0,0:0:0:0:
197,141,54182,2,0,P|193:202|209:234,1,68,0|0,0:0|0:0,0:0:0:0:
277,175,54535,6,0,B|343:187|343:187|412:168,1,136,2|0,0:0|0:0,0:0:0:0:
487,126,55064,1,0,0:0:0:0:
483,214,55240,2,0,P|486:280|519:355,1,136,0|0,0:0|0:0,0:0:0:0:
340,300,55946,5,2,0:0:0:0:
340,300,56299,1,0,0:0:0:0:
266,250,56476,1,0,0:0:0:0:
263,336,56652,2,0,B|217:317|217:317|189:287|189:287|127:279,1,152.999995330811,0|0,0:0|0:0,0:0:0:0:
74,212,57182,1,0,0:0:0:0:
137,156,57358,6,0,B|144:118|144:118|139:80,1,76.4999976654053,2|0,0:0|0:0,0:0:0:0:
57,33,57711,2,0,B|52:71|52:71|60:109,1,76.4999976654053,0|0,0:0|0:0,0:0:0:0:
139,80,58064,2,0,P|193:65|297:115,1,152.999995330811,0|0,0:0|0:0,0:0:0:0:
355,152,58593,1,0,0:0:0:0:
437,194,58770,6,0,P|447:152|438:111,1,85,2|0,0:0|0:0,0:0:0:0:
355,151,59122,2,0,B|346:193|346:193|355:234,1,85,14|0,0:0|0:0,0:0:0:0:
308,306,59475,1,2,0:0:0:0:
224,291,59651,1,0,0:0:0:0:
158,234,59828,2,0,B|139:271|139:271|139:313,1,85,14|0,0:0|0:0,0:0:0:0:
238,208,60180,6,0,P|203:163|169:149,1,85,2|0,0:0|0:0,0:0:0:0:
96,171,60532,2,0,B|54:177|54:177|13:165,1,85,14|0,0:0|0:0,0:0:0:0:
61,94,60885,1,2,0:0:0:0:
66,9,61061,1,0,0:0:0:0:
138,53,61237,2,0,L|252:44,1,85,14|0,0:0|0:0,0:0:0:0:
308,44,61590,5,2,0:0:0:0:
392,50,61766,1,0,0:0:0:0:
348,122,61942,2,0,B|341:163|341:163|348:205,1,85,14|0,0:0|0:0,0:0:0:0:
406,268,62294,2,0,P|412:309|405:351,1,85,2|0,0:0|0:0,0:0:0:0:
332,309,62646,2,0,B|287:300|287:300|247:322|247:322|162:312,1,170,14|2,0:0|0:0,0:0:0:0:
118,244,63175,5,0,0:0:0:0:
44,199,63351,2,0,B|33:239|33:239|40:281,1,85,14|0,0:0|0:0,0:0:0:0:
117,159,63703,2,0,P|86:129|46:115,1,85,2|0,0:0|0:0,0:0:0:0:
118,244,64055,1,14,0:0:0:0:
207,216,64231,1,2,0:0:0:0:
261,140,64407,6,0,P|272:92|263:42,1,85,2|0,0:0|0:0,0:0:0:0:
340,11,64758,2,0,B|362:73|362:73|460:141,1,170,14|2,0:0|0:0,0:0:0:0:
491,206,65286,1,0,0:0:0:0:
462,285,65462,2,0,B|420:295|420:295|378:291,1,85,14|0,0:0|0:0,0:0:0:0:
311,237,65814,6,0,P|292:285|300:333,1,85,2|0,0:0|0:0,0:0:0:0:
413,199,66165,2,0,B|373:161|373:161|255:139,1,170,14|2,0:0|0:0,0:0:0:0:
181,173,66692,1,0,0:0:0:0:
106,131,66868,2,0,B|95:172|95:172|104:214,1,85,14|0,0:0|0:0,0:0:0:0:
177,87,67219,6,0,P|138:57|28:95,2,170,2|2|2,0:0|0:0|0:0,0:0:0:0:
181,173,68096,1,0,0:0:0:0:
185,257,68271,2,0,L|189:349,1,85,2|0,0:0|0:0,0:0:0:0:
270,365,68622,5,2,0:0:0:0:
322,298,68797,1,0,0:0:0:0:
268,232,68972,1,10,0:0:0:0:
320,165,69147,1,0,0:0:0:0:
393,208,69322,2,0,P|445:217|505:120,2,170,2|10|2,0:0|0:0|0:0,0:0:0:0:
256,192,70110,12,2,71070,0:0:0:0:
111,229,71419,5,6,0:0:0:0:
120,64,71680,1,4,0:0:0:0:
209,203,71941,1,4,0:0:0:0:
55,143,72202,1,4,0:0:0:0:
215,101,72463,1,4,0:0:0:0:
288,144,72637,1,4,0:0:0:0:
400,89,72811,6,0,B|384:148|384:148|409:256,1,170,6|10,0:0|0:0,0:0:0:0:
345,311,73331,1,0,0:0:0:0:
268,274,73504,2,0,L|174:267,1,85,6|0,0:0|0:0,0:0:0:0:
110,312,73851,2,0,L|102:362,2,42.5,10|0|0,0:0|0:0|0:0,0:0:0:0:
60,243,74198,6,0,B|79:197|79:197|57:72,1,170,6|10,0:0|0:0,0:0:0:0:
115,16,74718,1,0,0:0:0:0:
183,64,74891,2,0,P|224:76|267:74,1,85,2|0,0:0|0:0,0:0:0:0:
337,26,75238,2,0,P|350:78|333:129,1,85,10|0,0:0|0:0,0:0:0:0:
276,160,75585,6,0,B|257:206|257:206|279:331,1,170,6|10,0:0|0:0,0:0:0:0:
354,358,76105,1,0,0:0:0:0:
424,310,76279,2,0,L|466:306,2,42.5,6|0|0,0:0|0:0|0:0,0:0:0:0:
354,358,76626,1,10,0:0:0:0:
277,324,76799,1,0,0:0:0:0:
207,372,76972,6,0,L|111:364,1,85,6|0,0:0|0:0,0:0:0:0:
56,310,77319,2,0,B|35:274|35:274|31:233,1,85,10|0,0:0|0:0,0:0:0:0:
97,177,77666,2,0,L|101:134,2,42.5,2|0|0,0:0|0:0|0:0,0:0:0:0:
177,210,78013,2,0,L|261:202,1,85,10|0,0:0|0:0,0:0:0:0:
335,243,78360,6,0,P|343:191|257:118,1,170,6|10,0:0|0:0,0:0:0:0:
204,56,78880,1,0,0:0:0:0:
278,15,79053,2,0,L|363:8,1,85,6|0,0:0|0:0,0:0:0:0:
427,63,79400,2,0,L|503:69,2,42.5,10|0|0,0:0|0:0|0:0,0:0:0:0:
350,92,79747,6,0,P|342:144|428:217,1,170,6|10,0:0|0:0,0:0:0:0:
479,279,80267,1,0,0:0:0:0:
412,331,80441,2,0,L|408:373,2,42.5,2|0|0,0:0|0:0|0:0,0:0:0:0:
327,337,80788,2,0,L|242:344,1,85,10|0,0:0|0:0,0:0:0:0:
157,349,81134,6,0,B|133:297|133:297|154:170,1,170,6|10,0:0|0:0,0:0:0:0:
93,122,81654,1,0,0:0:0:0:
143,52,81828,2,0,L|232:48,1,85,6|0,0:0|0:0,0:0:0:0:
302,89,82175,2,0,L|377:91,2,42.5,10|0|0,0:0|0:0|0:0,0:0:0:0:
229,130,82521,6,0,P|213:212|242:290,1,170,6|10,0:0|0:0,0:0:0:0:
319,329,83042,1,0,0:0:0:0:
392,286,83215,2,0,L|386:219,2,42.5,2|0|0,0:0|0:0|0:0,0:0:0:0:
319,329,83562,2,0,L|313:395,2,42.5,10|0|0,0:0|0:0|0:0,0:0:0:0:
242,290,83909,6,0,P|159:279|91:327,1,170,6|10,0:0|0:0,0:0:0:0:
22,276,84429,1,0,0:0:0:0:
55,197,84602,2,0,L|49:106,1,85,6|0,0:0|0:0,0:0:0:0:
99,43,84949,2,0,B|119:36|119:36|140:37,2,42.5,10|0|0,0:0|0:0|0:0,0:0:0:0:
134,120,85296,6,0,B|174:132|174:132|295:89,1,170,6|14,0:0|0:0,0:0:0:0:
393,105,85816,2,0,B|389:148|389:148|399:189,1,85,4|6,0:0|0:0,0:0:0:0:
456,253,86163,2,0,B|477:251|477:251|497:256,2,42.5,4|0|14,0:0|0:0|0:0,0:0:0:0:
376,292,86510,1,4,0:0:0:0:
266,347,86683,6,0,P|291:294|223:191,1,170,6|10,0:0|0:0,0:0:0:0:
159,189,87204,1,0,0:0:0:0:
84,229,87377,2,0,B|81:249|81:249|88:270,2,42.5,6|0|0,0:0|0:0|0:0,0:0:0:0:
49,150,87724,2,0,P|39:99|54:54,1,85,10|0,0:0|0:0,0:0:0:0:
122,108,88071,5,6,0:0:0:0:
206,104,88244,1,4,0:0:0:0:
283,68,88417,2,0,L|377:75,1,85,14|4,0:0|0:0,0:0:0:0:
425,136,88764,2,0,L|467:132,2,42.5,6|0|4,0:0|0:0|0:0,0:0:0:0:
347,154,89111,2,0,B|334:195|334:195|338:237,1,85,14|4,0:0|0:0,0:0:0:0:
413,277,89458,6,0,P|429:324|320:331,1,170,6|10,0:0|0:0,0:0:0:0:
270,307,89978,1,0,0:0:0:0:
185,301,90152,2,0,L|93:295,1,85,6|0,0:0|0:0,0:0:0:0:
77,213,90498,2,0,L|-5:218,2,42.5,10|0|0,0:0|0:0|0:0,0:0:0:0:
53,130,90845,5,6,0:0:0:0:
127,87,91019,1,0,0:0:0:0:
226,124,91192,2,0,B|229:81|229:81|220:40,1,85,14|4,0:0|0:0,0:0:0:0:
319,90,91539,2,0,B|315:132|315:132|324:173,1,85,6|4,0:0|0:0,0:0:0:0:
405,127,91886,2,0,B|408:84|408:84|399:43,1,85,14|4,0:0|0:0,0:0:0:0:
405,216,92232,6,0,P|372:249|241:219,1,170,6|10,0:0|0:0,0:0:0:0:
180,200,92753,1,0,0:0:0:0:
95,197,92926,2,0,L|27:200,2,42.5,6|0|0,0:0|0:0|0:0,0:0:0:0:
140,118,93273,2,0,P|187:106|235:124,1,85,10|0,0:0|0:0,0:0:0:0:
291,66,93620,6,0,P|369:42|438:88,1,170,6|14,0:0|0:0,0:0:0:0:
418,170,94140,1,4,0:0:0:0:
479,228,94313,2,0,B|484:271|484:271|476:312,1,85,6|4,0:0|0:0,0:0:0:0:
379,298,94660,2,0,B|376:319|376:319|380:340,2,42.5,14|0|4,0:0|0:0|0:0,0:0:0:0:
303,235,95007,6,0,P|220:220|140:246,1,170,6|10,0:0|0:0,0:0:0:0:
73,299,95527,1,0,0:0:0:0:
58,215,95701,2,0,L|43:116,1,85,6|0,0:0|0:0,0:0:0:0:
116,84,96047,2,0,L|126:14,2,42.5,10|0|0,0:0|0:0|0:0,0:0:0:0:
128,166,96394,6,0,B|174:157|174:157|283:78,1,170,6|14,0:0|0:0,0:0:0:0:
353,54,96915,1,4,0:0:0:0:
423,99,97088,2,0,B|435:140|435:140|433:183,1,85,6|4,0:0|0:0,0:0:0:0:
366,234,97435,2,0,B|360:254|360:254|361:276,2,42.5,14|0|4,0:0|0:0|0:0,0:0:0:0:
353,154,97782,6,0,B|307:163|307:163|198:242,1,170,6|10,0:0|0:0,0:0:0:0:
130,272,98302,1,0,0:0:0:0:
48,249,98475,2,0,B|33:209|33:209|37:167,1,85,6|0,0:0|0:0,0:0:0:0:
86,97,98822,2,0,B|91:75|91:75|86:55,2,42.5,10|0|0,0:0|0:0|0:0,0:0:0:0:
126,176,99169,6,0,L|203:122,1,85,6|4,0:0|0:0,0:0:0:0:
244,57,99516,2,0,B|271:88|271:88|281:129,1,85,14|4,0:0|0:0,0:0:0:0:
247,208,99863,1,6,0:0:0:0:
238,292,100036,1,4,0:0:0:0:
317,261,100209,2,0,L|405:250,1,85,14|4,0:0|0:0,0:0:0:0:
456,315,100556,6,0,P|481:272|414:167,1,170,6|10,0:0|0:0,0:0:0:0:
367,117,101076,1,0,0:0:0:0:
427,56,101250,2,0,L|483:50,2,42.5,6|0|0,0:0|0:0|0:0,0:0:0:0:
367,116,101597,2,0,P|355:134|348:154,2,42.5,10|0|0,0:0|0:0|0:0,0:0:0:0:
292,75,101943,6,0,B|250:69|250:69|209:80,1,85,6|0,0:0|0:0,0:0:0:0:
131,115,102290,2,0,L|87:98,2,42.5,14|0|4,0:0|0:0|0:0,0:0:0:0:
202,171,102637,2,0,B|214:211|214:211|210:253,1,85,6|4,0:0|0:0,0:0:0:0:
95,292,102984,2,0,B|75:286|75:286|54:288,2,42.5,14|0|4,0:0|0:0|0:0,0:0:0:0:
177,337,103331,6,0,B|225:342|225:342|345:307,1,170,6|10,0:0|0:0,0:0:0:0:
424,286,103851,1,0,0:0:0:0:
467,213,104024,2,0,B|478:172|478:172|472:130,1,85,6|0,0:0|0:0,0:0:0:0:
440,50,104371,2,0,B|460:44|460:44|481:46,2,42.5,10|0|0,0:0|0:0|0:0,0:0:0:0:
355,54,104718,6,0,B|302:72|302:72|187:61,1,170,6|14,0:0|0:0,0:0:0:0:
115,104,105238,1,0,0:0:0:0:
158,175,105412,2,0,B|165:217|165:217|154:258,1,85,6|0,0:0|0:0,0:0:0:0:
94,318,105758,2,0,B|72:321|72:321|52:316,1,42.5,14|0,0:0|0:0,0:0:0:0:
22,285,105932,2,0,B|18:263|18:263|24:243,1,42.5,4|0,0:0|0:0,0:0:0:0:
55,213,106105,5,6,0:0:0:0:
256,192,106192,12,0,108706,0:0:0:0:
