osu file format v14

[General]
AudioFilename: Brain Power.mp3
AudioLeadIn: 0
PreviewTime: 71070
Countdown: 0
SampleSet: Soft
StackLeniency: 0.3
Mode: 0
LetterboxInBreaks: 0
EpilepsyWarning: 1
WidescreenStoryboard: 1

[Editor]
DistanceSpacing: 1
BeatDivisor: 4
GridSize: 32
TimelineZoom: 1

[Metadata]
Title:Brain Power
TitleUnicode:Brain Power
Artist:NOMA
ArtistUnicode:ノマ
Creator:Jacob
Version:NOVICE
Source:SOUND VOLTEX II -infinite infection-
Tags:Yauxo Anxient Exote SnowNiNo_ Len Cryptic sdvx O-oooooooooo AAAAE-A-A-I-A-U- JO-oooooooooooo AAE-O-A-A-U-U-A- E-eee-ee-eee AAAAE-A-E-I-E-A- JO-ooo-oo-oo-oo EEEEO-A-AAA-AAAA
BeatmapID:1273122
BeatmapSetID:357777

[Difficulty]
HPDrainRate:4
CircleSize:3.8
OverallDifficulty:5
ApproachRate:6
SliderMultiplier:1.1
SliderTickRate:1

[Events]
//Background and Video events
0,0,"Brain Power.png",0,0
//Break Periods
//Storyboard Layer 0 (Background)
//Storyboard Layer 1 (Fail)
//Storyboard Layer 2 (Pass)
//Storyboard Layer 3 (Foreground)
//Storyboard Sound Samples

[TimingPoints]
888,352.941176470588,4,2,0,50,1,0
1946,-100,4,2,0,30,0,0
2299,-100,4,2,0,50,0,0
58770,352.733686067019,4,2,0,50,1,0
60180,352.526439482961,4,2,0,50,1,0
61590,352.319436288902,4,2,0,50,1,0
62999,352.071353127567,4,2,0,50,1,0
64407,351.802990325418,4,2,0,50,1,0
65814,351.493848857645,4,2,0,50,1,0
67219,350.877192982456,4,2,0,30,1,0
68622,350.262697022767,4,2,0,40,1,0
70023,349.243306169965,4,2,0,50,1,0
71419,348.027842227378,4,2,0,60,1,0
72811,346.820809248555,4,2,0,70,1,1
83562,-100,4,2,0,70,0,0
83909,-100,4,2,0,70,0,1
94660,-100,4,2,0,70,0,0
95007,-100,4,2,0,70,0,1
106105,-100,4,2,0,70,0,0
107839,-100,4,2,0,40,0,0
108186,-100,4,2,0,20,0,0
108533,-100,4,2,0,10,0,0
108880,-100,4,2,0,5,0,0

[Colours]
Combo1 : 245,137,237
Combo2 : 47,16,103
Combo3 : 145,37,233
Combo4 : 226,4,251

[HitObjects]
56,295,1946,6,0,P|67:262|64:236,1,55,0|0,0:0|0:0,0:0:0:0:
48,189,2299,6,0,P|89:204|158:176,1,110,6|10,0:0|0:0,0:0:0:0:
235,114,3005,2,0,P|278:104|342:142,1,110,2|10,0:0|0:0,0:0:0:0:
363,179,3535,1,0,0:0:0:0:
363,178,3711,6,0,P|364:231|373:295,1,110,2|10,0:0|0:0,0:0:0:0:
460,357,4417,2,0,P|486:310|478:257,1,110,2|10,0:0|0:0,0:0:0:0:
437,217,4946,1,0,0:0:0:0:
437,217,5123,6,0,P|445:163|418:117,1,110,2|10,0:0|0:0,0:0:0:0:
393,9,5829,2,0,P|338:14|284:24,1,110,2|10,0:0|0:0,0:0:0:0:
240,59,6358,1,0,0:0:0:0:
240,59,6535,6,0,P|251:92|248:118,2,55,2|2|10,0:0|0:0|0:0,0:0:0:0:
130,56,7240,2,0,P|119:89|122:115,1,55,2|0,0:0|0:0,0:0:0:0:
139,161,7593,2,0,P|145:195|138:220,1,55,10|2,0:0|0:0,0:0:0:0:
107,258,7946,6,0,P|160:250|206:277,1,110,6|10,0:0|0:0,0:0:0:0:
283,356,8652,2,0,P|336:364|382:337,1,110,2|10,0:0|0:0,0:0:0:0:
400,283,9182,1,0,0:0:0:0:
400,283,9358,6,0,P|390:229|385:174,1,110,2|10,0:0|0:0,0:0:0:0:
380,63,10064,2,0,P|329:41|278:57,1,110,2|10,0:0|0:0,0:0:0:0:
245,100,10593,1,0,0:0:0:0:
245,100,10770,6,0,P|198:127|145:119,1,110,0|0,0:0|0:0,0:0:0:0:
54,55,11476,1,0,0:0:0:0:
75,163,11829,1,8,0:0:0:0:
59,272,12182,6,0,P|92:261|118:264,1,55,2|2,0:0|0:0,0:0:0:0:
159,289,12535,2,0,P|192:300|218:297,1,55,10|2,0:0|0:0,0:0:0:0:
259,272,12887,2,0,P|279:222|265:170,1,110,2|10,0:0|0:0,0:0:0:0:
221,135,13417,1,2,0:1:0:0:
221,135,13593,6,0,P|167:130|113:120,1,110,6|10,0:0|0:0,0:0:0:0:
6,87,14299,2,0,P|-2:140|24:187,1,110,2|10,0:0|0:0,0:0:0:0:
74,210,14829,1,0,0:0:0:0:
74,210,15005,6,0,P|69:264|59:318,1,110,2|10,0:0|0:0,0:0:0:0:
164,354,15711,2,0,P|163:299|168:244,1,110,2|10,0:0|0:0,0:0:0:0:
181,191,16240,1,0,0:0:0:0:
181,191,16417,6,0,P|227:217|280:210,1,110,2|10,0:0|0:0,0:0:0:0:
366,138,17123,2,0,P|415:118|466:132,1,110,2|10,0:0|0:0,0:0:0:0:
504,175,17652,1,0,0:0:0:0:
504,175,17829,5,2,0:0:0:0:
431,257,18182,1,10,0:0:0:0:
330,213,18535,1,2,0:0:0:0:
257,295,18887,1,10,0:0:0:0:
156,251,19240,6,0,P|61:277|20:166,1,220,2|2,0:0|0:0,0:0:0:0:
117,146,20299,2,0,P|144:142|167:129,1,55,10|0,0:0|0:0,0:0:0:0:
202,86,20652,6,0,B|247:129|302:102|302:102|359:75|403:118,1,220,2|2,0:0|0:0,0:0:0:0:
424,227,21711,2,0,P|413:252|413:279,1,55,10|0,0:0|0:0,0:0:0:0:
440,327,22064,6,0,P|388:311|338:331,1,110,2|10,0:0|0:0,0:0:0:0:
292,362,22593,1,0,0:0:0:0:
292,362,22770,2,0,P|264:361|239:351,1,55,2|2,0:0|0:0,0:0:0:0:
198,314,23123,2,0,P|184:290|181:263,1,55,10|2,0:0|0:0,0:0:0:0:
199,210,23476,6,0,P|210:149|213:120,4,82.5,6|4|4|4|4,0:0|0:0|0:0|0:0|0:0,0:0:0:0:
180,263,24711,1,4,0:0:0:0:
180,263,24887,6,0,P|233:254|280:281,1,110,6|10,0:0|0:0,0:0:0:0:
312,326,25417,1,0,0:0:0:0:
312,326,25593,2,0,P|358:299|412:308,1,110,2|10,0:0|0:0,0:0:0:0:
505,366,26299,6,0,P|504:311|509:256,1,110,2|10,0:0|0:0,0:0:0:0:
414,199,27005,2,0,P|407:144|394:90,1,110,2|10,0:0|0:0,0:0:0:0:
364,44,27535,1,0,0:0:0:0:
364,44,27711,6,0,P|317:70|263:61,1,110,2|10,0:0|0:0,0:0:0:0:
216,33,28240,1,0,0:0:0:0:
216,33,28417,2,0,P|165:14|114:29,1,110,2|10,0:0|0:0,0:0:0:0:
39,111,29123,5,2,0:0:0:0:
111,194,29476,2,0,P|136:183|163:183,1,55,10|0,0:0|0:0,0:0:0:0:
215,202,29829,1,2,0:0:0:0:
267,298,30182,2,0,P|292:309|319:309,1,55,10|2,0:0|0:0,0:0:0:0:
371,290,30535,6,0,P|366:235|367:180,1,110,2|10,0:0|0:0,0:0:0:0:
468,139,31240,2,0,P|487:88|472:37,1,110,2|10,0:0|0:0,0:0:0:0:
430,0,31770,1,0,0:0:0:0:
430,0,31946,6,0,P|376:12|321:19,1,110,2|10,0:0|0:0,0:0:0:0:
255,106,32652,2,0,P|240:129|218:146,1,55,2|0,0:0|0:0,0:0:0:0:
166,164,33005,2,0,P|138:164|113:153,1,55,10|0,0:0|0:0,0:0:0:0:
76,111,33358,6,0,P|34:145|21:197,1,110,2|10,0:0|0:0,0:0:0:0:
90,283,34064,2,0,P|143:275|190:300,1,110,2|10,0:0|0:0,0:0:0:0:
214,350,34593,1,0,0:0:0:0:
214,350,34770,6,0,P|247:342|273:340,1,55,2|0,0:0|0:0,0:0:0:0:
322,345,35123,1,8,0:0:0:0:
408,277,35476,2,0,P|418:251|418:224,1,55,6|0,0:0|0:0,0:0:0:0:
386,179,35829,2,0,P|378:152|382:125,1,55,12|0,0:0|0:0,0:0:0:0:
404,74,36182,6,0,P|350:86|295:93,1,110,2|10,0:0|0:0,0:0:0:0:
190,60,36887,2,0,P|179:34|179:7,2,55,2|2|10,0:0|0:0|0:0,0:0:0:0:
221,105,37417,1,0,0:0:0:0:
221,105,37593,6,0,P|228:158|203:205,1,110,2|10,0:0|0:0,0:0:0:0:
116,273,38299,2,0,P|92:259|65:255,1,55,2|2,0:0|0:0,0:0:0:0:
11,263,38652,1,10,0:0:0:0:
20,153,39005,6,0,B|72:120|123:159|123:159|125:130|140:107,1,165,2|0,0:0|0:0,0:0:0:0:
175,66,39711,2,0,P|228:78|283:85,1,110,2|10,0:0|0:0,0:0:0:0:
378,139,40417,5,2,0:0:0:0:
306,222,40770,2,0,P|281:211|254:211,1,55,10|0,0:0|0:0,0:0:0:0:
202,230,41123,1,2,0:0:0:0:
150,326,41476,2,0,P|125:337|98:337,1,55,10|2,0:0|0:0,0:0:0:0:
46,318,41829,6,0,P|51:263|50:208,1,110,2|10,0:0|0:0,0:0:0:0:
24,100,42535,2,0,P|16:67|14:41,2,55,2|2|10,0:0|0:0|0:0,0:0:0:0:
129,132,43240,6,0,P|182:125|229:150,1,110,2|10,0:0|0:0,0:0:0:0:
266,193,43770,1,0,0:0:0:0:
266,193,43946,2,0,P|291:204|318:204,1,55,2|2,0:0|0:0,0:0:0:0:
370,185,44299,1,10,0:0:0:0:
465,239,44652,6,0,P|472:292|447:339,1,110,2|10,0:0|0:0,0:0:0:0:
400,371,45182,1,0,0:0:0:0:
400,371,45358,2,0,P|346:358|291:351,1,110,2|10,0:0|0:0,0:0:0:0:
182,362,46064,6,0,P|155:314|162:260,1,110,2|10,0:0|0:0,0:0:0:0:
196,217,46593,1,0,0:0:0:0:
196,217,46770,2,0,P|223:169|216:115,1,110,2|10,0:0|0:0,0:0:0:0:
137,39,47476,6,0,P|83:52|28:59,1,110,2|0,0:0|0:0,0:0:0:0:
2,164,48182,2,0,P|35:175|61:172,1,55,0|0,0:0|0:0,0:0:0:0:
105,152,48535,2,0,P|140:145|165:152,1,55,0|0,0:0|0:0,0:0:0:0:
198,187,48887,6,0,P|207:227|211:268,1,82.5,2|0,0:0|0:0,0:0:0:0:
293,277,49417,1,0,0:0:0:0:
293,277,49593,2,0,P|319:229|313:175,1,110,0|0,0:0|0:0,0:0:0:0:
395,101,50299,6,0,P|397:155|406:210,1,110,2|0,0:0|0:0,0:0:0:0:
447,312,51005,2,0,P|455:345|457:371,2,55,0|0|0,0:0|0:0|0:0,0:0:0:0:
349,262,51711,6,0,P|301:288|247:281,1,110,2|0,0:0|0:0,0:0:0:0:
203,247,52240,1,0,0:0:0:0:
203,247,52417,2,0,P|178:259|150:263,1,55
96,252,52770,2,0,P|71:238|55:215,1,55,0|0,0:0|0:0,0:0:0:0:
45,161,53123,6,0,P|58:107|65:52,1,110,2|0,0:0|0:0,0:0:0:0:
105,16,53652,1,0,0:0:0:0:
105,16,53829,2,0,P|158:14|201:47,1,110,0|0,0:0|0:0,0:0:0:0:
257,142,54535,6,0,P|305:165|357:152,1,110,2|0,0:0|0:0,0:0:0:0:
398,115,55064,1,0,0:0:0:0:
398,115,55240,2,0,P|405:169|417:222,1,110,0|0,0:0|0:0,0:0:0:0:
474,317,55946,5,2,0:0:0:0:
363,318,56299,2,0,P|335:322|311:334,1,55,0|0,0:0|0:0,0:0:0:0:
268,368,56652,2,0,P|264:314|226:275,1,110,0|0,0:0|0:0,0:0:0:0:
117,261,57358,6,0,P|129:207|136:153,1,110,2|0,0:0|0:0,0:0:0:0:
134,97,57887,1,0,0:0:0:0:
134,97,58064,2,0,P|168:100|193:92,1,55,0|0,0:0|0:0,0:0:0:0:
233,63,58417,2,0,P|265:48|291:50,1,55,0|0,0:0|0:0,0:0:0:0:
335,70,58770,6,0,P|321:122|345:170,1,110,2|14,0:0|0:0,0:0:0:0:
384,208,59299,1,0,0:0:0:0:
384,208,59475,2,0,P|398:260|374:308,1,110,2|14,0:0|0:0,0:0:0:0:
269,344,60180,6,0,P|224:313|171:320,1,110,2|14,0:0|0:0,0:0:0:0:
126,351,60708,1,0,0:0:0:0:
126,351,60885,2,0,P|120:296|109:242,1,110,2|14,0:0|0:0,0:0:0:0:
87,192,61413,1,0,0:0:0:0:
87,192,61590,5,2,0:0:0:0:
150,102,61942,2,0,P|182:117|208:115,1,55,14|0,0:0|0:0,0:0:0:0:
254,102,62294,2,0,P|259:156|270:210,1,110,2|14,0:0|0:0,0:0:0:0:
339,296,62999,6,0,P|385:268|438:277,1,110,2|14,0:0|0:0,0:0:0:0:
482,309,63527,1,0,0:0:0:0:
482,309,63703,1,2,0:0:0:0:
512,200,64055,2,0,P|484:197|458:187,1,55,14|2,0:0|0:0,0:0:0:0:
417,150,64408,6,0,P|402:125|399:97,1,55,2|0,0:0|0:0,0:0:0:0:
418,46,64758,2,0,P|363:45|308:39,1,110,14|2,0:0|0:0,0:0:0:0:
231,118,65462,2,0,P|205:127|178:130,1,55,14|0,0:0|0:0,0:0:0:0:
127,108,65814,6,0,P|136:161|108:207,1,110,2|14,0:0|0:0,0:0:0:0:
74,250,66341,1,0,0:0:0:0:
74,250,66516,2,0,P|64:303|92:349,1,110,2|14,0:0|0:0,0:0:0:0:
202,360,67219,6,0,P|244:330|307:342,1,110,2|2,0:0|0:0,0:0:0:0:
372,254,67920,2,0,P|414:284|477:272,1,110,2|2,0:0|0:0,0:0:0:0:
506,172,68622,6,0,P|494:118|489:63,1,110,2|10,0:0|0:0,0:0:0:0:
404,132,69322,1,2,0:0:0:0:
357,32,69672,2,0,P|331:40|303:43,1,55,10|2,0:0|0:0,0:0:0:0:
249,28,70023,6,0,P|265:79|243:128,1,110,2|10,0:0|0:0,0:0:0:0:
208,169,70546,1,0,0:0:0:0:
208,169,70721,2,0,P|191:220|213:269,1,110,2|2,0:0|0:0,0:0:0:0:
262,293,71245,1,2,0:0:0:0:
262,293,71419,6,0,P|302:297|343:306,4,82.5,6|4|4|4|4,0:0|0:0|0:0|0:0|0:0,0:0:0:0:
213,269,72637,1,4,0:0:0:0:
213,269,72811,6,0,P|169:300|115:294,1,110,6|10,0:0|0:0,0:0:0:0:
41,212,73504,2,0,P|53:158|58:103,1,110,6|10,0:0|0:0,0:0:0:0:
50,48,74024,1,0,0:0:0:0:
50,48,74198,6,0,P|94:79|148:73,1,110,6|10,0:0|0:0,0:0:0:0:
191,39,74718,1,0,0:0:0:0:
191,39,74891,2,0,P|222:54|248:55,1,55,2|0,0:0|0:0,0:0:0:0:
296,45,75238,2,0,P|330:43|354:54,1,55,10|0,0:0|0:0,0:0:0:0:
393,83,75585,6,0,P|362:127|368:181,1,110,6|10,0:0|0:0,0:0:0:0:
434,268,76279,2,0,P|379:271|325:281,1,110,6|10,0:0|0:0,0:0:0:0:
273,301,76799,1,0,0:0:0:0:
273,301,76972,5,6,0:0:0:0:
209,211,77319,2,0,P|174:209|150:220,1,55,10|0,0:0|0:0,0:0:0:0:
117,257,77666,2,0,P|125:282|123:310,2,55,2|0|10,0:0|0:0|0:0,0:0:0:0:
70,227,78186,1,0,0:0:0:0:
70,227,78360,6,0,P|39:183|45:129,1,110,6|10,0:0|0:0,0:0:0:0:
150,98,79053,2,0,P|181:142|175:196,1,110,6|10,0:0|0:0,0:0:0:0:
145,242,79574,1,0,0:0:0:0:
145,242,79747,6,0,P|200:245|254:255,1,110,6|10,0:0|0:0,0:0:0:0:
304,233,80267,1,0,0:0:0:0:
304,233,80441,2,0,P|329:245|357:249,1,55,2|0,0:0|0:0,0:0:0:0:
411,238,80787,2,0,P|436:224|452:201,1,55,10|0,0:0|0:0,0:0:0:0:
462,147,81134,6,0,P|449:93|442:38,1,110,6|10,0:0|0:0,0:0:0:0:
358,111,81828,2,0,P|305:123|257:97,1,110,6|10,0:0|0:0,0:0:0:0:
225,54,82348,1,0,0:0:0:0:
225,54,82521,6,0,P|177:28|125:40,1,110,6|10,0:0|0:0,0:0:0:0:
94,86,83042,1,0,0:0:0:0:
94,86,83215,2,0,P|104:113|95:163,1,55,2|0,0:0|0:0,0:0:0:0:
82,189,83562,2,0,P|75:217|91:265,1,55,10|0,0:0|0:0,0:0:0:0:
118,281,83909,6,0,P|166:255|218:267,1,110,6|10,0:0|0:0,0:0:0:0:
314,320,84602,2,0,P|321:265|333:212,1,110,6|10,0:0|0:0,0:0:0:0:
368,168,85123,1,0,0:0:0:0:
368,168,85296,6,0,P|315:179|268:153,1,110,6|14,0:0|0:0,0:0:0:0:
238,106,85816,1,4,0:0:0:0:
238,106,85990,2,0,P|223:82|201:65,1,55,6|4,0:0|0:0,0:0:0:0:
149,49,86337,2,0,P|121:48|96:59,1,55,14|4,0:0|0:0,0:0:0:0:
59,101,86683,6,0,P|71:154|78:209,1,110,6|10,0:0|0:0,0:0:0:0:
168,272,87377,2,0,P|174:217|187:163,1,110,6|10,0:0|0:0,0:0:0:0:
213,115,87897,1,0,0:0:0:0:
213,115,88071,5,6,0:0:0:0:
300,181,88417,2,0,P|327:182|352:171,1,55,14|4,0:0|0:0,0:0:0:0:
396,137,88764,2,0,P|423:136|448:147,1,55,6|4,0:0|0:0,0:0:0:0:
490,183,89111,2,0,P|504:205|507:233,1,55,14|4,0:0|0:0,0:0:0:0:
497,287,89458,6,0,P|449:312|397:301,1,110,6|10,0:0|0:0,0:0:0:0:
308,233,90152,2,0,P|257:213|206:232,1,110,6|10,0:0|0:0,0:0:0:0:
168,270,90672,1,0,0:0:0:0:
168,270,90845,6,0,P|161:215|148:161,1,110,6|14,0:0|0:0,0:0:0:0:
176,114,91365,1,4,0:0:0:0:
176,114,91538,2,0,P|209:119|235:113,1,55,6|4,0:0|0:0,0:0:0:0:
278,91,91885,2,0,P|310:79|336:83,1,55,14|4,0:0|0:0,0:0:0:0:
382,101,92232,6,0,P|364:151|384:202,1,110,6|10,0:0|0:0,0:0:0:0:
494,193,92926,2,0,P|511:142|491:91,1,110,6|10,0:0|0:0,0:0:0:0:
445,60,93446,1,0,0:0:0:0:
445,60,93620,6,0,P|390:54|336:41,1,110,6|14,0:0|0:0,0:0:0:0:
284,57,94140,1,4,0:0:0:0:
284,57,94313,2,0,P|279:90|285:116,1,55,6|4,0:0|0:0,0:0:0:0:
307,159,94660,2,0,P|319:191|315:217,1,55,14|4,0:0|0:0,0:0:0:0:
297,263,95007,6,0,P|247:245|196:265,1,110,6|10,0:0|0:0,0:0:0:0:
123,347,95701,2,0,P|72:366|22:348,1,110,6|10,0:0|0:0,0:0:0:0:
0,299,96221,1,0,0:0:0:0:
0,299,96394,6,0,P|12:245|18:190,1,110,6|14,0:0|0:0,0:0:0:0:
47,143,96915,1,4,0:0:0:0:
47,143,97088,2,0,P|71:156|99:160,1,55,6|4,0:0|0:0,0:0:0:0:
152,147,97435,2,0,P|176:133|192:111,1,55,14|4,0:0|0:0,0:0:0:0:
204,59,97782,6,0,P|250:85|303:74,1,110,6|10,0:0|0:0,0:0:0:0:
390,6,98475,2,0,P|395:60|406:114,1,110,6|10,0:0|0:0,0:0:0:0:
400,169,98995,1,0,0:0:0:0:
400,169,99168,6,0,P|372:169|346:180,1,55,6|4,0:0|0:0,0:0:0:0:
306,218,99515,2,0,P|292:242|289:269,1,55,14|4,0:0|0:0,0:0:0:0:
249,305,99863,2,0,P|223:315|196:315,1,55,6|4,0:0|0:0,0:0:0:0:
144,299,100209,2,0,P|122:281|108:258,1,55,14|4,0:0|0:0,0:0:0:0:
96,205,100556,6,0,P|107:151|112:96,1,110,6|10,0:0|0:0,0:0:0:0:
203,34,101250,2,0,P|228:81|215:133,1,110,6|10,0:0|0:0,0:0:0:0:
183,178,101770,1,0,0:0:0:0:
183,178,101943,6,0,P|169:230|195:277,1,110,6|14,0:0|0:0,0:0:0:0:
247,296,102464,1,4,0:0:0:0:
247,296,102637,2,0,P|279:285|305:290,1,55,6|4,0:0|0:0,0:0:0:0:
349,312,102984,2,0,P|381:322|407:317,1,55,14|4,0:0|0:0,0:0:0:0:
451,295,103331,6,0,P|444:240|442:185,1,110,6|10,0:0|0:0,0:0:0:0:
372,100,104024,2,0,P|319:111|272:84,1,110,6|10,0:0|0:0,0:0:0:0:
235,43,104545,1,0,0:0:0:0:
235,43,104718,6,0,P|207:31|170:33,1,55,6|0,0:0|0:0,0:0:0:0:
129,47,105064,2,0,P|105:66|88:99,1,55,14|0,0:0|0:0,0:0:0:0:
79,140,105411,2,0,P|84:170|104:201,1,55,6|0,0:0|0:0,0:0:0:0:
135,230,105758,2,0,P|164:241|201:239,1,55,14|4,0:0|0:0,0:0:0:0:
241,226,106105,5,6,0:0:0:0:
256,192,106279,12,0,108880,0:0:0:0:
