osu file format v14

[General]
AudioFilename: Brain Power.mp3
AudioLeadIn: 0
PreviewTime: 71891
Countdown: 0
SampleSet: Soft
StackLeniency: 0.7
Mode: 3
LetterboxInBreaks: 0
EpilepsyWarning: 1
SpecialStyle: 0
WidescreenStoryboard: 1

[Editor]
DistanceSpacing: 0.8
BeatDivisor: 4
GridSize: 32
TimelineZoom: 2

[Metadata]
Title:Brain Power
TitleUnicode:Brain Power
Artist:NOMA
ArtistUnicode:ノマ
Creator:Akasha-
Version:Spy's 4K INFINITE
Source:CHUNITHM AMAZON
Tags:Cytus II GROOVE COASTER 4EX INFINITY HIGHWAY Lanota maimai MiLK PLUS Muse Dash MUSYNX Neon FM SEVEN's CODE TAPSONIC TOP WACCA オンゲキ ONGEKI SDVX SOUND VOLTEX II -infinite infection- BEMANI MÚSECA MUSECA 1+1/2 Agetta moratta アゲッタモラッタ PUMP IT UP XX EZ2ON REBOOT:R CHRONO CIRCLE Fab Acapella Techno Trance Essentials Electronic Video Game English ExPew Arzenvald ExUsagi ajeemaniz Ichigaki Ichia7x Zan- Rizqy R1 [_A_v_a_l_o_n_] Avalon Fresh Chicken Fresh_Chicken Aruel DE-CADE Lirai ZZHBOY Critical_Star SanadaYukimura YaHao Sandalphon Spy _Kobii K_a_b_i_- Kabi- Starry- Kuo Kyoka
BeatmapID:1126788
BeatmapSetID:435430

[Difficulty]
HPDrainRate:8
CircleSize:4
OverallDifficulty:8
ApproachRate:5
SliderMultiplier:2
SliderTickRate:1

[Events]
//Background and Video events
0,0,"BG.jpg",0,0
//Break Periods
//Storyboard Layer 0 (Background)
//Storyboard Layer 1 (Fail)
//Storyboard Layer 2 (Pass)
//Storyboard Layer 3 (Foreground)
Sprite,Foreground,Centre,"Storyboard\Lyrics\spy.png",320,240 S,0,13271,,0.5375 M,0,13271,13359,995,290.5,312,290.5 F,0,19006,19712,1,0
Sprite,Foreground,Centre,"Storyboard\Lyrics\4k-x.png",320,240 S,0,14065,,0.95 F,0,14065,19006,1 M,0,15477,,320,380 F,0,19006,19712,1,0
Sprite,Foreground,Centre,"Storyboard\Effects\white.png",320,240 M,0,14065,,320,240 S,0,14065,,1.379871 F,0,14065,14771,1,0
//Storyboard Layer 4 (Overlay)
//Storyboard Sound Samples

[TimingPoints]
1360,352.941176470588,4,2,1,50,1,0
59242,352.733686067019,4,2,1,50,1,0
60652,352.526439482961,4,2,1,50,1,0
62062,352.319436288902,4,2,1,50,1,0
63471,352.112676056338,4,2,1,50,1,0
64879,351.802990325418,4,2,1,50,1,0
66286,351.493848857645,4,2,1,50,1,0
67691,350.877192982456,4,2,1,50,1,0
67691,-101.010101010101,4,2,1,50,0,0
69094,350.262697022767,4,2,1,50,1,0
69094,-101.010101010101,4,2,1,50,0,0
70495,349.243306169965,4,2,1,50,1,0
70495,-101.010101010101,4,2,1,50,0,0
71891,348.027842227378,4,2,1,50,1,0
71891,-101.010101010101,4,2,1,50,0,0
73283,346.820809248555,4,2,1,50,1,0
73283,-102.040816326531,4,2,1,50,0,1
84034,-102.040816326531,4,2,1,50,0,0
84381,-102.040816326531,4,2,1,50,0,1
95132,-102.040816326531,4,2,1,50,0,0
95479,-102.040816326531,4,2,1,50,0,1
106577,-102.040816326531,4,2,1,50,0,0

[HitObjects]
192,192,2771,5,0,0:0:0:60:bass.wav
64,192,2771,1,0,0:0:0:60:crash.wav
448,192,2771,1,0,0:0:0:0:
320,192,2948,1,0,0:0:0:30:hihat.wav
64,192,3124,1,0,0:0:0:60:snare.wav
192,192,3124,1,0,0:0:0:0:
448,192,3124,1,0,0:0:0:0:
320,192,3301,1,0,0:0:0:30:hihat.wav
192,192,3477,1,0,0:0:0:60:bass.wav
448,192,3477,1,0,0:0:0:0:
192,192,3654,1,0,0:0:0:30:hihat.wav
64,192,3830,1,0,0:0:0:60:snare.wav
320,192,3830,1,0,0:0:0:0:
448,192,3830,1,0,0:0:0:0:
320,192,4007,1,0,0:0:0:30:hihat.wav
64,192,4183,1,0,0:0:0:60:bass.wav
448,192,4183,1,0,0:0:0:0:
192,192,4359,1,0,0:0:0:30:hihat.wav
64,192,4536,1,0,0:0:0:60:snare.wav
320,192,4536,1,0,0:0:0:0:
448,192,4536,1,0,0:0:0:0:
192,192,4712,1,0,0:0:0:30:hihat.wav
64,192,4889,1,0,0:0:0:60:bass.wav
320,192,4889,1,0,0:0:0:0:
320,192,5065,1,0,0:0:0:30:hihat.wav
64,192,5242,1,0,0:0:0:60:snare.wav
192,192,5242,1,0,0:0:0:0:
448,192,5242,1,0,0:0:0:0:
192,192,5418,1,0,0:0:0:30:hihat.wav
64,192,5595,1,0,0:0:0:60:bass.wav
448,192,5595,1,0,0:0:0:0:
320,192,5771,1,0,0:0:0:30:hihat.wav
64,192,5948,1,0,0:0:0:60:snare.wav
192,192,5948,1,0,0:0:0:0:
448,192,5948,1,0,0:0:0:0:
320,192,6124,1,0,0:0:0:30:hihat.wav
192,192,6301,1,0,0:0:0:60:bass.wav
448,192,6301,1,0,0:0:0:0:
192,192,6477,1,0,0:0:0:30:hihat.wav
64,192,6654,1,0,0:0:0:60:snare.wav
320,192,6654,1,0,0:0:0:0:
448,192,6654,1,0,0:0:0:0:
448,192,6830,1,0,0:0:0:30:hihat.wav
64,192,7007,1,0,0:0:0:60:bass.wav
320,192,7007,1,0,0:0:0:0:
192,192,7183,1,0,0:0:0:30:hihat.wav
64,192,7359,1,0,0:0:0:60:snare.wav
320,192,7359,1,0,0:0:0:0:
448,192,7359,1,0,0:0:0:0:
192,192,7536,1,0,0:0:0:30:hihat.wav
64,192,7712,1,0,0:0:0:60:bass.wav
448,192,7712,1,0,0:0:0:0:
64,192,7889,1,0,0:0:0:30:hihat.wav
192,192,8065,1,0,0:0:0:60:snare.wav
320,192,8065,1,0,0:0:0:0:
448,192,8065,1,0,0:0:0:0:
320,192,8242,1,0,0:0:0:60:bass.wav
448,192,8242,1,0,0:0:0:30:hihat.wav
192,192,8418,1,0,0:0:0:60:bass.wav
448,192,8418,1,0,0:0:0:0:
192,192,8595,1,0,0:0:0:30:hihat.wav
64,192,8771,1,0,0:0:0:60:snare.wav
320,192,8771,1,0,0:0:0:0:
448,192,8771,1,0,0:0:0:0:
64,192,8948,1,0,0:0:0:30:hihat.wav
192,192,9124,1,0,0:0:0:60:bass.wav
448,192,9124,1,0,0:0:0:0:
192,192,9301,1,0,0:0:0:30:hihat.wav
64,192,9477,1,0,0:0:0:60:snare.wav
320,192,9477,1,0,0:0:0:0:
448,192,9477,1,0,0:0:0:0:
64,192,9654,1,0,0:0:0:30:hihat.wav
192,192,9830,1,0,0:0:0:60:bass.wav
320,192,9830,1,0,0:0:0:0:
320,192,10007,1,0,0:0:0:30:hihat.wav
64,192,10183,1,0,0:0:0:60:snare.wav
192,192,10183,1,0,0:0:0:0:
448,192,10183,1,0,0:0:0:0:
448,192,10359,1,0,0:0:0:30:hihat.wav
192,192,10536,1,0,0:0:0:60:bass.wav
320,192,10536,1,0,0:0:0:0:
320,192,10712,1,0,0:0:0:30:hihat.wav
64,192,10889,1,0,0:0:0:60:snare.wav
192,192,10889,1,0,0:0:0:0:
448,192,10889,1,0,0:0:0:0:
448,192,11065,1,0,0:0:0:30:hihat.wav
192,192,11242,1,0,0:0:0:60:bass.wav
64,192,11242,1,0,0:0:0:0:
192,192,11418,1,0,0:0:0:30:hihat.wav
64,192,11595,1,0,0:0:0:60:snare.wav
320,192,11595,1,0,0:0:0:0:
448,192,11595,1,0,0:0:0:0:
448,192,11771,1,0,0:0:0:30:hihat.wav
64,192,11948,1,0,0:0:0:60:bass.wav
320,192,11948,1,0,0:0:0:0:
64,192,12124,1,0,0:0:0:30:hihat.wav
192,192,12301,1,0,0:0:0:60:snare.wav
320,192,12301,1,0,0:0:0:0:
448,192,12301,1,0,0:0:0:0:
320,192,12477,1,0,0:0:0:30:hihat.wav
64,192,12654,1,0,0:0:0:60:bass.wav
192,192,12654,1,0,0:0:0:0:
192,192,12830,1,0,0:0:0:30:hihat.wav
64,192,13007,1,0,0:0:0:60:snare.wav
320,192,13007,1,0,0:0:0:0:
448,192,13007,1,0,0:0:0:0:
448,192,13183,1,0,0:0:0:30:hihat.wav
192,192,13359,1,0,0:0:0:60:bass.wav
320,192,13359,1,0,0:0:0:0:
64,192,13477,1,0,0:0:0:0:
64,192,13595,1,0,0:0:0:0:
320,192,13712,1,0,0:0:0:60:snare.wav
64,192,13712,1,0,0:0:0:0:
448,192,13712,1,0,0:0:0:0:
320,192,13889,128,0,14065:0:0:0:30:hihat.wav
64,192,14065,1,0,0:0:0:60:bass.wav
448,192,14065,1,0,0:0:0:0:
448,192,14242,1,0,0:0:0:30:hihat.wav
64,192,14418,1,0,0:0:0:60:snare.wav
192,192,14418,1,0,0:0:0:0:
320,192,14418,1,0,0:0:0:0:
64,192,14595,1,0,0:0:0:30:hihat.wav
192,192,14771,1,0,0:0:0:60:bass.wav
320,192,14771,1,0,0:0:0:0:
320,192,14948,1,0,0:0:0:30:hihat.wav
64,192,15124,1,0,0:0:0:60:snare.wav
192,192,15124,1,0,0:0:0:0:
448,192,15124,1,0,0:0:0:0:
448,192,15301,1,0,0:0:0:30:hihat.wav
192,192,15477,1,0,0:0:0:60:bass.wav
320,192,15477,1,0,0:0:0:0:
192,192,15654,1,0,0:0:0:30:hihat.wav
64,192,15830,1,0,0:0:0:60:snare.wav
320,192,15830,1,0,0:0:0:0:
448,192,15830,1,0,0:0:0:0:
320,192,16007,1,0,0:0:0:30:hihat.wav
192,192,16183,1,0,0:0:0:60:bass.wav
448,192,16183,1,0,0:0:0:0:
192,192,16359,1,0,0:0:0:30:hihat.wav
64,192,16536,1,0,0:0:0:60:snare.wav
320,192,16536,1,0,0:0:0:0:
448,192,16536,1,0,0:0:0:0:
64,192,16712,1,0,0:0:0:30:hihat.wav
192,192,16889,1,0,0:0:0:60:bass.wav
448,192,16889,1,0,0:0:0:0:
448,192,17065,1,0,0:0:0:30:hihat.wav
64,192,17242,1,0,0:0:0:60:snare.wav
192,192,17242,1,0,0:0:0:0:
320,192,17242,1,0,0:0:0:0:
320,192,17418,1,0,0:0:0:30:hihat.wav
192,192,17595,1,0,0:0:0:60:bass.wav
448,192,17595,1,0,0:0:0:0:
192,192,17771,1,0,0:0:0:30:hihat.wav
64,192,17948,1,0,0:0:0:60:snare.wav
320,192,17948,1,0,0:0:0:0:
448,192,17948,1,0,0:0:0:0:
320,192,18124,1,0,0:0:0:30:hihat.wav
64,192,18301,1,0,0:0:0:60:bass.wav
448,192,18301,1,0,0:0:0:0:
64,192,18477,1,0,0:0:0:30:hihat.wav
192,192,18654,1,0,0:0:0:60:snare.wav
320,192,18654,1,0,0:0:0:0:
448,192,18654,1,0,0:0:0:0:
448,192,18830,1,0,0:0:0:30:hihat.wav
64,192,19007,1,0,0:0:0:60:bass.wav
320,192,19007,1,0,0:0:0:0:
64,192,19183,1,0,0:0:0:30:hihat.wav
192,192,19359,1,0,0:0:0:60:snare.wav
320,192,19359,1,0,0:0:0:0:
448,192,19359,1,0,0:0:0:0:
192,192,19536,1,0,0:0:0:60:bass.wav
448,192,19536,1,0,0:0:0:30:hihat.wav
64,192,19712,1,0,0:0:0:60:bass.wav
320,192,19712,1,0,0:0:0:60:crash.wav
448,192,19712,1,0,0:0:0:0:
192,192,19801,1,0,0:0:0:60:bass.wav
64,192,19889,1,0,0:0:0:60:bass.wav
448,192,19977,1,0,0:0:0:60:bass.wav
64,192,20065,1,0,0:0:0:60:bass.wav
320,192,20065,1,0,0:0:0:60:snare.wav
192,192,20154,1,0,0:0:0:60:bass.wav
448,192,20242,1,0,0:0:0:60:bass.wav
64,192,20330,1,0,0:0:0:60:bass.wav
320,192,20418,1,0,0:0:0:60:bass.wav
448,192,20418,1,0,0:0:0:0:
64,192,20507,1,0,0:0:0:60:bass.wav
192,192,20595,1,0,0:0:0:60:bass.wav
448,192,20683,1,0,0:0:0:60:bass.wav
64,192,20771,1,0,0:0:0:60:bass.wav
320,192,20771,1,0,0:0:0:60:snare.wav
192,192,20859,1,0,0:0:0:60:bass.wav
448,192,20948,1,0,0:0:0:60:bass.wav
192,192,21036,1,0,0:0:0:60:bass.wav
64,192,21124,1,0,0:0:0:60:bass.wav
320,192,21124,1,0,0:0:0:60:crash.wav
448,192,21212,1,0,0:0:0:60:bass.wav
192,192,21301,1,0,0:0:0:60:bass.wav
320,192,21389,1,0,0:0:0:60:bass.wav
64,192,21477,1,0,0:0:0:60:bass.wav
448,192,21477,1,0,0:0:0:60:snare.wav
320,192,21565,1,0,0:0:0:60:bass.wav
64,192,21654,1,0,0:0:0:60:bass.wav
192,192,21742,1,0,0:0:0:60:bass.wav
64,192,21830,1,0,0:0:0:60:bass.wav
448,192,21830,1,0,0:0:0:60:crash.wav
192,192,21918,1,0,0:0:0:60:bass.wav
448,192,22007,1,0,0:0:0:60:bass.wav
320,192,22095,1,0,0:0:0:60:bass.wav
64,192,22183,1,0,0:0:0:60:bass.wav
448,192,22183,1,0,0:0:0:60:snare.wav
192,192,22271,1,0,0:0:0:60:bass.wav
320,192,22359,1,0,0:0:0:60:bass.wav
64,192,22448,1,0,0:0:0:60:bass.wav
192,192,22536,1,0,0:0:0:60:bass.wav
448,192,22536,1,0,0:0:0:60:crash.wav
64,192,22624,1,0,0:0:0:60:bass.wav
448,192,22712,1,0,0:0:0:60:bass.wav
192,192,22801,1,0,0:0:0:60:bass.wav
64,192,22889,1,0,0:0:0:60:bass.wav
320,192,22889,1,0,0:0:0:60:crash.wav
448,192,22977,1,0,0:0:0:60:bass.wav
192,192,23065,1,0,0:0:0:60:bass.wav
320,192,23154,1,0,0:0:0:60:bass.wav
64,192,23242,1,0,0:0:0:60:bass.wav
448,192,23242,1,0,0:0:0:60:crash.wav
320,192,23330,1,0,0:0:0:60:bass.wav
192,192,23418,1,0,0:0:0:60:bass.wav
448,192,23507,1,0,0:0:0:60:bass.wav
64,192,23595,1,0,0:0:0:60:bass.wav
192,192,23595,1,0,0:0:0:60:crash.wav
320,192,23683,1,0,0:0:0:60:bass.wav
448,192,23683,1,0,0:0:0:0:
64,192,23771,1,0,0:0:0:60:bass.wav
192,192,23771,1,0,0:0:0:0:
320,192,23859,1,0,0:0:0:60:bass.wav
448,192,23859,1,0,0:0:0:0:
64,192,23948,1,0,0:0:0:60:bass.wav
192,192,23948,1,0,0:0:0:0:
64,192,24212,1,0,0:0:0:60:bass.wav
448,192,24212,1,0,0:0:0:0:
192,192,24477,1,0,0:0:0:60:bass.wav
448,192,24477,1,0,0:0:0:0:
64,192,24742,1,0,0:0:0:60:bass.wav
320,192,24742,1,0,0:0:0:0:
192,192,25007,1,0,0:0:0:60:bass.wav
320,192,25007,1,0,0:0:0:0:
64,192,25183,1,0,0:0:0:60:bass.wav
448,192,25183,1,0,0:0:0:0:
64,192,25359,1,0,0:0:0:60:bass.wav
320,192,25359,1,0,0:0:0:60:crash.wav
448,192,25359,1,0,0:0:0:0:
192,192,25536,1,0,0:0:0:30:hihat.wav
64,192,25712,1,0,0:0:0:60:snare.wav
320,192,25712,1,0,0:0:0:0:
448,192,25712,1,0,0:0:0:0:
192,192,25889,1,0,0:0:0:30:hihat.wav
64,192,26065,1,0,0:0:0:60:bass.wav
448,192,26065,1,0,0:0:0:0:
320,192,26242,1,0,0:0:0:30:hihat.wav
64,192,26418,1,0,0:0:0:60:snare.wav
192,192,26418,1,0,0:0:0:0:
448,192,26418,1,0,0:0:0:0:
320,192,26595,1,0,0:0:0:30:hihat.wav
192,192,26771,1,0,0:0:0:60:bass.wav
448,192,26771,1,0,0:0:0:0:
192,192,26948,1,0,0:0:0:30:hihat.wav
320,192,27124,1,0,0:0:0:60:snare.wav
64,192,27124,1,0,0:0:0:0:
448,192,27124,1,0,0:0:0:0:
64,192,27301,1,0,0:0:0:30:hihat.wav
192,192,27477,1,0,0:0:0:60:bass.wav
448,192,27477,1,0,0:0:0:0:
448,192,27654,1,0,0:0:0:30:hihat.wav
64,192,27830,1,0,0:0:0:60:snare.wav
320,192,27830,1,0,0:0:0:0:
192,192,27830,1,0,0:0:0:0:
320,192,28007,1,0,0:0:0:30:hihat.wav
448,192,28183,1,0,0:0:0:60:bass.wav
64,192,28183,1,0,0:0:0:0:
192,192,28359,1,0,0:0:0:30:hihat.wav
64,192,28536,1,0,0:0:0:60:snare.wav
320,192,28536,1,0,0:0:0:0:
448,192,28536,1,0,0:0:0:0:
192,192,28712,1,0,0:0:0:30:hihat.wav
64,192,28889,1,0,0:0:0:60:bass.wav
448,192,28889,1,0,0:0:0:0:
320,192,29065,1,0,0:0:0:30:hihat.wav
64,192,29242,1,0,0:0:0:60:snare.wav
192,192,29242,1,0,0:0:0:0:
448,192,29242,1,0,0:0:0:0:
320,192,29418,1,0,0:0:0:30:hihat.wav
192,192,29595,1,0,0:0:0:60:bass.wav
448,192,29595,1,0,0:0:0:0:
192,192,29771,1,0,0:0:0:30:hihat.wav
64,192,29948,1,0,0:0:0:60:snare.wav
320,192,29948,1,0,0:0:0:0:
448,192,29948,1,0,0:0:0:0:
320,192,30124,1,0,0:0:0:30:hihat.wav
64,192,30301,1,0,0:0:0:60:bass.wav
192,192,30301,1,0,0:0:0:0:
64,192,30477,1,0,0:0:0:30:hihat.wav
320,192,30654,1,0,0:0:0:60:snare.wav
192,192,30654,1,0,0:0:0:0:
448,192,30654,1,0,0:0:0:0:
448,192,30830,1,0,0:0:0:60:bass.wav
320,192,30830,1,0,0:0:0:30:hihat.wav
64,192,31007,1,0,0:0:0:60:bass.wav
448,192,31007,1,0,0:0:0:0:
192,192,31183,1,0,0:0:0:30:hihat.wav
64,192,31359,1,0,0:0:0:60:snare.wav
320,192,31359,1,0,0:0:0:0:
448,192,31359,1,0,0:0:0:0:
320,192,31536,1,0,0:0:0:30:hihat.wav
64,192,31712,1,0,0:0:0:60:bass.wav
448,192,31712,1,0,0:0:0:0:
192,192,31889,1,0,0:0:0:30:hihat.wav
64,192,32065,1,0,0:0:0:60:snare.wav
320,192,32065,1,0,0:0:0:0:
448,192,32065,1,0,0:0:0:0:
448,192,32242,1,0,0:0:0:30:hihat.wav
64,192,32418,1,0,0:0:0:60:bass.wav
192,192,32418,1,0,0:0:0:0:
320,192,32595,1,0,0:0:0:30:hihat.wav
64,192,32771,1,0,0:0:0:60:snare.wav
192,192,32771,1,0,0:0:0:0:
448,192,32771,1,0,0:0:0:0:
64,192,32948,1,0,0:0:0:30:hihat.wav
192,192,33124,1,0,0:0:0:60:bass.wav
448,192,33124,1,0,0:0:0:0:
320,192,33301,1,0,0:0:0:30:hihat.wav
64,192,33477,1,0,0:0:0:60:snare.wav
192,192,33477,1,0,0:0:0:0:
448,192,33477,1,0,0:0:0:0:
192,192,33654,1,0,0:0:0:30:hihat.wav
64,192,33830,1,0,0:0:0:60:bass.wav
320,192,33830,1,0,0:0:0:0:
192,192,34007,1,0,0:0:0:30:hihat.wav
64,192,34183,1,0,0:0:0:60:snare.wav
320,192,34183,1,0,0:0:0:0:
448,192,34183,1,0,0:0:0:0:
448,192,34359,1,0,0:0:0:30:hihat.wav
64,192,34536,1,0,0:0:0:60:bass.wav
320,192,34536,1,0,0:0:0:0:
192,192,34712,1,0,0:0:0:30:hihat.wav
64,192,34889,1,0,0:0:0:60:snare.wav
320,192,34889,1,0,0:0:0:0:
448,192,34889,1,0,0:0:0:0:
64,192,35065,1,0,0:0:0:30:hihat.wav
192,192,35242,128,0,35595:0:0:0:60:bass.wav
320,192,35242,128,0,35595:0:0:0:0:
448,192,35595,1,0,0:0:0:0:
64,192,35712,1,0,0:0:0:0:
448,192,35830,1,0,0:0:0:0:
64,192,35948,1,0,0:0:0:60:bass.wav
320,192,35948,128,0,36301:0:0:0:0:
64,192,36301,1,0,0:0:0:60:bass.wav
192,192,36301,128,0,36654:0:0:0:0:
448,192,36654,1,0,0:0:0:60:bass.wav
320,192,36654,1,0,0:0:0:0:
320,192,36830,1,0,0:0:0:30:hihat.wav
64,192,37007,1,0,0:0:0:60:snare.wav
192,192,37007,1,0,0:0:0:0:
448,192,37007,1,0,0:0:0:0:
192,192,37183,1,0,0:0:0:30:hihat.wav
320,192,37359,1,0,0:0:0:60:bass.wav
448,192,37359,1,0,0:0:0:0:
192,192,37536,1,0,0:0:0:30:hihat.wav
320,192,37712,1,0,0:0:0:60:snare.wav
64,192,37712,1,0,0:0:0:0:
448,192,37712,1,0,0:0:0:0:
192,192,37889,1,0,0:0:0:30:hihat.wav
64,192,38065,1,0,0:0:0:60:bass.wav
448,192,38065,1,0,0:0:0:0:
64,192,38242,1,0,0:0:0:30:hihat.wav
320,192,38418,1,0,0:0:0:60:snare.wav
192,192,38418,1,0,0:0:0:0:
448,192,38418,1,0,0:0:0:0:
448,192,38595,1,0,0:0:0:30:hihat.wav
64,192,38771,1,0,0:0:0:60:bass.wav
192,192,38771,1,0,0:0:0:0:
320,192,38948,1,0,0:0:0:30:hihat.wav
64,192,39124,1,0,0:0:0:60:snare.wav
192,192,39124,1,0,0:0:0:0:
448,192,39124,1,0,0:0:0:0:
320,192,39301,1,0,0:0:0:30:hihat.wav
64,192,39477,1,0,0:0:0:60:bass.wav
448,192,39477,1,0,0:0:0:0:
64,192,39654,1,0,0:0:0:30:hihat.wav
320,192,39830,1,0,0:0:0:60:snare.wav
192,192,39830,1,0,0:0:0:0:
448,192,39830,1,0,0:0:0:0:
64,192,40007,1,0,0:0:0:30:hihat.wav
448,192,40183,1,0,0:0:0:60:bass.wav
320,192,40183,1,0,0:0:0:0:
448,192,40359,1,0,0:0:0:30:hihat.wav
64,192,40536,1,0,0:0:0:60:snare.wav
320,192,40536,1,0,0:0:0:0:
192,192,40536,1,0,0:0:0:0:
448,192,40712,1,0,0:0:0:30:hihat.wav
192,192,40889,1,0,0:0:0:60:bass.wav
320,192,40889,1,0,0:0:0:0:
64,192,41065,1,0,0:0:0:30:hihat.wav
320,192,41242,1,0,0:0:0:60:snare.wav
192,192,41242,1,0,0:0:0:0:
448,192,41242,1,0,0:0:0:0:
192,192,41418,1,0,0:0:0:30:hihat.wav
64,192,41595,1,0,0:0:0:60:bass.wav
320,192,41595,1,0,0:0:0:0:
448,192,41771,1,0,0:0:0:30:hihat.wav
192,192,41948,1,0,0:0:0:60:snare.wav
64,192,41948,1,0,0:0:0:0:
320,192,41948,1,0,0:0:0:0:
448,192,42124,1,0,0:0:0:60:bass.wav
320,192,42124,1,0,0:0:0:30:hihat.wav
64,192,42301,1,0,0:0:0:60:bass.wav
192,192,42301,1,0,0:0:0:0:
64,192,42477,1,0,0:0:0:30:hihat.wav
192,192,42654,1,0,0:0:0:60:snare.wav
320,192,42654,1,0,0:0:0:0:
448,192,42654,1,0,0:0:0:0:
320,192,42830,1,0,0:0:0:30:hihat.wav
192,192,43007,1,0,0:0:0:60:bass.wav
448,192,43007,1,0,0:0:0:0:
192,192,43183,1,0,0:0:0:30:hihat.wav
64,192,43359,1,0,0:0:0:60:snare.wav
320,192,43359,1,0,0:0:0:0:
448,192,43359,1,0,0:0:0:0:
448,192,43536,1,0,0:0:0:30:hihat.wav
64,192,43712,1,0,0:0:0:60:bass.wav
320,192,43712,1,0,0:0:0:0:
64,192,43889,1,0,0:0:0:30:hihat.wav
320,192,44065,1,0,0:0:0:60:snare.wav
192,192,44065,1,0,0:0:0:0:
448,192,44065,1,0,0:0:0:0:
448,192,44242,1,0,0:0:0:30:hihat.wav
64,192,44418,1,0,0:0:0:60:bass.wav
192,192,44418,1,0,0:0:0:0:
64,192,44595,1,0,0:0:0:30:hihat.wav
320,192,44771,1,0,0:0:0:60:snare.wav
192,192,44771,1,0,0:0:0:0:
448,192,44771,1,0,0:0:0:0:
448,192,44948,1,0,0:0:0:30:hihat.wav
64,192,45124,1,0,0:0:0:60:bass.wav
192,192,45124,1,0,0:0:0:0:
192,192,45301,1,0,0:0:0:30:hihat.wav
64,192,45477,1,0,0:0:0:60:snare.wav
320,192,45477,1,0,0:0:0:0:
448,192,45477,1,0,0:0:0:0:
320,192,45654,1,0,0:0:0:30:hihat.wav
64,192,45830,1,0,0:0:0:60:bass.wav
192,192,45830,1,0,0:0:0:0:
192,192,46007,1,0,0:0:0:30:hihat.wav
64,192,46183,1,0,0:0:0:60:snare.wav
320,192,46183,1,0,0:0:0:0:
448,192,46183,1,0,0:0:0:0:
320,192,46359,1,0,0:0:0:30:hihat.wav
192,192,46536,1,0,0:0:0:60:bass.wav
448,192,46536,1,0,0:0:0:0:
192,192,46712,1,0,0:0:0:30:hihat.wav
64,192,46889,1,0,0:0:0:60:snare.wav
320,192,46889,1,0,0:0:0:0:
448,192,46889,1,0,0:0:0:0:
192,192,47065,1,0,0:0:0:30:hihat.wav
320,192,47242,128,0,47595:0:0:0:60:bass.wav
64,192,47242,1,0,0:0:0:0:
64,192,47477,1,0,0:0:0:60:bass.wav
64,192,47595,1,0,0:0:0:60:bass.wav
448,192,47595,128,0,47948:0:0:0:0:
192,192,47712,1,0,0:0:0:60:bass.wav
320,192,47830,1,0,0:0:0:60:bass.wav
192,192,47948,128,0,48654:0:0:0:60:bass.wav
320,192,47948,1,0,0:0:0:60:crash.wav
64,192,47948,1,0,0:0:0:0:
64,192,48654,1,0,0:0:0:60:snare.wav
448,192,48654,1,0,0:0:0:0:
448,192,48771,1,0,0:0:0:0:
448,192,48889,1,0,0:0:0:0:
448,192,49007,1,0,0:0:0:0:
320,192,49183,1,0,0:0:0:0:
64,192,49359,1,0,0:0:0:60:bass.wav
192,192,49359,128,0,49536:0:0:0:0:
192,192,49624,128,0,49801:0:0:0:0:
192,192,49889,128,0,50065:0:0:0:0:
64,192,50065,128,0,50771:0:0:0:60:snare.wav
448,192,50065,1,0,0:0:0:0:
320,192,50771,1,0,0:0:0:60:bass.wav
448,192,50771,128,0,51477:0:0:0:0:
192,192,51477,1,0,0:0:0:0:
64,192,51477,128,0,51565:0:0:0:60:snare.wav
64,192,51654,128,0,51742:0:0:0:0:
64,192,51830,128,0,52007:0:0:0:0:
320,192,52183,1,0,0:0:0:60:bass.wav
448,192,52183,128,0,52536:0:0:0:0:
192,192,52536,1,0,0:0:0:0:
192,192,52712,1,0,0:0:0:0:
64,192,52889,1,0,0:0:0:60:snare.wav
448,192,52889,1,0,0:0:0:0:
320,192,52977,1,0,0:0:0:0:
192,192,53065,1,0,0:0:0:0:
448,192,53154,1,0,0:0:0:0:
64,192,53242,1,0,0:0:0:0:
320,192,53330,1,0,0:0:0:0:
192,192,53418,1,0,0:0:0:0:
64,192,53507,1,0,0:0:0:0:
320,192,53595,1,0,0:0:0:60:bass.wav
448,192,53595,128,0,54301:0:0:0:0:
64,192,54301,1,0,0:0:0:0:
192,192,54301,128,0,54477:0:0:0:60:snare.wav
192,192,54565,128,0,54742:0:0:0:0:
192,192,54830,128,0,55007:0:0:0:0:
320,192,55007,1,0,0:0:0:60:bass.wav
448,192,55007,128,0,55712:0:0:0:0:
64,192,55712,1,0,0:0:0:60:snare.wav
320,192,55712,1,0,0:0:0:0:
64,192,55830,1,0,0:0:0:0:
64,192,55948,1,0,0:0:0:0:
64,192,56065,128,0,56418:0:0:0:0:
192,192,56418,1,0,0:0:0:60:bass.wav
448,192,56418,1,0,0:0:0:0:
320,192,56771,1,0,0:0:0:0:
320,192,56948,1,0,0:0:0:0:
64,192,57124,128,0,57477:0:0:0:60:snare.wav
192,192,57124,1,0,0:0:0:0:
448,192,57477,1,0,0:0:0:0:
448,192,57595,1,0,0:0:0:0:
448,192,57712,1,0,0:0:0:0:
64,192,57830,1,0,0:0:0:60:bass.wav
320,192,57830,1,0,0:0:0:0:
192,192,58007,1,0,0:0:0:0:
320,192,58095,1,0,0:0:0:0:
448,192,58183,1,0,0:0:0:0:
64,192,58183,1,0,0:0:0:0:
64,192,58301,1,0,0:0:0:0:
64,192,58418,1,0,0:0:0:0:
320,192,58536,1,0,0:0:0:60:snare.wav
448,192,58536,1,0,0:0:0:0:
192,192,58624,1,0,0:0:0:0:
320,192,58712,1,0,0:0:0:0:
192,192,58801,1,0,0:0:0:0:
320,192,58889,128,0,59154:0:0:0:0:
64,192,59242,1,0,0:0:0:60:bass.wav
320,192,59242,1,0,0:0:0:60:crash.wav
448,192,59242,1,0,0:0:0:0:
192,192,59418,1,0,0:0:0:30:hihat.wav
64,192,59594,1,0,0:0:0:60:snare.wav
320,192,59594,1,0,0:0:0:0:
448,192,59594,1,0,0:0:0:0:
64,192,59771,1,0,0:0:0:30:hihat.wav
192,192,59947,1,0,0:0:0:60:bass.wav
448,192,59947,1,0,0:0:0:0:
320,192,60123,1,0,0:0:0:30:hihat.wav
64,192,60300,1,0,0:0:0:60:snare.wav
192,192,60300,1,0,0:0:0:0:
448,192,60300,1,0,0:0:0:0:
448,192,60476,1,0,0:0:0:30:hihat.wav
64,192,60652,1,0,0:0:0:60:bass.wav
192,192,60652,1,0,0:0:0:0:
320,192,60828,1,0,0:0:0:30:hihat.wav
64,192,61004,1,0,0:0:0:60:snare.wav
192,192,61004,1,0,0:0:0:0:
448,192,61004,1,0,0:0:0:0:
192,192,61180,1,0,0:0:0:30:hihat.wav
320,192,61357,1,0,0:0:0:60:bass.wav
448,192,61357,1,0,0:0:0:0:
192,192,61533,1,0,0:0:0:30:hihat.wav
64,192,61709,1,0,0:0:0:60:snare.wav
320,192,61709,1,0,0:0:0:0:
448,192,61709,1,0,0:0:0:0:
320,192,61885,1,0,0:0:0:30:hihat.wav
64,192,62062,1,0,0:0:0:60:bass.wav
448,192,62062,1,0,0:0:0:0:
192,192,62238,1,0,0:0:0:30:hihat.wav
64,192,62414,1,0,0:0:0:60:snare.wav
320,192,62414,1,0,0:0:0:0:
448,192,62414,1,0,0:0:0:0:
64,192,62590,1,0,0:0:0:30:hihat.wav
192,192,62766,1,0,0:0:0:60:bass.wav
448,192,62766,1,0,0:0:0:0:
320,192,62942,1,0,0:0:0:30:hihat.wav
64,192,63118,1,0,0:0:0:60:snare.wav
192,192,63118,1,0,0:0:0:0:
448,192,63118,1,0,0:0:0:0:
192,192,63295,1,0,0:0:0:30:hihat.wav
64,192,63471,1,0,0:0:0:60:bass.wav
448,192,63471,1,0,0:0:0:0:
320,192,63647,1,0,0:0:0:30:hihat.wav
64,192,63823,1,0,0:0:0:60:snare.wav
192,192,63823,1,0,0:0:0:0:
448,192,63823,1,0,0:0:0:0:
448,192,63999,1,0,0:0:0:30:hihat.wav
320,192,64175,1,0,0:0:0:60:bass.wav
192,192,64175,1,0,0:0:0:0:
64,192,64351,1,0,0:0:0:30:hihat.wav
192,192,64527,1,0,0:0:0:60:snare.wav
320,192,64527,1,0,0:0:0:0:
448,192,64527,1,0,0:0:0:0:
64,192,64703,1,0,0:0:0:30:hihat.wav
320,192,64703,1,0,0:0:0:60:bass.wav
64,192,64879,1,0,0:0:0:60:bass.wav
448,192,64879,1,0,0:0:0:0:
192,192,65054,1,0,0:0:0:30:hihat.wav
64,192,65230,1,0,0:0:0:60:snare.wav
320,192,65230,1,0,0:0:0:0:
448,192,65230,1,0,0:0:0:0:
320,192,65406,1,0,0:0:0:30:hihat.wav
64,192,65582,1,0,0:0:0:60:bass.wav
448,192,65582,1,0,0:0:0:0:
192,192,65758,1,0,0:0:0:30:hihat.wav
64,192,65934,1,0,0:0:0:60:snare.wav
320,192,65934,1,0,0:0:0:0:
448,192,65934,1,0,0:0:0:0:
64,192,66110,1,0,0:0:0:30:hihat.wav
320,192,66286,1,0,0:0:0:60:bass.wav
448,192,66286,1,0,0:0:0:0:
192,192,66461,1,0,0:0:0:30:hihat.wav
64,192,66637,1,0,0:0:0:60:snare.wav
320,192,66637,1,0,0:0:0:0:
448,192,66637,1,0,0:0:0:0:
448,192,66813,1,0,0:0:0:30:hihat.wav
64,192,66988,1,0,0:0:0:60:bass.wav
192,192,66988,1,0,0:0:0:0:
320,192,67164,1,0,0:0:0:30:hihat.wav
64,192,67340,1,0,0:0:0:60:snare.wav
192,192,67340,1,0,0:0:0:0:
448,192,67340,1,0,0:0:0:0:
192,192,67516,1,0,0:0:0:30:hihat.wav
64,192,67691,1,0,0:0:0:60:bass.wav
320,192,67691,1,0,0:0:0:0:
448,192,67866,1,0,0:0:0:30:hihat.wav
64,192,68041,1,0,0:0:0:60:snare.wav
320,192,68041,1,0,0:0:0:0:
192,192,68041,1,0,0:0:0:0:
192,192,68217,1,0,0:0:0:30:hihat.wav
320,192,68392,1,0,0:0:0:60:bass.wav
448,192,68392,1,0,0:0:0:0:
192,192,68568,1,0,0:0:0:30:hihat.wav
64,192,68743,1,0,0:0:0:60:snare.wav
320,192,68743,1,0,0:0:0:0:
448,192,68743,1,0,0:0:0:0:
320,192,68919,1,0,0:0:0:30:hihat.wav
64,192,69094,1,0,0:0:0:60:bass.wav
448,192,69094,1,0,0:0:0:0:
192,192,69269,1,0,0:0:0:30:hihat.wav
64,192,69444,1,0,0:0:0:60:snare.wav
320,192,69444,1,0,0:0:0:0:
448,192,69444,1,0,0:0:0:0:
64,192,69619,1,0,0:0:0:30:hihat.wav
320,192,69794,1,0,0:0:0:60:bass.wav
448,192,69794,1,0,0:0:0:0:
192,192,69969,1,0,0:0:0:30:hihat.wav
64,192,70144,1,0,0:0:0:60:snare.wav
320,192,70144,1,0,0:0:0:0:
448,192,70144,1,0,0:0:0:0:
64,192,70319,1,0,0:0:0:30:hihat.wav
448,192,70319,1,0,0:0:0:60:bass.wav
192,192,70495,1,0,0:0:0:60:bass.wav
320,192,70495,1,0,0:0:0:0:
64,192,70669,1,0,0:0:0:60:bass.wav
448,192,70669,1,0,0:0:0:0:
64,192,70844,1,0,0:0:0:60:bass.wav
192,192,70844,1,0,0:0:0:60:snare.wav
192,192,71018,1,0,0:0:0:60:bass.wav
320,192,71018,1,0,0:0:0:0:
448,192,71193,1,0,0:0:0:60:bass.wav
320,192,71237,1,0,0:0:0:60:bass.wav
192,192,71280,1,0,0:0:0:60:bass.wav
64,192,71324,1,0,0:0:0:60:bass.wav
320,192,71368,1,0,0:0:0:60:bass.wav
448,192,71368,1,0,0:0:0:0:
64,192,71455,1,0,0:0:0:60:bass.wav
192,192,71455,1,0,0:0:0:0:
320,192,71542,1,0,0:0:0:60:bass.wav
448,192,71542,1,0,0:0:0:60:snare.wav
64,192,71630,1,0,0:0:0:60:bass.wav
192,192,71630,1,0,0:0:0:0:
320,192,71717,1,0,0:0:0:60:bass.wav
448,192,71717,1,0,0:0:0:0:
64,192,71804,1,0,0:0:0:60:bass.wav
192,192,71804,1,0,0:0:0:0:
320,192,71891,1,0,0:0:0:60:bass.wav
448,192,71891,1,0,0:0:0:0:
192,192,72152,1,0,0:0:0:60:bass.wav
320,192,72152,1,0,0:0:0:0:
64,192,72413,1,0,0:0:0:60:bass.wav
448,192,72413,1,0,0:0:0:0:
64,192,72674,1,0,0:0:0:60:bass.wav
320,192,72674,1,0,0:0:0:0:
64,192,72935,1,0,0:0:0:60:bass.wav
448,192,72935,1,0,0:0:0:0:
192,192,73109,1,0,0:0:0:60:bass.wav
320,192,73109,1,0,0:0:0:0:
64,192,73283,1,0,0:0:0:60:bass.wav
320,192,73283,1,0,0:0:0:60:crash.wav
448,192,73283,128,0,73803:0:0:0:0:
192,192,73456,1,0,0:0:0:30:hihat.wav
64,192,73629,1,0,0:0:0:60:snare.wav
320,192,73629,1,0,0:0:0:0:
192,192,73803,1,0,0:0:0:30:hihat.wav
320,192,73889,1,0,0:0:0:0:
64,192,73976,1,0,0:0:0:60:bass.wav
448,192,73976,1,0,0:0:0:0:
320,192,74063,1,0,0:0:0:0:
192,192,74150,1,0,0:0:0:30:hihat.wav
320,192,74236,1,0,0:0:0:0:
64,192,74323,1,0,0:0:0:60:snare.wav
192,192,74323,1,0,0:0:0:0:
448,192,74323,1,0,0:0:0:0:
320,192,74410,1,0,0:0:0:0:
192,192,74496,1,0,0:0:0:30:hihat.wav
320,192,74583,1,0,0:0:0:0:
64,192,74670,1,0,0:0:0:60:bass.wav
448,192,74670,1,0,0:0:0:0:
192,192,74756,1,0,0:0:0:0:
448,192,74843,1,0,0:0:0:30:hihat.wav
192,192,74930,1,0,0:0:0:0:
64,192,75017,1,0,0:0:0:60:snare.wav
320,192,75017,1,0,0:0:0:0:
448,192,75017,1,0,0:0:0:0:
320,192,75190,1,0,0:0:0:30:hihat.wav
64,192,75363,1,0,0:0:0:60:bass.wav
192,192,75363,1,0,0:0:0:0:
192,192,75537,1,0,0:0:0:30:hihat.wav
64,192,75710,1,0,0:0:0:60:snare.wav
320,192,75710,1,0,0:0:0:0:
448,192,75710,1,0,0:0:0:0:
448,192,75884,1,0,0:0:0:30:hihat.wav
192,192,76057,1,0,0:0:0:60:bass.wav
320,192,76057,128,0,76404:0:0:0:0:
192,192,76230,1,0,0:0:0:30:hihat.wav
64,192,76404,1,0,0:0:0:60:snare.wav
448,192,76404,1,0,0:0:0:0:
192,192,76491,1,0,0:0:0:0:
448,192,76577,1,0,0:0:0:30:hihat.wav
192,192,76664,1,0,0:0:0:0:
64,192,76751,1,0,0:0:0:60:bass.wav
448,192,76751,1,0,0:0:0:0:
192,192,76837,1,0,0:0:0:0:
448,192,76924,1,0,0:0:0:30:hihat.wav
192,192,77011,1,0,0:0:0:0:
64,192,77098,1,0,0:0:0:60:snare.wav
320,192,77098,1,0,0:0:0:0:
448,192,77098,1,0,0:0:0:0:
192,192,77184,1,0,0:0:0:0:
448,192,77271,1,0,0:0:0:30:hihat.wav
192,192,77358,1,0,0:0:0:0:
64,192,77444,1,0,0:0:0:60:bass.wav
448,192,77444,1,0,0:0:0:0:
320,192,77531,1,0,0:0:0:0:
192,192,77618,1,0,0:0:0:30:hihat.wav
64,192,77791,1,0,0:0:0:60:snare.wav
320,192,77791,1,0,0:0:0:0:
448,192,77791,1,0,0:0:0:0:
64,192,77965,1,0,0:0:0:30:hihat.wav
320,192,78138,1,0,0:0:0:60:bass.wav
448,192,78138,1,0,0:0:0:0:
320,192,78311,1,0,0:0:0:30:hihat.wav
64,192,78485,1,0,0:0:0:60:snare.wav
192,192,78485,1,0,0:0:0:0:
448,192,78485,1,0,0:0:0:0:
64,192,78658,1,0,0:0:0:30:hihat.wav
448,192,78658,1,0,0:0:0:60:bass.wav
320,192,78832,128,0,79352:0:0:0:60:bass.wav
192,192,78832,1,0,0:0:0:0:
192,192,79005,1,0,0:0:0:30:hihat.wav
64,192,79178,1,0,0:0:0:60:snare.wav
448,192,79178,1,0,0:0:0:0:
192,192,79352,1,0,0:0:0:30:hihat.wav
448,192,79439,1,0,0:0:0:0:
64,192,79525,1,0,0:0:0:60:bass.wav
192,192,79525,1,0,0:0:0:0:
448,192,79699,1,0,0:0:0:30:hihat.wav
192,192,79785,1,0,0:0:0:0:
64,192,79872,1,0,0:0:0:60:snare.wav
320,192,79872,1,0,0:0:0:0:
448,192,79872,1,0,0:0:0:0:
192,192,79959,1,0,0:0:0:0:
448,192,80046,1,0,0:0:0:30:hihat.wav
192,192,80132,1,0,0:0:0:0:
64,192,80219,1,0,0:0:0:60:bass.wav
448,192,80219,1,0,0:0:0:0:
320,192,80306,1,0,0:0:0:0:
64,192,80392,1,0,0:0:0:30:hihat.wav
320,192,80479,1,0,0:0:0:0:
64,192,80566,1,0,0:0:0:60:snare.wav
192,192,80566,1,0,0:0:0:0:
448,192,80566,1,0,0:0:0:0:
192,192,80739,1,0,0:0:0:30:hihat.wav
320,192,80913,1,0,0:0:0:60:bass.wav
448,192,80913,1,0,0:0:0:0:
320,192,81086,1,0,0:0:0:30:hihat.wav
64,192,81259,1,0,0:0:0:60:snare.wav
192,192,81259,1,0,0:0:0:0:
448,192,81259,1,0,0:0:0:0:
64,192,81433,1,0,0:0:0:30:hihat.wav
320,192,81606,128,0,81953:0:0:0:60:bass.wav
192,192,81606,1,0,0:0:0:0:
192,192,81780,1,0,0:0:0:30:hihat.wav
64,192,81953,1,0,0:0:0:60:snare.wav
448,192,81953,1,0,0:0:0:0:
320,192,82040,1,0,0:0:0:0:
192,192,82126,1,0,0:0:0:30:hihat.wav
64,192,82300,1,0,0:0:0:60:bass.wav
320,192,82300,1,0,0:0:0:0:
192,192,82387,1,0,0:0:0:0:
320,192,82560,1,0,0:0:0:0:
64,192,82647,1,0,0:0:0:60:snare.wav
192,192,82647,1,0,0:0:0:0:
448,192,82647,1,0,0:0:0:0:
320,192,82820,1,0,0:0:0:30:hihat.wav
192,192,82907,1,0,0:0:0:0:
64,192,82993,1,0,0:0:0:60:bass.wav
448,192,82993,1,0,0:0:0:0:
320,192,83080,1,0,0:0:0:0:
448,192,83167,1,0,0:0:0:30:hihat.wav
320,192,83254,1,0,0:0:0:0:
64,192,83340,1,0,0:0:0:60:snare.wav
192,192,83340,1,0,0:0:0:0:
448,192,83340,1,0,0:0:0:0:
64,192,83514,1,0,0:0:0:30:hihat.wav
192,192,83687,1,0,0:0:0:60:bass.wav
448,192,83687,1,0,0:0:0:0:
320,192,83774,1,0,0:0:0:0:
192,192,83861,1,0,0:0:0:30:hihat.wav
320,192,84034,1,0,0:0:0:60:snare.wav
448,192,84034,1,0,0:0:0:0:
64,192,84034,1,0,0:0:0:0:
64,192,84207,1,0,0:0:0:60:bass.wav
192,192,84207,1,0,0:0:0:30:hihat.wav
64,192,84381,128,0,84901:0:0:0:60:bass.wav
320,192,84381,1,0,0:0:0:60:crash.wav
448,192,84381,1,0,0:0:0:0:
320,192,84554,1,0,0:0:0:30:hihat.wav
192,192,84728,1,0,0:0:0:60:snare.wav
448,192,84728,1,0,0:0:0:0:
320,192,84901,1,0,0:0:0:30:hihat.wav
192,192,84988,1,0,0:0:0:0:
64,192,85074,1,0,0:0:0:60:bass.wav
448,192,85074,1,0,0:0:0:0:
192,192,85161,1,0,0:0:0:0:
320,192,85248,1,0,0:0:0:30:hihat.wav
192,192,85335,1,0,0:0:0:0:
64,192,85421,1,0,0:0:0:60:snare.wav
448,192,85421,1,0,0:0:0:0:
320,192,85421,1,0,0:0:0:0:
192,192,85508,1,0,0:0:0:0:
320,192,85595,1,0,0:0:0:30:hihat.wav
192,192,85681,1,0,0:0:0:0:
64,192,85768,1,0,0:0:0:60:bass.wav
320,192,85768,1,0,0:0:0:0:
448,192,85855,1,0,0:0:0:0:
192,192,85941,1,0,0:0:0:30:hihat.wav
448,192,86028,1,0,0:0:0:0:
192,192,86115,1,0,0:0:0:60:snare.wav
320,192,86115,1,0,0:0:0:0:
64,192,86115,1,0,0:0:0:0:
320,192,86288,1,0,0:0:0:30:hihat.wav
64,192,86462,1,0,0:0:0:60:bass.wav
448,192,86462,1,0,0:0:0:0:
448,192,86635,1,0,0:0:0:30:hihat.wav
64,192,86809,1,0,0:0:0:60:snare.wav
192,192,86809,1,0,0:0:0:0:
320,192,86809,1,0,0:0:0:0:
64,192,86982,1,0,0:0:0:30:hihat.wav
320,192,87155,1,0,0:0:0:60:bass.wav
192,192,87155,128,0,87502:0:0:0:0:
320,192,87329,1,0,0:0:0:30:hihat.wav
448,192,87502,1,0,0:0:0:60:snare.wav
64,192,87502,1,0,0:0:0:0:
320,192,87589,1,0,0:0:0:0:
64,192,87676,1,0,0:0:0:30:hihat.wav
320,192,87762,1,0,0:0:0:0:
448,192,87849,1,0,0:0:0:60:bass.wav
64,192,87849,1,0,0:0:0:0:
320,192,87936,1,0,0:0:0:0:
64,192,88022,1,0,0:0:0:30:hihat.wav
320,192,88109,1,0,0:0:0:0:
448,192,88196,1,0,0:0:0:60:snare.wav
192,192,88196,1,0,0:0:0:0:
64,192,88196,1,0,0:0:0:0:
320,192,88283,1,0,0:0:0:0:
64,192,88369,1,0,0:0:0:30:hihat.wav
320,192,88456,1,0,0:0:0:0:
448,192,88543,1,0,0:0:0:60:bass.wav
64,192,88543,1,0,0:0:0:0:
192,192,88629,1,0,0:0:0:0:
320,192,88716,1,0,0:0:0:30:hihat.wav
64,192,88889,1,0,0:0:0:60:snare.wav
192,192,88889,1,0,0:0:0:0:
448,192,88889,1,0,0:0:0:0:
448,192,89063,1,0,0:0:0:30:hihat.wav
64,192,89236,1,0,0:0:0:60:bass.wav
192,192,89236,1,0,0:0:0:0:
64,192,89410,1,0,0:0:0:30:hihat.wav
192,192,89583,1,0,0:0:0:60:snare.wav
320,192,89583,1,0,0:0:0:0:
448,192,89583,1,0,0:0:0:0:
448,192,89756,1,0,0:0:0:60:bass.wav
320,192,89756,1,0,0:0:0:30:hihat.wav
64,192,89930,128,0,90450:0:0:0:60:bass.wav
448,192,89930,1,0,0:0:0:0:
192,192,90103,1,0,0:0:0:30:hihat.wav
320,192,90277,1,0,0:0:0:60:snare.wav
448,192,90277,1,0,0:0:0:0:
320,192,90450,1,0,0:0:0:30:hihat.wav
192,192,90537,1,0,0:0:0:0:
64,192,90624,1,0,0:0:0:60:bass.wav
448,192,90624,1,0,0:0:0:0:
192,192,90797,1,0,0:0:0:30:hihat.wav
320,192,90884,1,0,0:0:0:0:
192,192,90970,1,0,0:0:0:60:snare.wav
64,192,90970,1,0,0:0:0:0:
448,192,90970,1,0,0:0:0:0:
320,192,91057,1,0,0:0:0:0:
192,192,91144,1,0,0:0:0:30:hihat.wav
320,192,91230,1,0,0:0:0:0:
64,192,91317,1,0,0:0:0:60:bass.wav
448,192,91317,1,0,0:0:0:0:
192,192,91404,1,0,0:0:0:0:
64,192,91491,1,0,0:0:0:30:hihat.wav
192,192,91577,1,0,0:0:0:0:
64,192,91664,1,0,0:0:0:60:snare.wav
320,192,91664,1,0,0:0:0:0:
448,192,91664,1,0,0:0:0:0:
320,192,91837,1,0,0:0:0:30:hihat.wav
64,192,92011,1,0,0:0:0:60:bass.wav
448,192,92011,1,0,0:0:0:0:
64,192,92184,1,0,0:0:0:30:hihat.wav
192,192,92358,1,0,0:0:0:60:snare.wav
320,192,92358,1,0,0:0:0:0:
448,192,92358,1,0,0:0:0:0:
448,192,92531,1,0,0:0:0:30:hihat.wav
192,192,92704,1,0,0:0:0:60:bass.wav
320,192,92704,128,0,93051:0:0:0:0:
192,192,92878,1,0,0:0:0:30:hihat.wav
64,192,93051,1,0,0:0:0:60:snare.wav
448,192,93051,1,0,0:0:0:0:
192,192,93138,1,0,0:0:0:0:
320,192,93225,1,0,0:0:0:30:hihat.wav
64,192,93398,1,0,0:0:0:60:bass.wav
192,192,93398,1,0,0:0:0:0:
320,192,93485,1,0,0:0:0:0:
192,192,93658,1,0,0:0:0:0:
64,192,93745,1,0,0:0:0:60:snare.wav
320,192,93745,1,0,0:0:0:0:
448,192,93745,1,0,0:0:0:0:
192,192,93918,1,0,0:0:0:30:hihat.wav
320,192,94005,1,0,0:0:0:0:
64,192,94092,1,0,0:0:0:60:bass.wav
448,192,94092,1,0,0:0:0:0:
192,192,94178,1,0,0:0:0:0:
64,192,94265,1,0,0:0:0:30:hihat.wav
192,192,94352,1,0,0:0:0:0:
64,192,94439,1,0,0:0:0:60:snare.wav
320,192,94439,1,0,0:0:0:0:
448,192,94439,1,0,0:0:0:0:
320,192,94612,1,0,0:0:0:30:hihat.wav
64,192,94785,1,0,0:0:0:60:bass.wav
448,192,94785,1,0,0:0:0:0:
320,192,94872,1,0,0:0:0:0:
192,192,94959,1,0,0:0:0:30:hihat.wav
64,192,95132,1,0,0:0:0:60:snare.wav
320,192,95132,1,0,0:0:0:0:
448,192,95132,1,0,0:0:0:0:
64,192,95306,1,0,0:0:0:60:bass.wav
192,192,95306,1,0,0:0:0:30:hihat.wav
64,192,95479,1,0,0:0:0:60:bass.wav
320,192,95479,1,0,0:0:0:60:crash.wav
448,192,95479,128,0,95999:0:0:0:0:
192,192,95652,1,0,0:0:0:30:hihat.wav
64,192,95826,1,0,0:0:0:60:snare.wav
320,192,95826,1,0,0:0:0:0:
192,192,95999,1,0,0:0:0:30:hihat.wav
320,192,96086,1,0,0:0:0:0:
64,192,96173,1,0,0:0:0:60:bass.wav
448,192,96173,1,0,0:0:0:0:
320,192,96259,1,0,0:0:0:0:
192,192,96346,1,0,0:0:0:30:hihat.wav
320,192,96433,1,0,0:0:0:0:
64,192,96519,1,0,0:0:0:60:snare.wav
192,192,96519,1,0,0:0:0:0:
448,192,96519,1,0,0:0:0:0:
320,192,96606,1,0,0:0:0:0:
192,192,96693,1,0,0:0:0:30:hihat.wav
320,192,96780,1,0,0:0:0:0:
448,192,96866,1,0,0:0:0:60:bass.wav
64,192,96866,1,0,0:0:0:0:
192,192,96953,1,0,0:0:0:0:
448,192,97040,1,0,0:0:0:30:hihat.wav
192,192,97126,1,0,0:0:0:0:
320,192,97213,1,0,0:0:0:60:snare.wav
448,192,97213,1,0,0:0:0:0:
64,192,97213,1,0,0:0:0:0:
320,192,97387,1,0,0:0:0:30:hihat.wav
64,192,97560,1,0,0:0:0:60:bass.wav
192,192,97560,1,0,0:0:0:0:
64,192,97733,1,0,0:0:0:30:hihat.wav
320,192,97907,1,0,0:0:0:60:snare.wav
192,192,97907,1,0,0:0:0:0:
448,192,97907,1,0,0:0:0:0:
448,192,98080,1,0,0:0:0:30:hihat.wav
64,192,98254,128,0,98600:0:0:0:60:bass.wav
192,192,98254,1,0,0:0:0:0:
192,192,98427,1,0,0:0:0:30:hihat.wav
320,192,98600,1,0,0:0:0:60:snare.wav
448,192,98600,1,0,0:0:0:0:
64,192,98687,1,0,0:0:0:0:
320,192,98774,1,0,0:0:0:30:hihat.wav
64,192,98861,1,0,0:0:0:0:
320,192,98947,1,0,0:0:0:60:bass.wav
448,192,98947,1,0,0:0:0:0:
64,192,99034,1,0,0:0:0:0:
320,192,99121,1,0,0:0:0:30:hihat.wav
64,192,99207,1,0,0:0:0:0:
320,192,99294,1,0,0:0:0:60:snare.wav
192,192,99294,1,0,0:0:0:0:
448,192,99294,1,0,0:0:0:0:
64,192,99381,1,0,0:0:0:0:
320,192,99467,1,0,0:0:0:30:hihat.wav
64,192,99554,1,0,0:0:0:0:
192,192,99641,1,0,0:0:0:60:bass.wav
320,192,99641,1,0,0:0:0:0:
448,192,99728,1,0,0:0:0:0:
192,192,99814,1,0,0:0:0:30:hihat.wav
64,192,99988,1,0,0:0:0:60:snare.wav
320,192,99988,1,0,0:0:0:0:
448,192,99988,1,0,0:0:0:0:
448,192,100161,1,0,0:0:0:30:hihat.wav
64,192,100335,1,0,0:0:0:60:bass.wav
320,192,100335,1,0,0:0:0:0:
320,192,100508,1,0,0:0:0:30:hihat.wav
64,192,100681,1,0,0:0:0:60:snare.wav
192,192,100681,1,0,0:0:0:0:
448,192,100681,1,0,0:0:0:0:
192,192,100855,1,0,0:0:0:60:bass.wav
320,192,100855,1,0,0:0:0:30:hihat.wav
64,192,101028,1,0,0:0:0:60:bass.wav
448,192,101028,1,0,0:0:0:60:crash.wav
320,192,101028,1,0,0:0:0:0:
192,192,101115,1,0,0:0:0:60:bass.wav
320,192,101202,1,0,0:0:0:60:bass.wav
192,192,101288,1,0,0:0:0:60:bass.wav
64,192,101375,1,0,0:0:0:60:bass.wav
320,192,101375,1,0,0:0:0:60:snare.wav
448,192,101375,1,0,0:0:0:0:
192,192,101462,1,0,0:0:0:60:bass.wav
448,192,101548,1,0,0:0:0:60:bass.wav
192,192,101635,1,0,0:0:0:60:bass.wav
64,192,101722,1,0,0:0:0:60:bass.wav
320,192,101722,1,0,0:0:0:0:
192,192,101809,1,0,0:0:0:60:bass.wav
448,192,101895,1,0,0:0:0:60:bass.wav
192,192,101982,1,0,0:0:0:60:bass.wav
64,192,102069,1,0,0:0:0:60:bass.wav
320,192,102069,1,0,0:0:0:60:snare.wav
448,192,102069,1,0,0:0:0:0:
192,192,102155,1,0,0:0:0:60:bass.wav
320,192,102242,1,0,0:0:0:60:bass.wav
192,192,102329,1,0,0:0:0:60:bass.wav
64,192,102415,1,0,0:0:0:60:bass.wav
448,192,102415,1,0,0:0:0:60:crash.wav
320,192,102502,1,0,0:0:0:60:bass.wav
64,192,102589,1,0,0:0:0:60:bass.wav
320,192,102676,1,0,0:0:0:60:bass.wav
64,192,102762,1,0,0:0:0:60:bass.wav
192,192,102762,1,0,0:0:0:60:snare.wav
448,192,102762,1,0,0:0:0:0:
320,192,102849,1,0,0:0:0:60:bass.wav
192,192,102936,1,0,0:0:0:60:bass.wav
448,192,103022,1,0,0:0:0:60:bass.wav
192,192,103109,1,0,0:0:0:60:bass.wav
320,192,103109,1,0,0:0:0:0:
64,192,103196,1,0,0:0:0:60:bass.wav
320,192,103283,1,0,0:0:0:60:bass.wav
192,192,103369,1,0,0:0:0:60:bass.wav
64,192,103456,1,0,0:0:0:60:bass.wav
320,192,103456,1,0,0:0:0:60:snare.wav
448,192,103456,1,0,0:0:0:0:
192,192,103543,1,0,0:0:0:60:bass.wav
448,192,103629,1,0,0:0:0:60:bass.wav
64,192,103716,1,0,0:0:0:60:bass.wav
320,192,103803,1,0,0:0:0:60:bass.wav
448,192,103803,1,0,0:0:0:60:crash.wav
192,192,103889,1,0,0:0:0:60:bass.wav
320,192,103976,1,0,0:0:0:60:bass.wav
448,192,103976,1,0,0:0:0:0:
192,192,104063,1,0,0:0:0:60:bass.wav
64,192,104150,1,0,0:0:0:60:bass.wav
320,192,104150,1,0,0:0:0:60:snare.wav
448,192,104150,1,0,0:0:0:0:
192,192,104236,1,0,0:0:0:60:bass.wav
320,192,104323,1,0,0:0:0:60:bass.wav
448,192,104323,1,0,0:0:0:0:
192,192,104410,1,0,0:0:0:60:bass.wav
64,192,104496,1,0,0:0:0:60:bass.wav
448,192,104496,1,0,0:0:0:60:crash.wav
320,192,104583,1,0,0:0:0:60:bass.wav
64,192,104670,1,0,0:0:0:60:bass.wav
192,192,104670,1,0,0:0:0:0:
320,192,104756,1,0,0:0:0:60:bass.wav
64,192,104843,1,0,0:0:0:60:bass.wav
192,192,104843,1,0,0:0:0:60:snare.wav
448,192,104843,1,0,0:0:0:0:
320,192,104930,1,0,0:0:0:60:bass.wav
64,192,105017,1,0,0:0:0:60:bass.wav
192,192,105017,1,0,0:0:0:0:
320,192,105103,1,0,0:0:0:60:bass.wav
64,192,105190,1,0,0:0:0:60:bass.wav
448,192,105190,1,0,0:0:0:60:crash.wav
192,192,105277,1,0,0:0:0:60:bass.wav
64,192,105363,1,0,0:0:0:60:bass.wav
320,192,105363,1,0,0:0:0:0:
192,192,105450,1,0,0:0:0:60:bass.wav
64,192,105537,1,0,0:0:0:60:bass.wav
448,192,105537,1,0,0:0:0:60:crash.wav
320,192,105624,1,0,0:0:0:60:bass.wav
192,192,105710,1,0,0:0:0:60:bass.wav
448,192,105710,1,0,0:0:0:0:
320,192,105797,1,0,0:0:0:60:bass.wav
64,192,105884,1,0,0:0:0:60:bass.wav
448,192,105884,1,0,0:0:0:60:crash.wav
192,192,105970,1,0,0:0:0:60:bass.wav
64,192,106057,1,0,0:0:0:60:bass.wav
320,192,106057,1,0,0:0:0:0:
192,192,106144,1,0,0:0:0:60:bass.wav
64,192,106230,1,0,0:0:0:60:bass.wav
448,192,106230,1,0,0:0:0:60:crash.wav
320,192,106317,1,0,0:0:0:60:bass.wav
192,192,106404,1,0,0:0:0:60:bass.wav
448,192,106404,1,0,0:0:0:0:
320,192,106491,1,0,0:0:0:60:bass.wav
64,192,106577,128,0,112126:0:0:0:60:bass.wav
192,192,106577,128,0,112126:0:0:0:60:crash.wav
448,192,106577,1,0,0:0:0:0:
