osu file format v14

[General]
AudioFilename: audio.mp3
AudioLeadIn: 0
PreviewTime: 71347
Countdown: 0
SampleSet: Normal
StackLeniency: 0.7
Mode: 0
LetterboxInBreaks: 0
WidescreenStoryboard: 0

[Editor]
Bookmarks: 23402,24813,47400,58694
DistanceSpacing: 1.3
BeatDivisor: 2
GridSize: 8
TimelineZoom: 3.599999

[Metadata]
Title:Brain Power
TitleUnicode:Brain Power
Artist:NOMA
ArtistUnicode:NOMA
Creator:- raspy
Version:.r
Source:
Tags:
BeatmapID:1509701
BeatmapSetID:714364

[Difficulty]
HPDrainRate:3
CircleSize:3
OverallDifficulty:8
ApproachRate:9.7
SliderMultiplier:1.4
SliderTickRate:1

[Events]
//Background and Video events
0,0,"Brain Power.png",0,0
//Break Periods
//Storyboard Layer 0 (Background)
//Storyboard Layer 1 (Fail)
//Storyboard Layer 2 (Pass)
//Storyboard Layer 3 (Foreground)
//Storyboard Layer 4 (Overlay)
//Storyboard Sound Samples

[TimingPoints]
815,352.941176470588,4,1,0,100,1,0
1874,176.470588235294,4,1,0,100,1,0
1874,-50,4,1,0,100,0,0
2227,352.941176470588,4,1,0,100,1,0
2315,-50,4,1,0,5,0,0
2403,-50,4,1,0,35,0,0
2579,-50,4,1,0,70,0,0
2756,-50,4,1,0,35,0,0
2932,-50,4,1,0,70,0,0
3109,-50,4,1,0,35,0,0
3285,-50,4,1,0,70,0,0
3462,-50,4,1,0,35,0,0
3638,-50,4,1,0,70,0,0
3815,-50,4,1,0,35,0,0
3991,-50,4,1,0,70,0,0
4168,-50,4,1,0,35,0,0
4344,-50,4,1,0,70,0,0
4521,-50,4,1,0,35,0,0
4697,-50,4,1,0,70,0,0
4874,-50,4,1,0,35,0,0
5050,-50,4,1,0,70,0,0
5226,-50,4,1,0,35,0,0
5403,-50,4,1,0,70,0,0
5579,-50,4,1,0,35,0,0
5756,-50,4,1,0,70,0,0
5932,-50,4,1,0,35,0,0
6109,-50,4,1,0,70,0,0
6638,-50,4,1,0,35,0,0
6815,-50,4,1,0,70,0,0
6991,-50,4,1,0,35,0,0
7168,-50,4,1,0,70,0,0
7344,-50,4,1,0,35,0,0
7521,-50,4,1,0,70,0,0
8050,-50,4,1,0,55,0,0
8226,-50,4,1,0,70,0,0
8403,-50,4,1,0,55,0,0
8579,-50,4,1,0,70,0,0
8756,-50,4,1,0,55,0,0
8932,-50,4,1,0,70,0,0
9109,-50,4,1,0,55,0,0
9285,-50,4,1,0,70,0,0
9462,-50,4,1,0,55,0,0
9638,-50,4,1,0,70,0,0
9815,-50,4,1,0,55,0,0
9991,-50,4,1,0,70,0,0
10168,-50,4,1,0,55,0,0
10344,-50,4,1,0,70,0,0
10521,-50,4,1,0,55,0,0
10697,-50,4,1,0,70,0,0
10874,-50,4,1,0,35,0,0
11050,-50,4,1,0,70,0,0
11226,-50,4,1,0,35,0,0
11403,-50,4,1,0,70,0,0
11579,-50,4,1,0,35,0,0
11756,-50,4,1,0,70,0,0
11932,-50,4,1,0,35,0,0
12109,-50,4,1,0,70,0,0
12285,-50,4,1,0,35,0,0
12462,-50,4,1,0,70,0,0
12638,176.470588235294,4,1,0,100,1,0
12638,-66.6666666666667,4,1,0,100,0,0
12770,-66.6666666666667,4,2,0,5,0,0
12814,-66.6666666666667,4,1,0,40,0,0
12873,-66.6666666666667,4,1,0,5,0,0
12931,-66.6666666666667,4,1,0,60,0,0
12990,-66.6666666666667,4,1,0,5,0,0
13049,-66.6666666666667,4,1,0,80,0,0
13108,-66.6666666666667,4,1,0,5,0,0
13167,-66.6666666666667,4,1,0,100,0,0
13343,-50,4,1,0,100,0,1
13476,-50,4,2,0,5,0,0
13520,352.941176470588,4,1,0,70,1,0
13696,-50,4,1,0,35,0,0
13872,-50,4,1,0,70,0,0
14049,-50,4,1,0,35,0,0
14225,-50,4,1,0,70,0,0
14402,-50,4,1,0,35,0,0
14578,-50,4,1,0,70,0,0
14755,-50,4,1,0,35,0,0
14931,-50,4,1,0,70,0,0
15108,-50,4,1,0,35,0,0
15284,-50,4,1,0,70,0,0
15461,-50,4,1,0,35,0,0
15637,-50,4,1,0,70,0,0
15814,-50,4,1,0,35,0,0
15990,-50,4,1,0,70,0,0
16520,-50,4,1,0,35,0,0
16696,-50,4,1,0,70,0,0
16872,-50,4,1,0,35,0,0
17049,-50,4,1,0,70,0,0
17225,-50,4,1,0,35,0,0
17402,-50,4,1,0,70,0,0
17578,-50,4,1,0,35,0,0
17755,-50,4,1,0,70,0,0
17931,-50,4,1,0,35,0,0
18108,-50,4,1,0,70,0,0
18284,-50,4,1,0,35,0,0
18461,-50,4,1,0,70,0,0
18637,-50,4,1,0,35,0,0
18814,-50,4,1,0,70,0,0
19167,-100,4,1,0,70,0,0
19255,-100,4,1,0,20,0,0
19343,-100,4,1,0,25,0,0
19431,-100,4,1,0,30,0,0
19519,-100,4,1,0,35,0,0
19608,-100,4,1,0,40,0,0
19696,-100,4,1,0,45,0,0
19784,-100,4,1,0,50,0,0
19872,-100,4,1,0,55,0,0
19961,-100,4,1,0,60,0,0
20049,-100,4,1,0,65,0,0
20137,-100,4,1,0,70,0,0
20578,-100,4,1,0,70,0,0
20666,-100,4,1,0,20,0,0
20754,-100,4,1,0,25,0,0
20842,-100,4,1,0,30,0,0
20930,-100,4,1,0,35,0,0
21019,-100,4,1,0,40,0,0
21107,-100,4,1,0,45,0,0
21195,-100,4,1,0,50,0,0
21283,-100,4,1,0,55,0,0
21372,-100,4,1,0,60,0,0
21460,-100,4,1,0,65,0,0
21548,-100,4,1,0,70,0,0
21990,-66.6666666666667,4,1,0,70,0,0
22078,-57.1428571428571,4,1,0,55,0,0
22343,-57.1428571428571,4,1,0,75,0,0
22431,-57.1428571428571,4,1,0,60,0,0
22696,-57.1428571428571,4,1,0,80,0,0
22784,-57.1428571428571,4,1,0,65,0,0
23049,-57.1428571428571,4,1,0,85,0,0
23402,176.470588235294,4,1,0,100,1,0
23402,-66.6666666666667,4,1,0,100,0,0
23578,-66.6666666666667,4,1,0,5,0,0
23637,-66.6666666666667,4,1,0,100,0,0
23813,-66.6666666666667,4,1,0,100,0,0
24107,-66.6666666666667,4,1,0,5,0,0
24166,-66.6666666666667,4,1,0,100,0,0
24813,352.941176470588,4,1,0,70,1,0
24813,-50,4,1,0,70,0,0
24901,-50,4,1,0,5,0,0
24989,-50,4,1,0,35,0,0
25077,-50,4,1,0,5,0,0
25165,-50,4,1,0,70,0,0
25254,-50,4,1,0,5,0,0
25342,-50,4,1,0,50,0,0
25518,-50,4,1,0,70,0,0
25695,-50,4,1,0,5,0,0
25871,-50,4,1,0,70,0,0
26048,-50,4,1,0,5,0,0
26224,-50,4,1,0,70,0,0
26401,-50,4,1,0,5,0,0
26577,-50,4,1,0,70,0,0
26754,-50,4,1,0,5,0,0
26930,-50,4,1,0,70,0,0
27107,-50,4,1,0,5,0,0
27283,-50,4,1,0,70,0,0
27460,-50,4,1,0,5,0,0
27636,-50,4,1,0,70,0,0
27724,-50,4,1,0,5,0,0
27813,-50,4,1,0,35,0,0
27901,-50,4,1,0,5,0,0
27989,-50,4,1,0,70,0,0
28077,-50,4,1,0,5,0,0
28165,-50,4,1,0,50,0,0
28342,-50,4,1,0,70,0,0
28518,-50,4,1,0,5,0,0
28695,-50,4,1,0,70,0,0
28871,-50,4,1,0,5,0,0
29048,-50,4,1,0,70,0,0
29224,-50,4,1,0,5,0,0
29401,-50,4,1,0,70,0,0
29577,-50,4,1,0,5,0,0
29754,-50,4,1,0,70,0,0
29930,-50,4,1,0,5,0,0
30107,-50,4,1,0,70,0,0
30195,-50,4,1,0,5,0,0
30283,-50,4,1,0,35,0,0
30371,-50,4,1,0,5,0,0
30460,-50,4,1,0,70,0,0
30636,-50,4,1,0,5,0,0
30812,-50,4,1,0,70,0,0
30989,-50,4,1,0,5,0,0
31165,-50,4,1,0,70,0,0
31342,-50,4,1,0,5,0,0
31518,-50,4,1,0,70,0,0
31695,-50,4,1,0,5,0,0
31871,-50,4,1,0,70,0,0
32048,-50,4,1,0,5,0,0
32224,-50,4,1,0,70,0,0
32401,-50,4,1,0,5,0,0
32577,-50,4,1,0,70,0,0
32665,-50,4,1,0,5,0,0
32754,-50,4,1,0,35,0,0
32842,-50,4,1,0,5,0,0
32930,-50,4,1,0,70,0,0
33018,-50,4,1,0,5,0,0
33107,-50,4,1,0,35,0,0
33195,-50,4,1,0,5,0,0
33283,-50,4,1,0,70,0,0
33460,-50,4,1,0,5,0,0
33636,-50,4,1,0,70,0,0
33812,-50,4,1,0,5,0,0
33989,-50,4,1,0,70,0,0
34165,-50,4,1,0,5,0,0
34342,-50,4,1,0,70,0,0
34518,-50,4,1,0,5,0,0
34695,-75.0187546886722,4,1,0,70,0,0
34960,-50,4,1,0,5,0,0
35048,176.470588235294,4,1,0,100,1,0
35048,-50,4,1,0,23,0,0
35165,-50,4,1,0,46,0,0
35283,-50,4,1,0,70,0,0
35400,-66.6666666666667,4,1,0,100,0,1
35742,-66.6666666666667,4,1,0,100,0,0
35753,-57.1428571428571,4,1,0,100,0,1
36106,352.941176470588,4,1,0,70,1,0
36106,-50,4,1,0,70,0,0
36282,-50,4,1,0,5,0,0
36458,-50,4,1,0,70,0,0
36635,-50,4,1,0,5,0,0
36811,-50,4,1,0,70,0,0
36988,-50,4,1,0,5,0,0
37164,-50,4,1,0,70,0,0
37341,-50,4,1,0,35,0,0
37517,-50,4,1,0,70,0,0
37694,-50,4,1,0,5,0,0
37870,-50,4,1,0,70,0,0
38047,-50,4,1,0,5,0,0
38223,-50,4,1,0,70,0,0
38400,-50,4,1,0,5,0,0
38576,-50,4,1,0,70,0,0
38753,-50,4,1,0,5,0,0
38929,-50,4,1,0,70,0,0
39106,-50,4,1,0,5,0,0
39282,-50,4,1,0,70,0,0
39458,-50,4,1,0,35,0,0
39635,-50,4,1,0,70,0,0
39811,-50,4,1,0,5,0,0
39988,-50,4,1,0,70,0,0
40164,-50,4,1,0,5,0,0
40341,-50,4,1,0,70,0,0
40517,-50,4,1,0,5,0,0
40694,-50,4,1,0,70,0,0
40870,-50,4,1,0,5,0,0
41047,-50,4,1,0,70,0,0
41223,-50,4,1,0,5,0,0
41400,-50,4,1,0,70,0,0
41576,-50,4,1,0,5,0,0
41753,-50,4,1,0,70,0,0
41929,-50,4,1,0,35,0,0
42106,-50,4,1,0,70,0,0
42282,-50,4,1,0,5,0,0
42458,-50,4,1,0,70,0,0
42635,-50,4,1,0,50,0,0
42811,-50,4,1,0,70,0,0
42988,-50,4,1,0,5,0,0
43164,-50,4,1,0,70,0,0
43341,-50,4,1,0,35,0,0
43517,-50,4,1,0,70,0,0
43694,-50,4,1,0,5,0,0
43870,-50,4,1,0,70,0,0
44047,-50,4,1,0,50,0,0
44223,-50,4,1,0,70,0,0
44400,-50,4,1,0,5,0,0
44576,-50,4,1,0,70,0,0
44753,-50,4,1,0,5,0,0
44929,-50,4,1,0,70,0,0
45105,-50,4,1,0,5,0,0
45282,-50,4,1,0,70,0,0
45458,-50,4,1,0,5,0,0
45635,-50,4,1,0,70,0,0
45811,-50,4,1,0,5,0,0
45988,-50,4,1,0,70,0,0
46164,-50,4,1,0,5,0,0
46341,-50,4,1,0,70,0,0
46517,-50,4,1,0,5,0,0
46694,-50,4,1,0,70,0,0
46929,-50,4,1,0,35,0,0
47164,-50,4,1,0,50,0,0
47282,-50,4,1,0,70,0,0
47400,-66.6666666666667,4,1,0,70,0,0
48105,-50,4,1,0,70,0,0
48164,-50,4,1,0,5,0,0
48223,-50,4,1,0,70,0,0
48282,-50,4,1,0,5,0,0
48341,-50,4,1,0,70,0,0
48400,-50,4,1,0,5,0,0
48458,-50,4,1,0,70,0,0
48547,-50,4,1,0,5,0,0
48635,-50,4,1,0,70,0,0
48723,-50,4,1,0,5,0,0
48811,-50,4,1,0,70,0,0
48988,-50,4,1,0,5,0,0
49047,-50,4,1,0,70,0,0
49223,-50,4,1,0,5,0,0
49282,-50,4,1,0,70,0,0
49458,-50,4,1,0,5,0,0
49517,-66.6666666666667,4,1,0,70,0,0
50223,-100,4,1,0,70,0,0
50841,-100,4,1,0,5,0,0
50929,-50,4,1,0,70,0,0
51017,-50,4,1,0,5,0,0
51105,-50,4,1,0,70,0,0
51194,-50,4,1,0,5,0,0
51282,-50,4,1,0,70,0,0
51370,-50,4,1,0,5,0,0
51635,-50,4,1,0,70,0,0
51900,-50,4,1,0,5,0,0
51988,-50,4,1,0,70,0,0
52076,-50,4,1,0,5,0,0
52164,-50,4,1,0,70,0,0
52253,-50,4,1,0,5,0,0
52341,-50,4,1,0,70,0,0
52429,-50,4,1,0,35,0,0
52694,-50,4,1,0,70,0,0
52782,-50,4,1,0,35,0,0
53047,-66.6666666666667,4,1,0,70,0,0
53664,-66.6666666666667,4,1,0,5,0,0
53753,-50,4,1,0,70,0,0
53929,-50,4,1,0,5,0,0
53988,-50,4,1,0,70,0,0
54164,-50,4,1,0,5,0,0
54223,-50,4,1,0,70,0,0
54400,-50,4,1,0,5,0,0
54458,-66.6666666666667,4,1,0,70,0,0
55164,-50,4,1,0,70,0,0
55223,-50,4,1,0,5,0,0
55282,-50,4,1,0,70,0,0
55341,-50,4,1,0,5,0,0
55400,-50,4,1,0,70,0,0
55458,-50,4,1,0,5,0,0
55517,-50,4,1,0,70,0,0
55782,-50,4,1,0,5,0,0
55870,-50,4,1,0,70,0,0
56135,-50,4,1,0,5,0,0
56223,-50,4,1,0,70,0,0
56311,-50,4,1,0,5,0,0
56400,-50,4,1,0,70,0,0
56488,-50,4,1,0,5,0,0
56576,-50,4,1,0,70,0,0
56870,-50,4,1,0,5,0,0
56929,-50,4,1,0,70,0,0
56988,-50,4,1,0,5,0,0
57047,-50,4,1,0,70,0,0
57105,-50,4,1,0,5,0,0
57164,-50,4,1,0,70,0,0
57223,-50,4,1,0,5,0,0
57282,-50,4,1,0,70,0,0
57547,-50,4,1,0,5,0,0
57635,-50,4,1,0,70,0,0
57694,-50,4,1,0,5,0,0
57753,-50,4,1,0,70,0,0
57811,-50,4,1,0,5,0,0
57870,-50,4,1,0,70,0,0
57929,-50,4,1,0,5,0,0
57988,-50,4,1,0,70,0,0
58076,-50,4,1,0,30,0,0
58164,-50,4,1,0,35,0,0
58253,-50,4,1,0,40,0,0
58341,-50,4,1,0,70,0,0
58429,-50,4,1,0,50,0,0
58517,-50,4,1,0,55,0,0
58605,-50,4,1,0,60,0,0
58694,-50,4,1,0,70,0,0
58870,-50,4,1,0,5,0,0
59047,-50,4,1,0,70,0,0
59223,-50,4,1,0,5,0,0
59400,-50,4,1,0,70,0,0
59576,-50,4,1,0,5,0,0
59753,-50,4,1,0,70,0,0
59929,-50,4,1,0,5,0,0
60105,-50,4,1,0,70,0,0
60282,-50,4,1,0,5,0,0
60458,-50,4,1,0,70,0,0
60635,-50,4,1,0,5,0,0
60811,-50,4,1,0,70,0,0
60900,-50,4,1,0,5,0,0
60988,-50,4,1,0,35,0,0
61076,-50,4,1,0,5,0,0
61164,-50,4,1,0,70,0,0
61253,-50,4,1,0,5,0,0
61341,-50,4,1,0,35,0,0
61429,-50,4,1,0,5,0,0
61517,-50,4,1,0,70,0,0
61694,-50,4,1,0,5,0,0
61870,-50,4,1,0,70,0,0
62047,-50,4,1,0,5,0,0
62223,-50,4,1,0,70,0,0
62400,-50,4,1,0,5,0,0
62576,-50,4,1,0,70,0,0
62753,-50,4,1,0,5,0,0
62929,-50,4,1,0,70,0,0
63105,-50,4,1,0,5,0,0
63282,-50,4,1,0,70,0,0
63458,-50,4,1,0,5,0,0
63635,-50,4,1,0,70,0,0
63811,-50,4,1,0,5,0,0
63988,-50,4,1,0,70,0,0
64164,-50,4,1,0,35,0,0
64347,350.877192982456,4,1,0,70,1,0
64347,-50,4,1,0,70,0,0
64522,-50,4,1,0,5,0,0
64697,-50,4,1,0,70,0,0
64873,-50,4,1,0,5,0,0
65048,-50,4,1,0,70,0,0
65224,-50,4,1,0,5,0,0
65399,-50,4,1,0,70,0,0
65575,-50,4,1,0,5,0,0
65750,-50,4,1,0,70,0,0
65925,-50,4,1,0,5,0,0
66101,-50,4,1,0,70,0,0
66276,-50,4,1,0,5,0,0
66452,-50,4,1,0,70,0,0
66627,-50,4,1,0,5,0,0
66803,-50,4,1,0,70,0,0
66978,-50,4,1,0,5,0,0
67154,-50,4,1,0,70,0,0
67329,-50,4,1,0,5,0,0
67504,-50,4,1,0,70,0,0
67680,-50,4,1,0,5,0,0
67855,-50,4,1,0,70,0,0
68031,-50,4,1,0,5,0,0
68206,-50,4,1,0,70,0,0
68382,-50,4,1,0,5,0,0
68557,348.837209302326,4,1,0,70,1,0
68557,-50,4,1,0,70,0,0
68731,-50,4,1,0,5,0,0
68905,-50,4,1,0,70,0,0
69080,-50,4,1,0,5,0,0
69254,-50,4,1,0,70,0,0
69429,-50,4,1,0,5,0,0
69603,-50,4,1,0,70,0,0
69777,-50,4,1,0,72,0,0
69952,-50,4,1,0,74,0,0
70126,-50,4,1,0,76,0,0
70301,-50,4,1,0,78,0,0
70475,-50,4,1,0,80,0,0
70650,-50,4,1,0,82,0,0
70693,-50,4,1,0,84,0,0
70737,-50,4,1,0,86,0,0
70780,-50,4,1,0,88,0,0
70824,-50,4,1,0,90,0,0
70911,-50,4,1,0,92,0,0
70998,-50,4,1,0,94,0,0
71086,-50,4,1,0,96,0,0
71173,-50,4,1,0,98,0,0
71260,-50,4,1,0,100,0,0
71347,174.418604651163,4,1,0,100,1,0
71347,-66.6666666666667,4,1,0,100,0,0
72742,173.410404624277,4,1,0,70,1,1
72742,-66.6666666666667,4,1,0,100,0,1
78291,-125,4,1,0,100,0,1
79678,-66.6666666666667,4,1,0,100,0,1
83819,-100,4,1,0,100,0,0
83840,-66.6666666666667,4,1,0,100,0,1
89389,-125,4,1,0,100,0,1
90776,-66.6666666666667,4,1,0,100,0,1
93552,-66.6666666666667,4,1,0,100,0,0
94939,-66.6666666666667,4,1,0,100,0,1
100466,-100,4,1,0,100,0,0
100488,-100,4,1,0,100,0,1
101854,-100,4,1,0,100,0,0
101875,-100,4,1,0,100,0,1
103241,-100,4,1,0,100,0,0
103263,-100,4,1,0,100,0,1
103610,-100,4,1,0,100,0,0
103956,-100,4,1,0,100,0,1
104303,-100,4,1,0,100,0,0
104650,-100,4,1,0,100,0,1
104823,-100,4,1,0,100,0,0
104996,-66.6666666666667,4,1,0,100,0,1
105170,-50,4,1,0,100,0,0
105344,-50,4,1,0,100,0,1
105517,-40,4,1,0,100,0,0
105690,-40,4,1,0,100,0,1
105864,-100,4,1,0,100,0,0
106037,-100,4,1,0,100,0,1
109159,-100,4,1,0,100,0,0

[Colours]
Combo1 : 255,128,192
Combo2 : 255,0,128
Combo3 : 128,0,128
Combo4 : 64,0,64

[HitObjects]
368,200,1874,6,0,L|224:216,1,140,4|0,0:0|0:0,0:0:0:0:
192,296,2050,2,0,L|336:280,1,140,2|0,0:0|0:0,0:0:0:0:
448,192,2226,6,0,L|432:336,1,140,12|0,0:0|0:0,0:0:0:0:
368,200,2403,2,0,P|411:121|457:112,1,140,0|2,0:0|0:0,0:0:0:0:
354,183,2756,2,0,P|410:112|456:111,1,140,0|4,0:0|0:0,0:0:0:0:
343,164,3109,2,0,P|410:104|456:111,1,140,0|2,0:0|0:0,0:0:0:0:
289,52,3462,6,0,P|348:119|341:165,1,140,0|4,0:0|0:0,0:0:0:0:
270,62,3815,2,0,P|340:118|341:164,1,140,0|2,0:0|0:0,0:0:0:0:
253,75,4168,2,0,P|332:118|341:163,1,140,0|4,0:0|0:0,0:0:0:0:
239,91,4521,2,0,P|324:119|341:163,1,140,0|2,0:0|0:0,0:0:0:0:
201,176,4874,6,0,L|345:160,1,140,0|4,0:0|0:0,0:0:0:0:
205,199,5226,2,0,L|344:158,1,140,0|2,0:0|0:0,0:0:0:0:
344,215,5579,2,0,L|204:206,1,140,0|4,0:0|0:0,0:0:0:0:
209,254,5932,2,0,L|343:214,1,140,0|2,0:0|0:0,0:0:0:0:
343,214,6285,1,0,0:0:0:0:
354,299,6462,6,0,P|290:274|267:210,1,140,4|0,0:0|0:0,0:0:0:0:
354,299,6815,2,0,P|287:286|253:227,1,140,2|0,0:0|0:0,0:0:0:0:
167,315,7168,2,0,P|230:290|253:226,1,140,4|0,0:0|0:0,0:0:0:0:
167,315,7521,2,0,P|233:302|267:243,1,140,2|4,0:0|0:0,0:0:0:0:
288,104,7874,5,4,0:0:0:0:
184,232,8050,1,0,0:0:0:0:
168,64,8226,5,2,0:0:0:0:
272,192,8403,1,0,0:0:0:0:
240,16,8579,5,4,0:0:0:0:
172,166,8756,1,0,0:0:0:0:
113,8,8932,5,2,0:0:0:0:
247,105,9109,1,0,0:0:0:0:
95,172,9285,5,4,0:0:0:0:
248,208,9462,1,0,0:0:0:0:
80,232,9638,5,2,0:0:0:0:
233,196,9815,1,0,0:0:0:0:
112,128,9991,5,4,0:0:0:0:
265,164,10168,1,0,0:0:0:0:
256,264,10344,5,2,0:0:0:0:
287,104,10521,1,0,0:0:0:0:
262,267,10697,6,0,L|401:282,1,140,4|0,0:0|0:0,0:0:0:0:
416,143,11050,2,0,L|400:282,1,140,2|0,0:0|0:0,0:0:0:0:
248,256,11403,2,0,L|387:271,1,140,4|0,0:0|0:0,0:0:0:0:
402,132,11756,2,0,L|386:271,1,140,2|0,0:0|0:0,0:0:0:0:
248,256,12109,6,0,P|188:188|195:142,1,140,4|0,0:0|0:0,0:0:0:0:
194,144,12462,1,2,0:0:0:0:
120,296,12638,2,0,P|57:323|58:255,1,157.500006008148,4|0,0:0|0:0,0:0:0:0:
145,196,12814,6,0,L|201:148,1,70.0000026702882,6|0,0:0|0:0,0:0:0:0:
243,94,12932,6,0,L|176:70,1,70.0000026702882,6|0,0:0|0:0,0:0:0:0:
105,60,13035,6,0,L|117:128,1,70.0000026702882,6|0,0:0|0:0,0:0:0:0:
257,212,13167,5,6,0:0:0:0:
464,24,13343,6,0,L|440:232,1,210,6|0,0:0|0:0,0:0:0:0:
427,302,13520,5,4,0:0:0:0:
288,284,13696,2,0,L|435:302,1,140,0|2,0:0|0:0,0:0:0:0:
293,260,14049,2,0,L|434:303,1,140,0|4,0:0|0:0,0:0:0:0:
302,237,14402,2,0,L|433:304,1,140,0|2,0:0|0:0,0:0:0:0:
314,216,14755,2,0,L|432:305,1,140,0|4,0:0|0:0,0:0:0:0:
227,304,15108,6,0,P|270:225|316:216,1,140,0|2,0:0|0:0,0:0:0:0:
213,287,15461,2,0,P|269:216|315:215,1,140,0|4,0:0|0:0,0:0:0:0:
202,268,15814,2,0,P|269:208|315:215,1,140,0|2,0:0|0:0,0:0:0:0:
194,246,16167,1,0,0:0:0:0:
332,228,16343,6,0,L|185:246,1,140,4|0,0:0|0:0,0:0:0:0:
332,228,16696,2,0,L|184:220,1,140,2|0,0:0|0:0,0:0:0:0:
332,228,17049,2,0,L|187:194,1,140,4|0,0:0|0:0,0:0:0:0:
332,228,17402,2,0,L|195:170,1,140,2|0,0:0|0:0,0:0:0:0:
74,118,17755,6,0,L|202:172,1,140,4|0,0:0|0:0,0:0:0:0:
74,118,18108,2,0,L|210:149,1,140,2|0,0:0|0:0,0:0:0:0:
74,118,18461,2,0,L|213:125,1,140,4|0,0:0|0:0,0:0:0:0:
74,118,18814,2,0,L|212:100,1,140,2|4,0:0|0:0,0:0:0:0:
344,48,19167,6,0,L|362:93,1,35,6|0,0:0|0:0,0:0:0:0:
416,128,19343,2,0,L|403:95,1,35
320,104,19519,2,0,L|338:149,1,35,4|0,0:0|0:0,0:0:0:0:
392,184,19696,2,0,L|379:151,1,35
264,160,19872,6,0,L|282:205,1,35,4|0,0:0|0:0,0:0:0:0:
336,240,20049,2,0,L|323:207,1,35
184,192,20225,2,0,L|202:237,1,35,4|0,0:0|0:0,0:0:0:0:
256,272,20402,2,0,L|243:239,1,35
168,48,20578,6,0,L|150:93,1,35,6|0,0:0|0:0,0:0:0:0:
96,128,20755,2,0,L|109:95,1,35
192,104,20931,2,0,L|174:149,1,35,4|0,0:0|0:0,0:0:0:0:
120,184,21108,2,0,L|133:150,1,35
248,160,21284,6,0,L|230:205,1,35,6|0,0:0|0:0,0:0:0:0:
176,240,21461,2,0,L|189:207,1,35
328,192,21637,2,0,L|310:237,1,35,4|0,0:0|0:0,0:0:0:0:
256,272,21814,2,0,L|269:239,1,35
318,64,21990,6,0,L|268:82,1,52.5000020027161,6|0,0:0|0:0,0:0:0:0:
183,112,22167,5,0,0:0:0:0:
158,121,22255,1,0,0:0:0:0:
133,130,22343,2,0,L|203:156,1,61.2500005841255,6|0,0:0|0:0,0:0:0:0:
304,194,22519,5,0,0:0:0:0:
329,203,22608,1,0,0:0:0:0:
354,212,22696,2,0,L|284:238,1,61.2500005841255,6|0,0:0|0:0,0:0:0:0:
179,271,22872,5,0,0:0:0:0:
121,292,22961,1,0,0:0:0:0:
64,313,23049,1,4,0:0:0:0:
120,338,23137,5,4,0:0:0:0:
178,358,23225,1,4,0:0:0:0:
235,379,23314,1,4,0:0:0:0:
229,308,23402,6,0,L|196:92,1,210.000008010865,4|0,0:0|0:0,0:0:0:0:
221,34,23637,2,0,L|252:241,1,210.000008010865,4|0,0:0|0:0,0:0:0:0:
370,364,23931,6,0,L|162:332,1,210.000008010865,4|0,0:0|0:0,0:0:0:0:
229,308,24166,2,0,L|436:339,1,210.000008010865,4|0,0:0|0:0,0:0:0:0:
332,245,24460,6,0,L|228:229,1,105.000004005432,4|0,0:0|0:0,0:0:0:0:
160,147,24637,2,0,L|263:162,1,105.000004005432,4|0,0:0|0:0,0:0:0:0:
472,201,24813,6,0,P|401:256|370:253,1,70,4|2,0:0|0:0,0:0:0:0:
332,245,24989,2,0,P|287:166|296:136,1,70,0|2,0:0|0:0,0:0:0:0:
362,101,25165,2,0,P|375:189|356:215,1,70,2|0,0:0|0:0,0:0:0:0:
373,335,25342,1,0,0:0:0:0:
234,317,25518,6,0,L|372:334,1,140,4|0,0:0|0:0,0:0:0:0:
243,281,25871,2,0,L|371:333,1,140,2|0,0:0|0:0,0:0:0:0:
381,263,26224,6,0,L|243:280,1,140,4|0,0:0|0:0,0:0:0:0:
372,227,26577,2,0,L|243:279,1,140,2|0,0:0|0:0,0:0:0:0:
233,209,26930,6,0,L|371:226,1,140,4|0,0:0|0:0,0:0:0:0:
242,173,27283,2,0,L|370:225,1,140,2|0,0:0|0:0,0:0:0:0:
170,97,27636,6,0,L|100:105,1,70,4|0,0:0|0:0,0:0:0:0:
214,237,27813,2,0,L|241:172,1,70
70,205,27989,2,0,L|112:260,1,70,2|0,0:0|0:0,0:0:0:0:
151,180,28165,1,0,0:0:0:0:
308,157,28342,6,0,P|279:218|213:236,1,140,4|0,0:0|0:0,0:0:0:0:
325,184,28695,2,0,P|280:235|212:235,1,140,2|0,0:0|0:0,0:0:0:0:
345,305,29048,6,0,P|306:248|324:183,1,140,4|0,0:0|0:0,0:0:0:0:
313,305,29401,2,0,P|290:240|324:182,1,140,2|0,0:0|0:0,0:0:0:0:
197,262,29754,6,0,P|264:256|312:304,1,140,4|0,0:0|0:0,0:0:0:0:
213,234,30107,2,0,P|279:246|308:277,1,70,2|0,0:0|0:0,0:0:0:0:
313,305,30283,2,0,P|279:246|222:232,1,70,2|0,0:0|0:0,0:0:0:0:
74,251,30460,6,0,L|212:234,1,140,4|0,0:0|0:0,0:0:0:0:
74,214,30812,2,0,L|211:233,1,140,2|0,0:0|0:0,0:0:0:0:
148,108,31165,6,0,L|276:162,1,140,4|0,0:0|0:0,0:0:0:0:
166,76,31518,2,0,L|275:161,1,140,2|0,0:0|0:0,0:0:0:0:
283,21,31871,6,0,L|366:132,1,140,4|0,0:0|0:0,0:0:0:0:
315,2,32224,2,0,L|367:130,1,140,2|0,0:0|0:0,0:0:0:0:
393,341,32577,6,0,L|347:229,1,70,4|0,0:0|0:0,0:0:0:0:
276,162,32754,2,0,L|322:274,1,70,4|0,0:0|0:0,0:0:0:0:
227,336,32930,2,0,L|339:290,1,70,2|0,0:0|0:0,0:0:0:0:
446,164,33107,2,0,L|334:210,1,70,4|0,0:0|0:0,0:0:0:0:
206,238,33283,6,0,P|145:209|127:143,1,140,4|0,0:0|0:0,0:0:0:0:
179,255,33636,2,0,P|128:210|128:142,1,140,2|0,0:0|0:0,0:0:0:0:
6,163,33989,6,0,P|61:124|127:142,1,140,4|0,0:0|0:0,0:0:0:0:
4,131,34342,2,0,P|68:109|127:143,1,140,2|0,0:0|0:0,0:0:0:0:
169,27,34695,6,0,P|174:94|126:142,1,140,4|0,0:0|0:0,0:0:0:0:
338,168,35048,6,0,L|394:120,1,70.0000026702882,6|0,0:0|0:0,0:0:0:0:
436,66,35165,6,0,L|369:42,1,70.0000026702882,4|0,0:0|0:0,0:0:0:0:
298,32,35268,6,0,L|310:100,1,70.0000026702882,6|0,0:0|0:0,0:0:0:0:
482,291,35400,6,0,L|256:316,1,210.000008010865,4|0,0:0|0:0,0:0:0:0:
27,307,35753,6,0,L|270:279,1,245.000002336502,4|0,0:0|0:0,0:0:0:0:
478,153,36106,6,0,L|333:169,1,140,4|0,0:0|0:0,0:0:0:0:
130,151,36458,2,0,L|269:135,1,140,2|0,0:0|0:0,0:0:0:0:
471,75,36811,2,0,L|326:91,1,140,4|0,0:0|0:0,0:0:0:0:
123,73,37164,1,2,0:0:0:0:
262,57,37341,1,0,0:0:0:0:
265,227,37517,6,0,P|236:288|170:306,1,140,4|0,0:0|0:0,0:0:0:0:
275,139,37870,2,0,P|336:168|354:234,1,140,2|0,0:0|0:0,0:0:0:0:
188,127,38223,2,0,P|217:66|283:48,1,140,4|0,0:0|0:0,0:0:0:0:
178,215,38576,2,0,P|117:186|99:120,1,140,2|0,0:0|0:0,0:0:0:0:
282,47,38929,6,0,B|342:55|358:121|419:129,1,140,4|0,0:0|0:0,0:0:0:0:
431,31,39282,1,2,0:0:0:0:
275,139,39458,1,0,0:0:0:0:
447,221,39635,6,0,P|451:147|389:125,1,140,4|0,0:0|0:0,0:0:0:0:
349,269,39988,2,0,P|423:273|445:211,1,140,2|0,0:0|0:0,0:0:0:0:
300,171,40341,2,0,P|296:245|358:267,1,140,4|0,0:0|0:0,0:0:0:0:
398,123,40694,2,0,P|357:68|289:63,1,140,2|0,0:0|0:0,0:0:0:0:
56,104,41047,6,0,L|201:120,1,140,4|0,0:0|0:0,0:0:0:0:
300,171,41400,2,0,L|155:187,1,140,2|0,0:0|0:0,0:0:0:0:
24,200,41753,5,4,0:0:0:0:
104,312,41929,1,0,0:0:0:0:
160,186,42106,2,0,L|300:171,1,140,2|0,0:0|0:0,0:0:0:0:
437,185,42458,5,4,0:0:0:0:
357,297,42635,1,0,0:0:0:0:
300,171,42811,2,0,L|160:155,1,140,2|0,0:0|0:0,0:0:0:0:
24,141,43164,5,4,0:0:0:0:
104,29,43341,1,0,0:0:0:0:
160,155,43517,2,0,L|299:139,1,140,2|0,0:0|0:0,0:0:0:0:
435,125,43870,5,4,0:0:0:0:
355,13,44047,1,0,0:0:0:0:
299,139,44223,2,0,L|159:123,1,140,2|0,0:0|0:0,0:0:0:0:
320,40,44576,6,0,P|381:69|399:135,1,140,4|0,0:0|0:0,0:0:0:0:
496,160,44929,2,0,P|467:221|401:239,1,140,2|0,0:0|0:0,0:0:0:0:
380,338,45282,2,0,P|319:309|301:243,1,140,4|0,0:0|0:0,0:0:0:0:
204,218,45635,6,0,P|233:157|299:139,1,140,2|0,0:0|0:0,0:0:0:0:
182,96,45988,2,0,P|220:151|202:217,1,140,4|0,0:0|0:0,0:0:0:0:
298,138,46341,2,0,P|230:143|182:95,1,140,2|0,0:0|0:0,0:0:0:0:
300,243,46694,5,4,0:0:0:0:
392,192,46958,1,4,0:0:0:0:
392,192,47047,2,0,B|424:200|424:200|440:224|440:224|472:232,2,93.3333333333333,4|4|4,0:0|0:0|0:0,0:0:0:0:
298,138,47400,6,0,P|274:66|432:120,1,367.500014019013,4|0,0:0|0:0,0:0:0:0:
358,80,48105,6,0,L|304:124,1,46.6666666666667,4|0,0:0|0:0,0:0:0:0:
395,95,48223,2,0,L|341:139,1,46.6666666666667,4|0,0:0|0:0,0:0:0:0:
436,110,48341,2,0,L|382:154,1,46.6666666666667,4|0,0:0|0:0,0:0:0:0:
434,216,48458,6,0,L|497:263,1,70,4|0,0:0|0:0,0:0:0:0:
356,213,48635,2,0,L|419:260,1,70,4|0,0:0|0:0,0:0:0:0:
259,273,48811,6,0,B|211:263|160:272|160:272|197:241|197:200,1,140,4|0,0:0|0:0,0:0:0:0:
133,162,49047,2,0,B|181:152|232:161|232:161|195:130|195:89,1,140,4|0,0:0|0:0,0:0:0:0:
259,51,49282,2,0,B|211:41|160:50|160:50|197:19|197:-22,1,140,4|0,0:0|0:0,0:0:0:0:
342,16,49517,6,0,P|417:11|330:114,1,315.000012016297,4|4,0:0|0:0,0:0:0:0:
383,71,50223,6,0,B|364:106|334:118|334:118|343:155|390:172|390:172|399:226|356:263,1,245,4|0,0:0|0:0,0:0:0:0:
299,315,50929,2,0,B|261:313|244:313|244:313|255:290|259:261,1,70,4|0,0:0|0:0,0:0:0:0:
151,233,51105,2,0,B|171:201|180:186|180:186|194:207|217:225,1,70,4|0,0:0|0:0,0:0:0:0:
296,145,51282,2,0,B|313:178|321:193|321:193|296:195|269:206,1,70,4|0,0:0|0:0,0:0:0:0:
104,48,51635,6,0,B|72:96|80:160|80:160|112:128|112:128|104:168|128:208,1,210,4|0,0:0|0:0,0:0:0:0:
192,152,51988,2,0,P|213:195|237:209,1,70,4|0,0:0|0:0,0:0:0:0:
248,168,52164,2,0,P|279:204|307:211,1,70,4|0,0:0|0:0,0:0:0:0:
320,128,52341,5,4,0:0:0:0:
359,143,52429,1,0,0:0:0:0:
382,168,52517,1,4,0:0:0:0:
389,202,52605,1,0,0:0:0:0:
388,230,52694,5,2,0:0:0:0:
383,250,52782,1,0,0:0:0:0:
377,262,52870,1,4,0:0:0:0:
369,273,52958,1,0,0:0:0:0:
362,281,53047,6,0,P|289:303|323:128,1,367.500014019013,4|0,0:0|0:0,0:0:0:0:
316,77,53753,6,0,P|253:86|193:133,1,140,4|0,0:0|0:0,0:0:0:0:
251,40,53988,2,0,P|192:64|146:125,1,140,4|0,0:0|0:0,0:0:0:0:
178,21,54223,2,0,P|127:60|99:130,1,140,4|0,0:0|0:0,0:0:0:0:
137,202,54458,6,0,P|211:316|297:209,1,315.000012016297,4|4,0:0|0:0,0:0:0:0:
215,229,55164,6,0,L|219:169,1,46.6666666666667,4|0,0:0|0:0,0:0:0:0:
250,202,55282,2,0,L|254:142,1,46.6666666666667,4|0,0:0|0:0,0:0:0:0:
285,175,55400,2,0,L|289:115,1,46.6666666666667,4|0,0:0|0:0,0:0:0:0:
293,49,55517,6,0,P|366:132|326:136,1,210,4|0,0:0|0:0,0:0:0:0:
285,175,55870,2,0,P|212:258|252:262,1,210,4|0,0:0|0:0,0:0:0:0:
304,259,56223,6,0,L|428:254,1,70,4|0,0:0|0:0,0:0:0:0:
426,276,56400,2,0,L|356:278,1,70,4|0,0:0|0:0,0:0:0:0:
212,258,56576,6,0,P|194:168|285:175,1,210,4|0,0:0|0:0,0:0:0:0:
152,330,56929,6,0,L|92:326,1,46.6666666666667,4|0,0:0|0:0,0:0:0:0:
125,295,57047,2,0,L|65:291,1,46.6666666666667,4|0,0:0|0:0,0:0:0:0:
98,260,57164,2,0,L|38:256,1,46.6666666666667,4|0,0:0|0:0,0:0:0:0:
76,176,57282,6,0,B|44:128|52:64|52:64|84:96|84:96|76:56|100:16,1,210,4|0,0:0|0:0,0:0:0:0:
167,72,57635,6,0,L|227:76,1,46.6666666666667,4|0,0:0|0:0,0:0:0:0:
244,87,57753,2,0,L|210:136,1,46.6666666666667,4|0,0:0|0:0,0:0:0:0:
192,146,57870,2,0,L|165:92,1,46.6666666666667,4|0,0:0|0:0,0:0:0:0:
284,173,57988,5,4,0:0:0:0:
305,200,58076,1,0,0:0:0:0:
312,226,58164,1,4,0:0:0:0:
310,254,58253,1,0,0:0:0:0:
243,233,58341,5,2,0:0:0:0:
215,273,58429,1,0,0:0:0:0:
216,321,58517,1,4,0:0:0:0:
255,360,58605,1,0,0:0:0:0:
316,365,58694,6,0,L|454:348,1,140,4|0,0:0|0:0,0:0:0:0:
316,328,59047,2,0,L|453:347,1,140,2|0,0:0|0:0,0:0:0:0:
370,199,59400,6,0,L|315:327,1,140,4|0,0:0|0:0,0:0:0:0:
402,217,59753,2,0,L|316:326,1,140,2|0,0:0|0:0,0:0:0:0:
486,328,60105,6,0,L|402:216,1,140,4|0,0:0|0:0,0:0:0:0:
454,346,60458,2,0,L|401:217,1,140,2|0,0:0|0:0,0:0:0:0:
453,41,60811,6,0,L|383:49,1,70,4|0,0:0|0:0,0:0:0:0:
246,105,60988,2,0,L|315:96,1,70,4|0,0:0|0:0,0:0:0:0:
459,121,61164,6,0,L|389:129,1,70,2|0,0:0|0:0,0:0:0:0:
252,185,61341,2,0,L|321:176,1,70,4|0,0:0|0:0,0:0:0:0:
465,201,61517,6,0,P|448:266|386:296,1,140,4|0,0:0|0:0,0:0:0:0:
437,184,61870,2,0,P|437:251|386:296,1,140,2|0,0:0|0:0,0:0:0:0:
341,106,62223,6,0,P|406:122|436:184,1,140,4|0,0:0|0:0,0:0:0:0:
323,132,62576,2,0,P|390:131|435:182,1,140,2|0,0:0|0:0,0:0:0:0:
243,229,62929,6,0,P|259:163|321:133,1,140,4|0,0:0|0:0,0:0:0:0:
270,245,63282,2,0,P|269:177|320:132,1,140,2|0,0:0|0:0,0:0:0:0:
367,325,63635,6,0,P|301:308|271:246,1,140,4|0,0:0|0:0,0:0:0:0:
383,297,63988,2,0,P|315:297|270:246,1,140,2|4,0:0|0:0,0:0:0:0:
232,110,64341,6,0,L|375:92,1,140,4|0,0:0|0:0,0:0:0:0:
204,137,64697,2,0,L|345:120,1,140,2|0,0:0|0:0,0:0:0:0:
176,164,65048,2,0,L|319:146,1,140,4|0,0:0|0:0,0:0:0:0:
148,191,65399,2,0,L|291:173,1,140,2|0,0:0|0:0,0:0:0:0:
351,220,65750,6,0,L|208:202,1,140,4|0,0:0|0:0,0:0:0:0:
379,247,66101,2,0,L|236:229,1,140,2|0,0:0|0:0,0:0:0:0:
407,274,66452,2,0,L|264:256,1,140,4|0,0:0|0:0,0:0:0:0:
435,301,66803,2,0,L|292:283,1,140,2|0,0:0|0:0,0:0:0:0:
74,245,67154,6,0,L|217:227,1,140,4|0,0:0|0:0,0:0:0:0:
435,189,67504,2,0,L|292:171,1,140,4|0,0:0|0:0,0:0:0:0:
74,133,67855,6,0,L|217:115,1,140,4|0,0:0|0:0,0:0:0:0:
435,77,68206,2,0,L|292:59,1,140,4|0,0:0|0:0,0:0:0:0:
314,277,68557,6,0,L|402:165,1,140,4|0,0:0|0:0,0:0:0:0:
261,147,68905,2,0,L|313:279,1,140,4|0,0:0|0:0,0:0:0:0:
400,166,69254,2,0,L|259:145,1,140,4|0,0:0|0:0,0:0:0:0:
52,119,69603,5,4,0:0:0:0:
136,230,69777,1,4,0:0:0:0:
143,47,69952,5,4,0:0:0:0:
218,232,70126,1,4,0:0:0:0:
273,28,70301,5,4,0:0:0:0:
301,244,70475,1,4,0:0:0:0:
389,52,70650,6,0,L|456:63,1,35,4|4,0:0|0:0,0:0:0:0:
399,72,70737,6,0,L|433:77,1,35,4|4,0:0|0:0,0:0:0:0:
409,92,70824,5,4,0:0:0:0:
421,132,70911,5,4,0:0:0:0:
421,180,70998,1,4,0:0:0:0:
407,234,71086,5,4,0:0:0:0:
369,292,71173,1,4,0:0:0:0:
301,308,71260,5,4,0:0:0:0:
234,287,71347,6,0,L|201:71,1,210.000008010865,4|0,0:0|0:0,0:0:0:0:
226,13,71565,2,0,L|257:220,1,210.000008010865,4|0,0:0|0:0,0:0:0:0:
301,308,71870,6,0,L|268:92,1,210.000008010865,4|0,0:0|0:0,0:0:0:0:
293,34,72088,2,0,L|324:241,1,210.000008010865,4|0,0:0|0:0,0:0:0:0:
130,302,72393,6,0,L|268:281,1,105.000004005432,4|0,0:0|0:0,0:0:0:0:
427,225,72567,2,0,L|323:240,1,105.000004005432,4|0,0:0|0:0,0:0:0:0:
125,201,72742,6,0,P|66:117|186:195,1,420.000016021729,4|4,0:0|0:0,0:0:0:0:
128,211,73262,1,0,0:0:0:0:
85,240,73348,1,0,0:0:0:0:
68,289,73435,5,4,0:0:0:0:
84,338,73522,1,0,0:0:0:0:
126,368,73609,1,0,0:0:0:0:
178,367,73695,1,0,0:0:0:0:
219,335,73782,5,4,0:0:0:0:
233,286,73869,1,0,0:0:0:0:
214,238,73955,1,0,0:0:0:0:
178,205,74042,1,0,0:0:0:0:
128,211,74129,5,4,0:0:0:0:
145,129,74215,1,0,0:0:0:0:
162,47,74302,1,0,0:0:0:0:
224,102,74389,1,0,0:0:0:0:
287,158,74476,6,0,L|383:243,1,105.000004005432,4|0,0:0|0:0,0:0:0:0:
106,313,74649,2,0,L|128:211,1,105.000004005432
162,47,74822,6,0,L|196:150,1,105.000004005432,4|0,0:0|0:0,0:0:0:0:
320,257,74996,2,0,L|286:157,1,105.000004005432
184,38,75169,6,0,L|218:141,1,105.000004005432,4|0,0:0|0:0,0:0:0:0:
342,248,75343,2,0,L|308:148,1,105.000004005432
243,224,75516,6,0,P|159:283|237:163,1,420.000016021729,4|4,0:0|0:0,0:0:0:0:
253,221,76036,1,0,0:0:0:0:
282,264,76123,1,0,0:0:0:0:
331,281,76210,5,4,0:0:0:0:
380,265,76296,1,0,0:0:0:0:
410,223,76383,1,0,0:0:0:0:
409,171,76470,1,0,0:0:0:0:
377,130,76557,5,4,0:0:0:0:
328,116,76643,1,0,0:0:0:0:
280,135,76730,1,0,0:0:0:0:
247,171,76817,1,0,0:0:0:0:
215,249,76903,5,4,0:0:0:0:
184,327,76990,1,0,0:0:0:0:
110,368,77077,2,0,L|38:230,1,105.000004005432
26,77,77250,6,0,L|74:170,1,105.000004005432,4|0,0:0|0:0,0:0:0:0:
184,327,77424,2,0,L|112:189,1,105.000004005432
100,36,77597,6,0,L|148:129,1,105.000004005432,4|0,0:0|0:0,0:0:0:0:
184,327,77770,2,0,L|240:238,1,105.000004005432
313,139,77944,6,0,L|361:232,1,105.000004005432,4|0,0:0|0:0,0:0:0:0:
412,344,78117,2,0,L|307:339,1,105.000004005432,4|0,0:0|0:0,0:0:0:0:
110,129,78291,6,0,L|74:358,1,224,4|4,0:0|0:0,0:0:0:0:
126,132,78811,5,0,0:0:0:0:
192,142,78898,1,0,0:0:0:0:
257,153,78984,1,4,0:0:0:0:
135,242,79158,5,0,0:0:0:0:
200,254,79244,2,0,L|267:265,1,56,0|4,0:0|0:0,0:0:0:0:
93,350,79418,5,0,0:0:0:0:
159,360,79505,2,0,L|226:371,1,56
295,345,79678,5,4,0:0:0:0:
372,312,79765,1,0,0:0:0:0:
449,281,79851,1,0,0:0:0:0:
383,227,79938,1,0,0:0:0:0:
317,173,80025,6,0,L|199:76,1,105.000004005432,4|0,0:0|0:0,0:0:0:0:
70,37,80198,2,0,L|151:103,1,105.000004005432
261,293,80372,6,0,L|246:140,1,105.000004005432,4|0,0:0|0:0,0:0:0:0:
183,24,80545,2,0,L|193:128,1,105.000004005432
136,338,80718,6,0,L|233:220,1,105.000004005432,4|0,0:0|0:0,0:0:0:0:
271,92,80892,2,0,L|204:173,1,105.000004005432
49,364,81065,6,0,P|47:207|136:338,1,420.000016021729,4|4,0:0|0:0,0:0:0:0:
220,224,81499,5,0,0:0:0:0:
259,258,81585,1,0,0:0:0:0:
366,156,81759,5,4,0:0:0:0:
317,173,81846,1,0,0:0:0:0:
351,316,82019,5,0,0:0:0:0:
361,265,82106,1,4,0:0:0:0:
259,258,82279,5,0,0:0:0:0:
317,173,82366,1,0,0:0:0:0:
361,265,82452,5,4,0:0:0:0:
415,200,82539,1,0,0:0:0:0:
403,116,82626,1,0,0:0:0:0:
329,74,82713,1,0,0:0:0:0:
248,96,82799,6,0,L|127:150,1,105.000004005432,4|0,0:0|0:0,0:0:0:0:
48,260,82973,2,0,L|143:217,1,105.000004005432
317,173,83146,5,4,0:0:0:0:
178,188,83233,1,0,0:0:0:0:
39,206,83320,2,0,L|143:216,1,105.000004005432
446,326,83493,6,0,L|360:264,1,105.000004005432,4|0,0:0|0:0,0:0:0:0:
67,77,83666,2,0,L|152:138,1,105.000004005432,4|0,0:0|0:0,0:0:0:0:
280,266,83840,6,0,P|430:307|323:193,1,420,4|4,0:0|0:0,0:0:0:0:
214,256,84360,1,0,0:0:0:0:
217,307,84446,1,0,0:0:0:0:
251,346,84533,5,4,0:0:0:0:
301,357,84620,1,0,0:0:0:0:
348,336,84707,1,0,0:0:0:0:
374,290,84793,1,0,0:0:0:0:
366,239,84880,5,4,0:0:0:0:
331,202,84967,1,0,0:0:0:0:
280,195,85053,1,0,0:0:0:0:
233,209,85140,1,0,0:0:0:0:
293,273,85227,5,4,0:0:0:0:
376,262,85314,1,0,0:0:0:0:
441,210,85400,1,0,0:0:0:0:
457,127,85487,1,0,0:0:0:0:
438,44,85574,6,0,L|290:54,1,105.000004005432,4|0,0:0|0:0,0:0:0:0:
74,44,85747,2,0,L|222:54,1,105.000004005432
349,156,85921,6,0,L|206:114,1,105.000004005432,4|0,0:0|0:0,0:0:0:0:
56,47,86094,2,0,L|191:107,1,105.000004005432
263,234,86268,6,0,L|143:146,1,105.000004005432,4|0,0:0|0:0,0:0:0:0:
39,44,86441,2,0,L|145:146,1,105.000004005432
226,311,86614,6,0,P|380:335|262:233,1,420,4|4,0:0|0:0,0:0:0:0:
268,283,87135,1,0,0:0:0:0:
297,326,87221,1,0,0:0:0:0:
346,343,87308,5,4,0:0:0:0:
395,327,87395,1,0,0:0:0:0:
425,285,87482,1,0,0:0:0:0:
424,233,87568,1,0,0:0:0:0:
392,192,87655,5,4,0:0:0:0:
343,178,87742,1,0,0:0:0:0:
295,197,87828,1,0,0:0:0:0:
262,233,87915,1,0,0:0:0:0:
214,302,88002,5,4,0:0:0:0:
135,328,88088,1,0,0:0:0:0:
50,334,88175,2,0,P|80:256|122:240,1,105.000004005432
148,88,88348,6,0,P|200:152|193:197,1,105.000004005432,4|0,0:0|0:0,0:0:0:0:
311,297,88522,2,0,P|228:310|193:281,1,105.000004005432
200,169,88695,6,0,P|230:91|272:75,1,105.000004005432,4|0,0:0|0:0,0:0:0:0:
366,136,88869,2,0,P|418:200|411:245,1,105.000004005432
252,250,89042,6,0,P|199:185|206:140,1,105.000004005432,4|0,0:0|0:0,0:0:0:0:
394,119,89215,2,0,P|446:183|439:228,1,105.000004005432,4|0,0:0|0:0,0:0:0:0:
98,110,89389,6,0,L|142:337,1,224,4|4,0:0|0:0,0:0:0:0:
114,107,89910,5,0,0:0:0:0:
179,94,89997,1,0,0:0:0:0:
244,82,90083,1,4,0:0:0:0:
160,207,90256,5,0,0:0:0:0:
225,196,90342,2,0,L|291:183,1,56,0|4,0:0|0:0,0:0:0:0:
157,323,90516,5,0,0:0:0:0:
223,310,90603,2,0,L|289:297,1,56
355,265,90776,5,4,0:0:0:0:
409,200,90863,1,0,0:0:0:0:
400,116,90950,1,0,0:0:0:0:
335,63,91036,1,0,0:0:0:0:
250,63,91123,6,0,L|107:75,1,105.000004005432,4|0,0:0|0:0,0:0:0:0:
218,153,91296,2,0,L|322:144,1,105.000004005432
224,243,91470,6,0,L|120:224,1,105.000004005432,4|0,0:0|0:0,0:0:0:0:
170,322,91643,2,0,L|273:340,1,105.000004005432
412,244,91817,6,0,L|308:262,1,105.000004005432,4|0,0:0|0:0,0:0:0:0:
120,224,91990,2,0,L|223:242,1,105.000004005432
373,316,92163,6,0,P|474:298|334:268,1,420.000016021729,4|4,0:0|0:0,0:0:0:0:
184,245,92597,5,0,0:0:0:0:
232,263,92684,1,0,0:0:0:0:
297,131,92857,5,4,0:0:0:0:
257,163,92944,1,0,0:0:0:0:
338,286,93117,5,0,0:0:0:0:
330,235,93204,1,4,0:0:0:0:
232,263,93377,5,0,0:0:0:0:
257,163,93464,1,0,0:0:0:0:
330,235,93550,5,4,0:0:0:0:
350,153,93637,1,0,0:0:0:0:
304,82,93724,1,0,0:0:0:0:
219,79,93811,1,0,0:0:0:0:
169,147,93898,6,0,L|116:285,1,105.000004005432,4|0,0:0|0:0,0:0:0:0:
350,153,94071,2,0,L|403:291,1,105.000004005432
334,339,94244,5,4,0:0:0:0:
241,239,94331,1,0,0:0:0:0:
150,136,94418,2,0,L|97:274,1,105.000004005432
362,136,94591,2,0,L|415:274,1,105.000004005432,4|0,0:0|0:0,0:0:0:0:
334,339,94765,2,0,L|296:240,1,105.000004005432,4|0,0:0|0:0,0:0:0:0:
227,107,94938,6,0,P|70:118|206:195,1,420.000016021729,4|4,0:0|0:0,0:0:0:0:
294,105,95458,1,0,0:0:0:0:
323,62,95544,1,0,0:0:0:0:
372,45,95631,5,4,0:0:0:0:
421,61,95718,1,0,0:0:0:0:
451,103,95805,1,0,0:0:0:0:
450,155,95891,1,0,0:0:0:0:
418,196,95978,5,4,0:0:0:0:
369,210,96065,1,0,0:0:0:0:
321,191,96151,1,0,0:0:0:0:
288,155,96238,1,0,0:0:0:0:
225,95,96325,5,4,0:0:0:0:
152,48,96412,1,0,0:0:0:0:
70,31,96498,1,0,0:0:0:0:
91,123,96585,1,0,0:0:0:0:
105,212,96672,6,0,P|100:275|72:361,1,105.000004005432,4|0,0:0|0:0,0:0:0:0:
325,111,96846,2,0,P|273:112|224:94,1,105.000004005432
128,208,97019,6,0,P|123:271|95:357,1,105.000004005432,4|0,0:0|0:0,0:0:0:0:
332,211,97192,2,0,P|282:194|242:160,1,105.000004005432
151,206,97366,6,0,P|146:269|118:355,1,105.000004005432,4|0,0:0|0:0,0:0:0:0:
306,310,97539,2,0,P|265:277|239:232,1,105.000004005432
249,138,97713,6,0,P|375:44|320:191,1,420.000016021729,4|4,0:0|0:0,0:0:0:0:
337,238,98233,1,0,0:0:0:0:
375,273,98319,1,0,0:0:0:0:
426,279,98406,5,4,0:0:0:0:
470,252,98493,1,0,0:0:0:0:
490,205,98580,1,0,0:0:0:0:
477,154,98666,1,0,0:0:0:0:
437,121,98753,5,4,0:0:0:0:
386,119,98840,1,0,0:0:0:0:
344,148,98926,1,0,0:0:0:0:
320,191,99013,1,0,0:0:0:0:
281,266,99100,5,4,0:0:0:0:
204,300,99187,1,0,0:0:0:0:
120,293,99273,1,0,0:0:0:0:
68,226,99360,1,0,0:0:0:0:
51,143,99447,6,0,P|59:49|87:6,1,105.000004005432,4|0,0:0|0:0,0:0:0:0:
292,163,99620,2,0,P|284:257|256:300,1,105.000004005432
82,146,99794,6,0,P|123:61|164:31,1,105.000004005432,4|0,0:0|0:0,0:0:0:0:
382,144,99967,2,0,P|340:228|299:258,1,105.000004005432
120,156,100140,6,0,P|182:85|231:68,1,105.000004005432,4|0,0:0|0:0,0:0:0:0:
470,149,100313,2,0,P|407:219|358:236,1,105.000004005432,4|0,0:0|0:0,0:0:0:0:
170,288,100487,5,6,0:0:0:0:
124,269,100574,1,0,0:0:0:0:
91,231,100661,1,0,0:0:0:0:
82,183,100747,1,0,0:0:0:0:
100,137,100834,1,4,0:0:0:0:
146,121,100921,1,0,0:0:0:0:
193,133,101007,1,0,0:0:0:0:
236,156,101094,1,0,0:0:0:0:
283,169,101181,1,4,0:0:0:0:
331,163,101268,1,0,0:0:0:0:
373,138,101354,1,0,0:0:0:0:
391,92,101441,1,0,0:0:0:0:
379,44,101528,1,4,0:0:0:0:
340,13,101614,1,0,0:0:0:0:
291,7,101701,1,0,0:0:0:0:
244,23,101788,1,0,0:0:0:0:
232,168,101874,5,6,0:0:0:0:
269,199,101961,1,0,0:0:0:0:
312,220,102048,1,0,0:0:0:0:
359,233,102135,1,0,0:0:0:0:
332,265,102221,5,4,0:0:0:0:
295,285,102308,1,0,0:0:0:0:
254,296,102395,1,0,0:0:0:0:
212,298,102481,1,0,0:0:0:0:
235,313,102568,5,4,0:0:0:0:
261,323,102655,1,0,0:0:0:0:
288,329,102741,1,0,0:0:0:0:
315,332,102828,1,0,0:0:0:0:
349,325,102915,1,4,0:0:0:0:
384,301,103002,1,0,0:0:0:0:
410,260,103088,1,0,0:0:0:0:
415,189,103175,1,0,0:0:0:0:
335,48,103262,5,6,0:0:0:0:
265,45,103348,1,0,0:0:0:0:
196,59,103435,1,0,0:0:0:0:
135,94,103522,1,0,0:0:0:0:
72,155,103609,2,0,P|57:180|48:244,3,70,4|0|0|0,0:0|0:0|0:0|0:0,0:0:0:0:
183,333,103955,5,6,0:0:0:0:
261,302,104041,1,0,0:0:0:0:
332,254,104128,1,0,0:0:0:0:
384,186,104215,1,0,0:0:0:0:
425,87,104302,2,0,P|429:51|409:-23,3,70,4|0|0|0,0:0|0:0|0:0|0:0,0:0:0:0:
180,130,104649,2,0,P|158:164|145:251,1,70
332,254,104822,2,0,P|354:220|367:133,1,70
177,104,104996,6,0,P|145:140|112:226,1,105.000004005432
334,279,105169,2,0,P|366:243|397:154,1,105.000004005432
219,53,105343,6,0,P|164:75|71:176,1,140
292,330,105516,2,0,P|347:308|440:210,1,140
329,28,105689,6,0,P|259:6|91:19,1,175
182,355,105862,2,0,P|252:377|410:361,1,175
255,192,106036,5,0,0:0:0:0:
256,192,106123,12,0,109158,0:0:0:0:
