osu file format v14

[General]
AudioFilename: audio.mp3
AudioLeadIn: 0
PreviewTime: 4735
Countdown: 1
SampleSet: None
StackLeniency: 0.7
Mode: 0
LetterboxInBreaks: 0
WidescreenStoryboard: 1

[Editor]
DistanceSpacing: 2
BeatDivisor: 4
GridSize: 4
TimelineZoom: 2.1

[Metadata]
Title:BRAIN POWOAH
TitleUnicode:BRAIN POWOAH
Artist:NOMA
ArtistUnicode:NOMA
Creator:SacredSage
Version:Hard
Source:Crash Bandicoot / NOMA Remix
Tags:NOMA Brain Power woah WOAH Crash Bandicoot meme DitzyFlama
BeatmapID:1411075
BeatmapSetID:665472

[Difficulty]
HPDrainRate:6
CircleSize:3.2
OverallDifficulty:6
ApproachRate:8
SliderMultiplier:1.40000000596046
SliderTickRate:1

[Events]
//Background and Video events
0,0,"woah.jpg",0,0
//Break Periods
//Storyboard Layer 0 (Background)
//Storyboard Layer 1 (Fail)
//Storyboard Layer 2 (Pass)
//Storyboard Layer 3 (Foreground)
//Storyboard Sound Samples

[TimingPoints]
574,346.820809248555,4,2,0,30,1,0
574,-100,4,2,0,10,0,0
4735,-100,4,3,0,70,0,0
24157,-100,4,3,0,70,0,0
27105,-100,4,2,0,5,0,0

[Colours]
Combo1 : 255,255,0
Combo2 : 255,0,0
Combo3 : 37,185,239
Combo4 : 0,255,0

[HitObjects]
104,176,574,6,0,P|172:156|220:320,1,280.000001192092
227,312,1961,2,0,P|336:284|284:136,1,280.000001192092
309,146,3348,2,0,P|204:192|88:88,1,280.000001192092
89,94,4735,6,0,P|152:100|180:116,1,70.000000298023,4|0,0:0|0:0,0:0:0:0:
264,192,5082,2,0,P|297:201|332:200,1,70.000000298023,8|0,0:0|0:0,0:0:0:0:
464,148,5429,1,0,0:0:0:0:
404,276,5602,1,8,0:0:0:0:
323,160,5776,2,0,P|264:132|224:136,1,70.000000298023
120,132,6123,5,0,0:0:0:0:
121,149,6209,1,0,0:0:0:0:
123,166,6296,1,0,0:0:0:0:
124,184,6383,1,0,0:0:0:0:
126,201,6469,2,0,L|137:313,1,70.000000298023,8|0,0:0|0:0,0:0:0:0:
256,340,6816,5,0,0:0:0:0:
336,224,6990,1,0,0:0:0:0:
408,344,7163,1,8,0:0:0:0:
488,228,7337,1,0,0:0:0:0:
364,288,7510,6,0,P|284:304|216:216,1,140.000000596046,0|8,0:0|0:0,0:0:0:0:
237,274,8204,2,0,P|160:264|140:248,1,70.000000298023
224,140,8550,2,0,P|301:150|321:166,1,70.000000298023,8|0,0:0|0:0,0:0:0:0:
424,196,8897,6,0,L|424:256,1,35.0000001490115
352,224,9071,2,0,L|352:272,1,35.0000001490115
280,252,9244,2,0,L|280:300,1,35.0000001490115,8|0,0:0|0:0,0:0:0:0:
208,280,9417,2,0,L|208:328,1,35.0000001490115
136,304,9591,6,0,L|76:304,1,35.0000001490115
108,232,9765,2,0,L|60:232,1,35.0000001490115
80,160,9938,2,0,L|32:160,1,35.0000001490115,8|0,0:0|0:0,0:0:0:0:
52,88,10111,2,0,L|4:88,1,35.0000001490115
16,16,10284,6,0,P|88:12|132:92,1,140.000000596046,0|8,0:0|0:0,0:0:0:0:
168,196,10805,1,0,0:0:0:0:
248,80,10978,2,0,P|316:64|372:84,1,70.000000298023
456,60,11325,1,8,0:0:0:0:
344,144,11498,1,0,0:0:0:0:
472,200,11672,5,0,0:0:0:0:
482,214,11758,1,0,0:0:0:0:
488,230,11845,1,0,0:0:0:0:
491,247,11932,1,0,0:0:0:0:
490,264,12019,2,0,P|448:304|404:304,1,70.000000298023,8|0,0:0|0:0,0:0:0:0:
300,328,12365,2,0,L|244:240,1,70.000000298023
188,144,12712,1,8,0:0:0:0:
116,264,12886,1,0,0:0:0:0:
256,267,13059,6,0,P|336:240|344:136,1,140.000000596046,0|8,0:0|0:0,0:0:0:0:
357,193,13753,2,0,P|416:156|432:96,1,70.000000298023
316,60,14100,2,0,P|279:1|219:-15,1,70.000000298023,8|0,0:0|0:0,0:0:0:0:
144,36,14446,5,0,0:0:0:0:
212,156,14620,1,0,0:0:0:0:
316,60,14793,1,8,0:0:0:0:
384,180,14967,1,0,0:0:0:0:
468,68,15140,6,0,P|424:36|380:24,1,70.000000298023
276,76,15487,2,0,P|320:108|364:120,1,70.000000298023,8|0,0:0|0:0,0:0:0:0:
468,160,15834,6,0,P|476:248|412:308,1,140.000000596046,4|8,0:0|0:0,0:0:0:0:
172,344,16527,2,0,P|164:256|228:196,1,140.000000596046,0|8,0:0|0:0,0:0:0:0:
104,100,17221,5,0,0:0:0:0:
88,108,17307,1,0,0:0:0:0:
75,120,17394,1,0,0:0:0:0:
65,134,17481,1,0,0:0:0:0:
57,150,17568,2,0,L|52:232,1,70.000000298023,8|0,0:0|0:0,0:0:0:0:
48,360,17915,5,0,0:0:0:0:
136,252,18088,1,0,0:0:0:0:
4,292,18261,1,8,0:0:0:0:
140,332,18435,1,0,0:0:0:0:
56,220,18608,6,0,P|48:160|112:92,1,140.000000596046,0|8,0:0|0:0,0:0:0:0:
93,99,19302,2,0,L|184:96,1,70.000000298023
244,212,19649,2,0,L|335:209,1,70.000000298023,8|0,0:0|0:0,0:0:0:0:
380,88,19995,5,0,0:0:0:0:
397,89,20081,1,0,0:0:0:0:
414,94,20168,1,0,0:0:0:0:
429,102,20255,1,0,0:0:0:0:
443,113,20342,2,0,L|472:200,1,70.000000298023,8|0,0:0|0:0,0:0:0:0:
432,316,20689,2,0,L|403:229,1,70.000000298023
300,164,21036,2,0,L|328:250,1,70.000000298023,8|0,0:0|0:0,0:0:0:0:
356,368,21383,6,0,L|408:372,14,35.0000001490115,4|0|0|0|8|0|0|0|0|0|0|0|8|0|0,0:0|0:0|0:0|0:0|0:0|0:0|0:0|0:0|0:0|0:0|0:0|0:0|0:0|0:0|0:0,0:0:0:0:
216,364,22770,2,0,L|152:360,14,35.0000001490115,4|0|0|0|8|0|0|0|0|0|0|0|8|0|0,0:0|0:0|0:0|0:0|0:0|0:0|0:0|0:0|0:0|0:0|0:0|0:0|0:0|0:0|0:0,0:0:0:0:
320,272,24157,6,0,L|356:232,2,35.0000001490115,4|0|0,0:0|0:0|0:0,0:0:0:0:
192,272,24504,2,0,L|156:232,2,35.0000001490115,12|0|0,0:0|0:0|0:0,0:0:0:0:
308,176,24851,2,0,L|320:136,2,35.0000001490115,4|0|0,0:0|0:0|0:0,0:0:0:0:
204,176,25198,2,0,L|192:136,2,35.0000001490115,12|0|0,0:0|0:0|0:0,0:0:0:0:
244,312,25545,5,4,0:0:0:0:
261,309,25631,1,0,0:0:0:0:
278,306,25718,1,0,0:0:0:0:
295,303,25805,1,0,0:0:0:0:
313,300,25891,2,0,P|360:276|368:248,1,70.000000298023,4|0,0:0|0:0,0:0:0:0:
404,128,26238,5,4,0:0:0:0:
388,135,26324,1,0,0:0:0:0:
372,143,26411,1,0,0:0:0:0:
357,151,26498,1,0,0:0:0:0:
341,159,26585,2,0,L|268:196,1,70.000000298023,4|0,0:0|0:0,0:0:0:0:
152,248,26932,5,4,0:0:0:0:
256,192,27105,12,0,29861,0:0:0:0:
