osu file format v14

[General]
AudioFilename: audio.mp3
AudioLeadIn: 0
PreviewTime: 4735
Countdown: 1
SampleSet: None
StackLeniency: 0.7
Mode: 0
LetterboxInBreaks: 0
WidescreenStoryboard: 0

[Editor]
DistanceSpacing: 1
BeatDivisor: 1
GridSize: 4
TimelineZoom: 2.1

[Metadata]
Title:BRAIN POWOAH
TitleUnicode:BRAIN POWOAH
Artist:NOMA
ArtistUnicode:NOMA
Creator:SacredSage
Version:Extreme
Source:Crash Bandicoot / NOMA Remix
Tags:NOMA Brain Power woah WOAH Crash Bandicoot meme DitzyFlama
BeatmapID:1411074
BeatmapSetID:665472

[Difficulty]
HPDrainRate:6
CircleSize:4
OverallDifficulty:7
ApproachRate:9.2
SliderMultiplier:2.1
SliderTickRate:1

[Events]
//Background and Video events
0,0,"woah.jpg",0,0
//Break Periods
//Storyboard Layer 0 (Background)
//Storyboard Layer 1 (Fail)
//Storyboard Layer 2 (Pass)
//Storyboard Layer 3 (Foreground)
//Storyboard Sound Samples

[TimingPoints]
574,346.820809248555,4,2,0,30,1,0
574,-200,4,2,0,10,0,0
4735,-66.6666666666667,4,1,0,70,0,0
24157,-66.6666666666667,4,3,0,70,0,0
27105,-66.6666666666667,4,2,0,5,0,0

[Colours]
Combo1 : 255,255,0
Combo2 : 255,0,0
Combo3 : 37,185,239
Combo4 : 0,255,0

[HitObjects]
112,300,574,6,0,P|180:280|128:168,1,210
148,170,1961,6,0,B|224:200|323:160|323:160|368:212,1,245
363,206,3348,6,0,B|316:264|316:264|324:304|324:304|428:316,1,210
416,316,4735,6,0,P|376:280|364:240,1,78.7500030040742,4|0,3:0|0:0,0:0:0:0:
384,88,4909,2,0,P|340:116|320:160,1,78.7500030040742
320,280,5082,2,0,P|276:252|256:208,1,78.7500030040742,8|0,3:0|0:0,0:0:0:0:
272,112,5256,2,0,P|228:140|208:184,1,78.7500030040742
164,280,5429,5,0,3:0:0:0:
101,322,5515,1,0,0:0:0:0:
32,290,5602,1,0,0:0:0:0:
23,216,5689,1,0,0:0:0:0:
82,169,5776,5,8,3:0:0:0:
160,163,5862,1,0,0:0:0:0:
233,191,5949,1,0,0:0:0:0:
287,247,6036,1,0,0:0:0:0:
311,321,6123,6,0,P|359:333|400:288,1,78.7500030040742,0|0,3:0|0:0,0:0:0:0:
486,201,6296,1,0,0:0:0:0:
434,261,6382,1,0,0:0:0:0:
409,187,6469,6,0,P|372:156|328:136,1,78.7500030040742,8|0,3:0|0:0,0:0:0:0:
103,187,6643,6,0,P|140:156|184:136,1,78.7500030040742
360,248,6816,6,0,P|340:200|288:184,1,78.7500030040742,0|0,3:0|0:0,0:0:0:0:
152,248,6990,6,0,P|172:200|224:184,1,78.7500030040742
320,296,7163,6,0,L|272:224,1,78.7500030040742,8|0,3:0|0:0,0:0:0:0:
192,296,7337,6,0,L|240:224,1,78.7500030040742,0|0,3:0|0:0,0:0:0:0:
284,136,7510,6,0,P|288:68|156:144,1,315.000012016297,0|8,3:0|3:0,3:0:0:0:
183,199,7943,1,0,0:0:0:0:
161,272,8030,1,0,0:0:0:0:
95,310,8117,1,0,0:0:0:0:
20,291,8204,5,0,3:0:0:0:
86,249,8290,1,0,0:0:0:0:
163,238,8377,1,0,0:0:0:0:
238,260,8464,1,0,0:0:0:0:
298,311,8550,5,8,3:0:0:0:
253,248,8636,1,0,0:0:0:0:
255,171,8723,1,0,0:0:0:0:
303,110,8810,1,0,0:0:0:0:
378,90,8897,6,0,P|420:136|424:208,1,78.7500030040742,0|0,3:0|0:0,0:0:0:0:
356,308,9071,6,0,P|314:262|310:190,1,78.7500030040742
272,72,9244,6,0,P|237:89|211:119,1,78.7500030040742,8|0,3:0|0:0,0:0:0:0:
369,188,9418,6,0,P|403:170|429:140,1,78.7500030040742
143,196,9591,6,0,P|108:213|82:243,1,78.7500030040742,0|0,3:0|0:0,0:0:0:0:
244,304,9764,6,0,P|278:286|304:256,1,78.7500030040742
296,116,9938,6,0,P|261:133|235:163,1,78.7500030040742,8|0,3:0|0:0,0:0:0:0:
397,224,10111,6,0,P|431:206|457:176,1,78.7500030040742,0|0,3:0|0:0,0:0:0:0:
508,80,10284,6,0,P|456:12|352:156,1,315.000012016297,0|8,3:0|3:0,0:0:0:0:
328,213,10717,1,0,0:0:0:0:
264,253,10804,1,0,0:0:0:0:
191,230,10891,1,0,0:0:0:0:
163,159,10978,5,0,3:0:0:0:
173,83,11064,1,0,0:0:0:0:
237,42,11151,1,0,0:0:0:0:
310,66,11238,1,0,0:0:0:0:
338,137,11325,5,8,3:0:0:0:
328,213,11411,1,0,0:0:0:0:
264,253,11498,1,0,0:0:0:0:
191,230,11585,1,0,0:0:0:0:
163,159,11672,6,0,P|104:128|64:136,1,78.7500030040742,0|0,3:0|0:0,0:0:0:0:
12,232,11845,1,0,0:0:0:0:
77,274,11931,1,0,0:0:0:0:
154,290,12019,2,0,L|240:264,1,78.7500030040742,8|0,3:0|0:0,0:0:0:0:
452,144,12192,1,0,0:0:0:0:
386,186,12278,1,0,0:0:0:0:
309,202,12366,6,0,L|223:175,1,78.7500030040742,0|0,3:0|0:0,0:0:0:0:
24,172,12539,6,0,L|109:198,1,78.7500030040742
316,296,12712,6,0,L|230:269,1,78.7500030040742,8|0,3:0|0:0,0:0:0:0:
31,266,12885,6,0,L|116:292,1,78.7500030040742,0|0,3:0|0:0,0:0:0:0:
260,328,13059,6,0,P|372:320|432:128,1,315.000012016297,0|8,3:0|3:0,0:0:0:0:
370,117,13492,1,0,0:0:0:0:
292,107,13579,1,0,0:0:0:0:
214,120,13666,1,0,0:0:0:0:
144,155,13753,5,0,3:0:0:0:
210,112,13839,1,0,0:0:0:0:
295,98,13926,1,0,0:0:0:0:
381,109,14013,1,0,0:0:0:0:
459,145,14100,5,8,3:0:0:0:
394,101,14186,1,0,0:0:0:0:
299,89,14273,1,0,0:0:0:0:
206,105,14360,1,0,0:0:0:0:
120,148,14446,6,0,P|96:200|96:236,1,78.7500030040742,0|0,3:0|0:0,0:0:0:0:
168,304,14620,6,0,P|208:345|242:357,1,78.7500030040742
331,313,14793,6,0,P|383:288|406:261,1,78.7500030040742,8|0,3:0|0:0,0:0:0:0:
395,162,14967,6,0,P|390:105|372:73,1,78.7500030040742
275,50,15140,6,0,P|220:35|184:42,1,78.7500030040742,0|0,3:0|0:0,0:0:0:0:
129,125,15313,6,0,P|97:172|90:207,1,78.7500030040742
149,287,15487,6,0,P|182:334|214:352,1,78.7500030040742,8|0,3:0|0:0,0:0:0:0:
309,324,15660,6,0,P|364:309|392:286,1,78.7500030040742,0|0,3:0|0:0,0:0:0:0:
398,186,15834,6,0,P|403:129|208:136,1,315.000012016297,0|8,3:0|3:0,0:0:0:0:
194,192,16266,1,0,0:0:0:0:
157,261,16353,1,0,0:0:0:0:
103,318,16440,1,0,0:0:0:0:
36,359,16527,5,0,3:0:0:0:
15,284,16613,1,0,0:0:0:0:
28,207,16700,1,0,0:0:0:0:
72,143,16787,1,0,0:0:0:0:
139,102,16874,5,8,3:0:0:0:
184,166,16960,1,0,0:0:0:0:
256,195,17047,1,0,0:0:0:0:
332,179,17134,1,0,0:0:0:0:
386,124,17221,6,0,P|364:60|312:48,1,78.7500030040742,0|0,3:0|0:0,0:0:0:0:
252,12,17394,1,0,0:0:0:0:
176,31,17480,1,0,0:0:0:0:
120,84,17568,6,0,P|120:176|144:204,1,78.7500030040742,8|0,3:0|0:0,0:0:0:0:
160,324,17741,6,0,P|175:233|204:209,1,78.7500030040742
212,132,17915,6,0,P|250:215|284:230,1,78.7500030040742,0|0,3:0|0:0,0:0:0:0:
252,292,18088,6,0,P|311:221|347:215,1,78.7500030040742
297,145,18261,6,0,P|356:215|392:221,1,78.7500030040742,8|0,3:0|0:0,0:0:0:0:
336,304,18435,6,0,P|411:251|448:254,1,78.7500030040742,0|0,3:0|0:0,0:0:0:0:
383,135,18608,6,0,P|340:72|232:200,1,315.000012016297,0|8,3:0|3:0,0:0:0:0:
215,275,19041,1,0,0:0:0:0:
148,312,19128,1,0,0:0:0:0:
76,287,19215,1,0,0:0:0:0:
46,216,19302,5,0,3:0:0:0:
63,141,19388,1,0,0:0:0:0:
129,104,19475,1,0,0:0:0:0:
202,129,19562,1,0,0:0:0:0:
231,199,19649,5,8,3:0:0:0:
260,269,19735,1,0,0:0:0:0:
332,294,19822,1,0,0:0:0:0:
399,257,19909,1,0,0:0:0:0:
416,182,19995,6,0,P|364:128|340:120,1,78.7500030040742,0|0,3:0|0:0,0:0:0:0:
95,201,20169,6,0,P|148:256|172:264,1,78.7500030040742
363,71,20342,6,0,P|287:70|264:81,1,78.7500030040742,8|0,3:0|0:0,0:0:0:0:
148,312,20516,6,0,P|224:313|247:302,1,78.7500030040742
246,31,20689,6,0,P|192:84|184:107,1,78.7500030040742,0|0,3:0|0:0,0:0:0:0:
265,352,20863,6,0,P|320:300|328:276,1,78.7500030040742
135,84,21036,6,0,P|134:160|145:183,1,78.7500030040742,8|0,3:0|0:0,0:0:0:0:
376,299,21210,6,0,P|377:223|366:200,1,78.7500030040742,0|0,3:0|0:0,0:0:0:0:
95,187,21383,5,4,3:0:0:0:
108,236,21469,1,0,0:0:0:0:
148,269,21556,1,8,0:0:0:0:
199,273,21643,1,8,0:0:0:0:
243,246,21730,5,8,3:3:0:0:
286,218,21816,1,8,0:0:0:0:
338,222,21903,1,8,0:0:0:0:
378,255,21990,1,8,0:0:0:0:
391,305,22076,5,8,0:0:0:0:
401,253,22162,1,8,0:0:0:0:
411,202,22249,1,8,0:0:0:0:
420,150,22336,1,8,0:0:0:0:
430,98,22423,5,8,3:3:0:0:
386,126,22509,1,8,0:0:0:0:
335,129,22596,1,8,0:0:0:0:
288,106,22683,1,8,0:0:0:0:
259,64,22770,6,0,P|176:48|148:64,1,78.7500030040742,4|0,3:0|0:0,0:0:0:0:
40,136,22943,1,8,0:0:0:0:
40,136,23030,1,8,0:0:0:0:
40,136,23117,2,8,P|60:192|96:220,1,78.7500030040742,8|8,3:3|0:0,0:0:0:0:
296,232,23290,2,8,P|276:176|240:148,1,78.7500030040742
168,220,23464,2,8,P|188:276|224:304,1,78.7500030040742
432,340,23637,2,8,P|412:284|376:256,1,78.7500030040742
334,218,23810,5,8,3:3:0:0:
364,148,23896,1,8,0:0:0:0:
327,82,23983,1,8,0:0:0:0:
252,72,24070,1,8,0:0:0:0:
198,125,24157,5,12,0:0:0:0:
172,171,24243,1,8,0:0:0:0:
144,216,24330,1,8,0:0:0:0:
119,261,24417,1,8,0:0:0:0:
84,348,24504,5,8,0:0:0:0:
133,331,24591,1,8,0:0:0:0:
183,315,24678,1,8,0:0:0:0:
233,300,24764,1,8,0:0:0:0:
344,336,24851,5,12,0:0:0:0:
317,290,24938,1,8,0:0:0:0:
290,245,25025,1,8,0:0:0:0:
264,200,25111,1,8,0:0:0:0:
229,113,25198,5,8,0:0:0:0:
278,130,25285,1,8,0:0:0:0:
328,146,25372,1,8,0:0:0:0:
378,161,25458,1,8,0:0:0:0:
413,248,25545,6,8,P|396:292|328:304,1,78.7500030040742,12|8,0:0|0:0,0:0:0:0:
200,349,25718,6,8,P|156:332|144:264,1,78.7500030040742
99,136,25891,6,8,P|116:92|184:80,1,78.7500030040742,12|8,0:0|0:0,0:0:0:0:
312,35,26064,6,8,P|356:52|368:120,1,78.7500030040742
418,192,26238,6,8,P|424:154|406:120,1,78.7500030040742,12|8,0:0|0:0,0:0:0:0:
256,29,26411,6,8,P|218:23|184:41,1,78.7500030040742
93,191,26584,6,8,P|87:229|105:263,1,78.7500030040742,12|8,0:0|0:0,0:0:0:0:
255,354,26758,6,8,P|293:360|327:342,1,78.7500030040742
256,192,26932,5,4,0:0:0:0:
256,192,27105,12,0,29861,0:0:0:0:
