osu file format v14

[General]
AudioFilename: audio.mp3
AudioLeadIn: 0
PreviewTime: 181210
Countdown: 0
SampleSet: Soft
StackLeniency: 0.7
Mode: 0
LetterboxInBreaks: 0
WidescreenStoryboard: 1

[Editor]
Bookmarks: 17318,42916,68515,81315,113314,138912,154912,183710,209308,234907,260506,286105
DistanceSpacing: 1
BeatDivisor: 8
GridSize: 8
TimelineZoom: 1.1

[Metadata]
Title:Bintang di Surga
TitleUnicode:Bintang di Surga
Artist:NOAH
ArtistUnicode:NOAH
Creator:Hinsvar
Version:Sulit
Source:
Tags:Peterpan 2022 remaster remake Second Chance Indonesian Bahasa Indonesia alternative rock Musica Studio's Studios
BeatmapID:4050775
BeatmapSetID:1955456

[Difficulty]
HPDrainRate:4
CircleSize:3
OverallDifficulty:6
ApproachRate:7
SliderMultiplier:2.88
SliderTickRate:1

[Events]
//Background and Video events
0,0,"BG.jpg",0,0
//Break Periods
//Storyboard Layer 0 (Background)
//Storyboard Layer 1 (Fail)
//Storyboard Layer 2 (Pass)
//Storyboard Layer 3 (Foreground)
//Storyboard Layer 4 (Overlay)
//Storyboard Sound Samples

[TimingPoints]
17318,799.968001279949,4,2,1,30,1,0
17318,-125,4,2,1,30,0,0
68515,-111.111111111111,4,2,1,40,0,0
113314,799.968001279949,4,2,1,50,1,1
113413,-100,4,2,1,50,0,0
126113,-100,4,2,1,50,0,1
126213,-100,4,2,1,50,0,0
138912,-100,4,2,1,50,0,1
151712,-100,4,2,1,50,0,0
154912,799.968001279949,4,2,1,40,1,0
154912,-111.111111111111,4,2,1,40,0,0
183710,799.968001279949,4,2,1,60,1,1
183710,-90.9090909090909,4,2,1,60,0,1
183809,-90.9090909090909,4,2,1,60,0,0
196509,-90.9090909090909,4,2,1,60,0,1
196609,-90.9090909090909,4,2,1,60,0,0
209308,-90.9090909090909,4,2,1,60,0,1
271706,-111.111111111111,4,2,1,60,0,1
273306,-90.9090909090909,4,2,1,60,0,1
286105,-90.9090909090909,4,2,1,60,0,0
289305,-90.9090909090909,4,2,1,50,0,0
290905,-90.9090909090909,4,2,1,40,0,0
292505,-90.9090909090909,4,2,1,30,0,0
293305,-90.9090909090909,4,2,1,20,0,0
294105,-90.9090909090909,4,2,1,10,0,0
294905,-90.9090909090909,4,2,1,5,0,0

[Colours]
Combo1 : 211,153,65
Combo2 : 0,128,192
Combo3 : 241,203,88
Combo4 : 124,165,214

[HitObjects]
36,104,17318,5,2,3:2:0:0:
104,51,17517,1,0,3:0:0:0:
189,61,17717,1,0,0:0:0:0:
416,20,18117,2,0,P|474:82|483:170,1,172.8,10|2,0:0|0:0,0:0:0:0:
451,249,18917,1,0,0:0:0:0:
451,249,19117,1,0,0:0:0:0:
374,289,19317,2,0,P|362:259|363:226,1,57.6,2|0,3:2|0:0,0:0:0:0:
238,111,19917,1,0,0:0:0:0:
198,187,20117,2,0,P|168:199|135:198,1,57.6,2|0,0:0|0:0,0:0:0:0:
72,259,20517,5,0,3:0:0:0:
158,291,20717,1,0,3:0:0:0:
196,374,20917,1,0,0:0:0:0:
414,302,21317,2,0,P|370:248|354:137,1,172.8,10|2,0:0|3:2,0:0:0:0:
330,64,22117,2,0,P|315:65|304:74,3,28.8
276,83,22517,2,0,P|261:81|250:72,3,28.8,2|0|0|0,0:0|0:0|0:0|0:0,0:0:0:0:
229,52,22917,1,8,0:0:0:0:
143,39,23117,2,0,L|69:44,2,57.6,2|0|2,0:0|0:0|0:0,0:0:0:0:
154,125,23717,5,0,3:0:0:0:
71,151,23917,1,0,3:0:0:0:
30,228,24117,1,0,0:0:0:0:
222,353,24517,2,0,P|253:246|251:171,1,172.8,10|2,0:0|0:0,0:0:0:0:
249,99,25317,2,0,P|250:70|259:43,2,57.6,0|0|0,0:0|0:0|3:0,0:0:0:0:
469,32,26117,1,10,0:0:0:0:
498,113,26317,1,2,0:0:0:0:
469,194,26517,2,0,P|442:204|405:195,1,57.6,2|0,0:0|0:0,0:0:0:0:
328,187,26917,5,0,3:0:0:0:
299,268,27117,1,0,3:0:0:0:
328,349,27317,1,0,0:0:0:0:
144,378,27717,2,0,P|105:294|24:267,1,172.8,10|2,0:0|0:0,0:0:0:0:
25,180,28517,2,0,P|39:178|63:166,3,28.8,0|0|0|0,0:0|0:0|3:0|0:0,0:0:0:0:
62,145,28917,2,0,P|60:131|48:107,3,28.8
26,109,29317,2,0,L|30:45,1,57.6,10|0,0:0|0:0,0:0:0:0:
112,25,29717,2,0,L|176:29,1,57.6,2|0,0:0|0:0,0:0:0:0:
196,111,30117,5,0,3:0:0:0:
282,113,30317,1,0,3:0:0:0:
350,60,30517,1,0,0:0:0:0:
509,226,30917,2,0,P|445:284|405:371,1,172.8,10|2,0:0|0:0,0:0:0:0:
332,330,31717,1,0,0:0:0:0:
332,330,31917,1,0,0:0:0:0:
325,243,32117,2,0,P|322:209|317:179,1,57.6,2|0,3:2|0:0,0:0:0:0:
149,220,32717,1,0,0:0:0:0:
142,307,32917,2,0,P|139:340|134:371,1,57.6,2|0,0:0|0:0,0:0:0:0:
48,364,33317,5,2,3:2:0:0:
6,288,33517,1,0,3:0:0:0:
23,203,33717,1,0,0:0:0:0:
158,16,34117,2,0,P|214:73|223:173,1,172.8,10|2,0:0|3:2,0:0:0:0:
298,208,34917,2,0,P|312:199|333:194,3,28.8
345,176,35317,2,0,P|362:175|382:181,3,28.8,2|0|0|0,3:2|0:0|0:0|0:0,0:0:0:0:
401,171,35717,1,8,0:0:0:0:
470,119,35917,2,0,P|469:84|480:44,2,57.6,2|0|2,0:0|0:0|0:0,0:0:0:0:
484,204,36517,5,0,3:0:0:0:
431,272,36717,1,0,3:0:0:0:
455,354,36917,1,0,0:0:0:0:
224,365,37317,2,0,P|231:261|182:216,1,172.8,10|2,0:0|0:0,0:0:0:0:
112,263,38117,2,0,P|84:267|63:249,2,57.6,0|0|0,0:0|0:0|3:0,0:0:0:0:
210,56,38917,1,10,0:0:0:0:
134,14,39117,1,2,0:0:0:0:
59,57,39317,2,0,P|40:78|45:105,1,57.6,2|0,0:0|0:0,0:0:0:0:
101,171,39717,5,0,3:0:0:0:
186,159,39917,1,0,3:0:0:0:
198,244,40117,1,0,0:0:0:0:
424,203,40517,2,0,P|393:283|379:368,1,172.8,10|2,0:0|0:0,0:0:0:0:
293,355,41317,2,0,P|276:352|250:362,3,28.8,0|0|0|0,0:0|0:0|3:0|0:0,0:0:0:0:
237,363,41717,2,0,P|220:366|194:356,3,28.8,2|0|0|0,0:0|0:0|0:0|0:0,0:0:0:0:
181,355,42117,2,0,L|114:371,1,57.6,8|2,0:0|0:0,0:0:0:0:
39,357,42516,2,0,L|23:290,1,57.6,8|2,0:0|0:0,0:0:0:0:
8,216,42916,6,0,P|33:201|49:177,1,57.6,2|0,3:2|3:0,0:0:0:0:
13,98,43316,1,0,3:0:0:0:
98,86,43516,2,0,P|162:76|264:14,1,172.8,2|0,0:0|0:0,0:0:0:0:
316,83,44316,2,0,P|277:135|249:251,1,172.8,2|0,0:0|3:0,0:0:0:0:
249,238,45116,1,2,0:0:0:0:
353,375,45516,1,2,0:0:0:0:
438,359,45716,1,2,0:0:0:0:
487,134,46116,5,2,3:2:0:0:
428,197,46316,2,0,L|433:241,2,28.8,0|0|0,3:0|0:0|3:0,0:0:0:0:
343,177,46716,2,0,P|268:168|188:98,1,172.8,2|0,0:0|0:0,0:0:0:0:
163,27,47516,1,2,3:2:0:0:
74,175,47916,2,0,P|68:224|21:278,2,115.2,2|2|2,0:0|0:0|0:0,0:0:0:0:
74,175,48816,1,0,0:0:0:0:
74,175,48916,1,0,0:0:0:0:
276,65,49316,5,2,3:2:0:0:
317,140,49516,2,0,L|352:142,2,28.8,0|0|0,3:0|0:0|3:0,0:0:0:0:
242,181,49916,2,0,P|196:221|195:335,1,172.8,2|0,0:0|0:0,0:0:0:0:
270,359,50716,1,2,0:0:0:0:
442,356,51116,2,0,P|472:329|473:253,1,115.2,2|0,0:0|0:0,0:0:0:0:
417,194,51716,1,10,0:0:0:0:
350,248,51916,1,2,0:0:0:0:
271,212,52116,2,0,P|260:180|260:149,1,57.6,2|0,0:0|0:0,0:0:0:0:
265,69,52516,5,2,3:2:0:0:
348,45,52716,2,0,L|351:6,2,28.8,0|0|0,3:0|0:0|3:0,0:0:0:0:
434,55,53116,2,0,L|442:169,1,115.2,2|2,0:0|0:0,0:0:0:0:
432,342,53916,2,0,P|342:289|205:274,1,230.4,2|0,0:0|0:0,0:0:0:0:
141,310,54916,1,10,0:0:0:0:
77,368,55116,2,0,P|57:371|32:364,2,28.8,0|0|2,0:0|0:0|0:0,0:0:0:0:
156,152,55716,5,2,3:2:0:0:
228,105,55916,2,0,P|238:88|241:72,2,28.8,0|0|0,3:0|0:0|3:0,0:0:0:0:
152,62,56316,2,0,P|90:55|22:137,1,172.8,2|0,0:0|0:0,0:0:0:0:
42,216,57116,2,0,P|35:278|117:346,1,172.8,2|0,0:0|3:0,0:0:0:0:
112,345,57916,1,2,0:0:0:0:
252,244,58316,1,2,0:0:0:0:
252,244,58516,1,2,0:0:0:0:
400,345,58916,5,2,3:2:0:0:
442,269,59116,2,0,P|451:249|475:238,2,28.8,0|0|0,3:0|0:0|3:0,0:0:0:0:
355,270,59516,2,0,P|338:211|312:161,2,115.2,2|2|0,0:0|0:0|3:0,0:0:0:0:
194,334,60716,2,0,P|168:282|152:227,1,115.2,2|2,0:0|0:0,0:0:0:0:
197,60,61516,2,0,P|202:41|202:17,2,28.8,2|0|0,0:0|0:0|0:0,0:0:0:0:
423,17,62116,5,2,3:2:0:0:
465,91,62316,2,0,P|484:101|509:116,2,28.8,0|0|0,3:0|0:0|3:0,0:0:0:0:
416,163,62716,2,0,P|437:242|412:352,1,172.8,2|0,0:0|0:0,0:0:0:0:
335,332,63516,2,0,P|314:253|339:143,1,172.8,2|0,0:0|3:0,0:0:0:0:
373,90,64316,1,0,0:0:0:0:
316,24,64516,5,2,0:0:0:0:
230,34,64716,1,2,0:0:0:0:
144,45,64916,1,2,0:0:0:0:
30,245,65316,5,2,3:2:0:0:
71,320,65516,2,0,P|72:337|62:362,2,28.8,0|0|0,3:0|0:0|3:0,0:0:0:0:
154,296,65916,2,0,P|171:246|281:208,1,172.8,2|0,0:0|3:0,0:0:0:0:
353,245,66716,2,0,P|435:229|474:155,1,172.8,2|0,0:0|3:0,0:0:0:0:
486,68,67515,2,0,P|386:32|363:128,1,230.4,2|0,0:0|0:0,0:0:0:0:
255,173,68515,6,0,P|196:161|110:161,1,129.599996044922,4|0,3:2|3:0,0:0:0:0:
14,364,69315,2,0,P|107:339|212:371,1,194.399994067383,10|0,0:0|3:0,0:0:0:0:
286,336,70115,2,0,P|288:284|292:263,1,64.799998022461,0|0,0:0|3:0,0:0:0:0:
375,239,70515,2,0,P|371:135|363:93,1,129.599996044922,2|8,3:2|0:0,0:0:0:0:
203,31,71315,2,0,P|151:29|130:25,1,64.799998022461,2|0,0:0|0:0,0:0:0:0:
60,73,71715,5,0,3:0:0:0:
87,159,71915,2,0,P|74:172|55:190,2,32.3999990112305,0|0|0,0:0|0:0|3:0,0:0:0:0:
173,185,72315,1,0,3:0:0:0:
243,127,72515,2,0,P|301:78|414:101,1,194.399994067383,10|0,0:0|0:0,0:0:0:0:
465,271,73515,1,0,3:0:0:0:
413,345,73715,2,0,P|384:331|360:301,1,64.799998022461,2|0,3:2|0:0,0:0:0:0:
305,235,74115,1,8,0:0:0:0:
240,298,74315,2,0,L|243:344,2,32.3999990112305,2|0|0,3:2|0:0|0:0,0:0:0:0:
177,233,74715,1,2,0:0:0:0:
119,163,74915,5,0,3:0:0:0:
44,111,75115,2,0,P|44:92|55:74,2,32.3999990112305,0|0|0,0:0|0:0|3:0,0:0:0:0:
19,198,75515,1,0,3:0:0:0:
94,250,75715,2,0,P|94:269|224:355,1,194.399994067383,10|0,0:0|3:0,0:0:0:0:
402,347,76715,1,0,3:0:0:0:
488,319,76915,2,0,P|490:277|479:246,1,64.799998022461,0|0,3:0|0:0,0:0:0:0:
398,222,77315,1,10,0:0:0:0:
311,195,77515,1,2,3:2:0:0:
294,106,77715,1,0,3:0:0:0:
460,23,78115,5,0,3:0:0:0:
477,112,78315,2,0,P|475:132|461:149,2,32.3999990112305,0|0|0,0:0|0:0|3:0,0:0:0:0:
389,85,78715,1,0,3:0:0:0:
320,25,78915,2,0,P|252:18|128:94,1,194.399994067383,10|0,0:0|3:0,0:0:0:0:
17,205,79915,1,0,0:0:0:0:
17,205,80115,1,0,3:0:0:0:
68,379,80515,1,10,0:0:0:0:
140,323,80715,1,0,3:0:0:0:
140,323,80815,1,0,0:0:0:0:
140,323,80915,2,0,P|173:325|214:340,1,64.799998022461,2|0,0:0|0:0,0:0:0:0:
316,368,81315,6,0,P|291:311|285:216,1,129.599996044922,4|0,3:2|3:0,0:0:0:0:
318,161,81915,1,0,3:0:0:0:
395,113,82115,2,0,P|420:170|426:265,1,129.599996044922,10|0,0:0|0:0,0:0:0:0:
393,320,82715,1,2,3:2:0:0:
213,344,83115,1,0,3:0:0:0:
126,370,83315,1,2,3:2:0:0:
79,291,83515,2,0,P|100:223|159:197,1,129.599996044922,2|0,0:0|3:0,0:0:0:0:
234,229,84115,1,2,0:0:0:0:
343,84,84515,5,0,3:0:0:0:
253,96,84715,2,0,L|251:129,2,32.3999990112305,0|0|0,0:0|0:0|3:0,0:0:0:0:
173,51,85115,1,0,3:0:0:0:
88,19,85315,1,10,0:0:0:0:
19,79,85515,2,0,L|42:228,1,129.599996044922,2|0,0:0|3:0,0:0:0:0:
205,279,86315,2,0,L|228:130,1,129.599996044922,0|2,3:0|0:0,0:0:0:0:
373,43,87115,1,2,3:2:0:0:
373,43,87215,1,0,0:0:0:0:
373,43,87315,2,0,L|447:54,1,64.799998022461
491,126,87715,5,0,3:0:0:0:
467,213,87915,2,0,P|467:232|479:263,2,32.3999990112305,0|0|0,0:0|0:0|3:0,0:0:0:0:
376,217,88315,1,0,3:0:0:0:
344,131,88515,1,10,0:0:0:0:
258,163,88715,2,0,P|215:112|182:36,1,129.599996044922,2|0,0:0|3:0,0:0:0:0:
34,153,89515,2,0,P|77:204|110:280,1,129.599996044922,0|0,3:0|0:0,0:0:0:0:
102,350,90115,1,10,0:0:0:0:
192,344,90315,1,2,0:0:0:0:
282,338,90515,2,0,L|347:332,1,64.799998022461,2|0,0:0|0:0,0:0:0:0:
396,255,90915,5,0,3:0:0:0:
423,168,91115,2,0,P|440:159|462:156,2,32.3999990112305,0|0|0,0:0|0:0|3:0,0:0:0:0:
336,141,91515,2,0,P|318:107|312:63,2,64.799998022461,0|10|2,3:0|0:0|0:0,0:0:0:0:
188,246,92315,2,0,P|157:151|3:149,1,259.199992089844,2|0,3:2|0:0,0:0:0:0:
6,230,93314,1,10,0:0:0:0:
72,307,93514,1,0,3:0:0:0:
72,307,93614,1,0,0:0:0:0:
72,307,93714,2,0,P|90:323|124:304,1,64.799998022461,2|0,0:0|0:0,0:0:0:0:
188,246,94114,5,0,3:0:0:0:
264,197,94314,2,0,L|268:137,2,32.3999990112305,0|0|0,0:0|0:0|3:0,0:0:0:0:
348,229,94714,1,0,3:0:0:0:
435,203,94914,2,0,P|477:271|448:321,1,129.599996044922,10|0,0:0|0:0,0:0:0:0:
380,355,95514,1,2,3:2:0:0:
199,336,95914,1,0,3:0:0:0:
141,265,96114,1,2,3:2:0:0:
226,234,96314,2,0,P|238:123|234:91,1,129.599996044922,2|0,0:0|3:0,0:0:0:0:
179,34,96914,1,2,0:0:0:0:
36,146,97314,5,0,3:0:0:0:
89,219,97514,2,0,P|104:226|126:221,2,32.3999990112305,0|0|0,0:0|0:0|3:0,0:0:0:0:
54,303,97914,1,0,3:0:0:0:
124,359,98114,1,10,0:0:0:0:
214,367,98314,2,0,P|272:351|321:301,1,129.599996044922,2|0,0:0|3:0,0:0:0:0:
389,134,99114,2,0,P|346:91|278:74,1,129.599996044922,0|2,3:0|0:0,0:0:0:0:
99,98,99914,1,2,3:2:0:0:
99,98,100014,1,0,0:0:0:0:
99,98,100114,2,0,P|91:127|100:161,1,64.799998022461
174,211,100514,5,0,3:0:0:0:
199,298,100714,2,0,P|221:295|244:286,2,32.3999990112305,0|0|0,0:0|0:0|3:0,0:0:0:0:
136,364,101114,1,0,3:0:0:0:
48,340,101314,2,0,P|49:278|26:212,1,129.599996044922,10|0,0:0|0:0,0:0:0:0:
99,159,101914,2,0,P|180:113|248:34,1,194.399994067383,2|0,3:2|3:0,0:0:0:0:
333,14,102714,1,0,0:0:0:0:
423,21,102914,1,10,0:0:0:0:
442,109,103114,1,2,0:0:0:0:
461,197,103314,1,2,0:0:0:0:
382,360,103714,5,0,3:0:0:0:
314,299,103914,2,0,P|297:298|269:306,2,32.3999990112305,0|0|0,0:0|0:0|3:0,0:0:0:0:
353,216,104314,1,0,3:0:0:0:
269,179,104514,2,0,P|277:123|258:40,1,129.599996044922,10|0,0:0|0:0,0:0:0:0:
176,24,105114,2,0,P|164:108|192:232,1,194.399994067383,2|0,3:2|3:0,0:0:0:0:
258,267,105914,1,0,0:0:0:0:
202,339,106114,5,10,0:0:0:0:
112,350,106314,1,0,3:0:0:0:
40,294,106514,1,0,0:0:0:0:
28,203,106714,1,0,3:0:0:0:
84,130,106914,1,6,3:2:0:0:
256,192,107714,12,0,110114,3:0:0:0:
41,347,110914,6,0,P|96:325|183:320,1,129.599996044922,2|0,0:3|0:0,0:0:0:0:
345,289,111714,2,0,P|399:312|464:370,2,129.599996044922,2|0|2,0:0|0:0|0:3,0:0:0:0:
229,148,112914,1,2,0:0:0:0:
426,28,113314,6,0,P|416:98|450:172,1,144,4|2,3:2|0:0,0:0:0:0:
469,254,113913,2,0,P|482:286|477:322,1,72,0|8,3:0|0:0,0:0:0:0:
291,351,114513,2,0,P|259:364|223:359,1,72,2|0,0:0|3:0,0:0:0:0:
213,265,114913,1,2,0:0:0:0:
126,230,115113,1,0,3:0:0:0:
40,267,115313,2,0,P|14:215|41:130,1,144,0|8,3:0|0:0,0:0:0:0:
129,138,115913,1,0,3:0:0:0:
212,96,116113,2,0,L|205:9,1,72,2|0,0:0|0:0,0:0:0:0:
320,13,116513,6,0,L|334:187,1,144,4|2,3:2|0:0,0:0:0:0:
425,154,117113,2,0,L|512:147,1,72,0|8,3:0|0:0,0:0:0:0:
447,328,117713,1,2,0:0:0:0:
361,289,117913,1,0,3:0:0:0:
269,306,118113,2,0,P|239:321|216:364,1,72,2|0,0:0|3:0,0:0:0:0:
126,368,118513,2,0,P|87:307|25:274,1,144,0|8,3:0|0:0,0:0:0:0:
23,180,119113,1,0,3:0:0:0:
113,205,119313,2,0,P|147:207|187:198,1,72,2|0,0:0|3:0,0:0:0:0:
289,148,119713,6,0,P|242:96|203:18,1,144,4|2,3:2|0:0,0:0:0:0:
115,16,120313,2,0,P|98:47|74:74,1,72,0|8,3:0|0:0,0:0:0:0:
14,252,120913,1,2,0:0:0:0:
97,209,121113,1,0,3:0:0:0:
189,220,121313,2,0,P|224:297|212:355,1,144,2|0,0:0|3:0,0:0:0:0:
400,363,122113,1,8,0:0:0:0:
490,339,122313,1,0,3:0:0:0:
480,245,122513,2,0,L|409:226,1,72,2|0,0:0|3:0,0:0:0:0:
308,172,122913,6,0,P|289:101|297:6,1,144,4|2,3:2|0:0,0:0:0:0:
383,49,123513,2,0,P|392:84|388:132,1,72,0|8,3:0|0:0,0:0:0:0:
206,151,124113,1,2,0:0:0:0:
116,177,124313,1,0,3:0:0:0:
72,94,124513,2,0,P|39:63|0:52,2,72,2|0|0,0:0|3:0|3:0,0:0:0:0:
27,275,125313,1,8,0:0:0:0:
119,287,125513,1,0,3:0:0:0:
175,361,125713,2,0,P|212:356|248:339,1,72,2|0,0:0|3:0,0:0:0:0:
320,255,126113,6,0,P|285:212|195:200,1,144,6|2,3:2|0:0,0:0:0:0:
157,115,126713,2,0,P|178:97|184:52,1,72,0|8,3:0|0:0,0:0:0:0:
369,23,127313,1,2,0:0:0:0:
440,83,127513,1,0,3:0:0:0:
483,165,127713,2,0,P|496:191|496:313,2,144,2|0|8,0:0|3:0|0:0,0:0:0:0:
397,204,128713,1,0,3:0:0:0:
312,167,128913,2,0,P|277:158|229:161,1,72,2|0,0:0|3:0,0:0:0:0:
153,83,129313,6,0,P|95:88|63:159,1,144,4|2,3:2|0:0,0:0:0:0:
17,242,129913,2,0,P|19:271|55:287,1,72,0|8,3:0|0:0,0:0:0:0:
224,365,130513,1,2,0:0:0:0:
302,314,130713,1,0,3:0:0:0:
288,221,130913,2,0,L|277:144,1,72,2|0,0:0|3:0,0:0:0:0:
262,57,131313,2,0,L|416:35,1,144,0|8,3:0|0:0,0:0:0:0:
475,97,131913,1,0,3:0:0:0:
499,187,132113,2,0,P|466:195|423:169,1,72,2|0,0:0|3:0,0:0:0:0:
320,207,132513,6,0,P|304:273|356:359,1,144,4|2,3:2|0:0,0:0:0:0:
242,364,133113,2,0,P|209:356|166:382,1,72,0|8,3:0|0:0,0:0:0:0:
31,251,133713,1,2,0:0:0:0:
124,256,133913,1,0,3:0:0:0:
206,212,134113,2,0,P|215:143|198:63,1,144,2|0,0:0|3:0,0:0:0:0:
18,29,134913,1,8,0:0:0:0:
28,122,135113,1,0,3:0:0:0:
79,200,135313,2,0,L|54:289,1,72,2|0,0:0|3:0,0:0:0:0:
26,381,135713,6,0,P|97:353|181:344,1,144,4|2,3:2|0:0,0:0:0:0:
211,263,136313,1,0,3:0:0:0:
265,192,136513,2,0,P|336:220|429:121,1,216,8|0,0:0|3:0,0:0:0:0:
476,27,137313,2,0,P|452:17|421:50,1,72,4|0,3:2|0:0,0:0:0:0:
343,96,137713,1,0,3:0:0:0:
332,93,137813,1,0,3:0:0:0:
321,90,137913,1,0,3:0:0:0:
310,87,138013,1,0,3:0:0:0:
299,84,138113,1,4,3:2:0:0:
118,36,138512,1,0,3:0:0:0:
107,39,138612,1,0,3:0:0:0:
96,42,138712,1,0,3:0:0:0:
85,45,138812,1,0,3:0:0:0:
74,48,138912,6,0,P|73:84|62:135,1,72,6|0,3:2|0:0,0:0:0:0:
102,206,139312,2,0,P|133:188|183:172,1,72,2|0,0:0|3:0,0:0:0:0:
261,174,139712,1,10,0:0:0:0:
300,88,139912,2,0,P|269:69|230:34,2,72,2|0|0,0:0|0:0|3:0,0:0:0:0:
387,53,140512,2,0,P|427:98|443:187,1,144,2|0,0:0|3:0,0:0:0:0:
294,354,141312,1,8,0:0:0:0:
200,344,141512,2,0,P|160:299|144:210,1,144,2|0,3:2|3:0,0:0:0:0:
37,170,142112,6,0,P|58:88|173:16,1,216,6|0,3:2|3:0,0:0:0:0:
244,61,142912,2,0,L|242:138,1,72,8|0,0:0|0:0,0:0:0:0:
273,221,143312,2,0,L|196:219,1,72,2|0,0:0|3:0,0:0:0:0:
109,240,143712,1,2,0:0:0:0:
36,298,143912,1,0,3:0:0:0:
123,333,144112,2,0,P|201:326|272:367,1,144,0|8,3:0|0:0,0:0:0:0:
351,367,144712,1,0,3:0:0:0:
441,344,144912,1,2,0:0:0:0:
488,264,145112,1,0,3:0:0:0:
378,228,145312,6,0,P|348:209|326:161,1,72,6|0,3:2|0:0,0:0:0:0:
285,95,145712,2,0,P|255:114|233:162,1,72,2|0,0:0|3:0,0:0:0:0:
158,195,146112,1,10,0:0:0:0:
96,124,146312,2,0,P|79:92|84:39,2,72,2|0|0,0:0|0:0|3:0,0:0:0:0:
67,213,146912,2,0,P|65:284|32:347,1,144,2|0,0:0|3:0,0:0:0:0:
261,345,147712,1,8,0:0:0:0:
254,251,147912,1,0,3:0:0:0:
348,244,148112,2,0,P|386:246|425:259,1,72,2|0,0:0|3:0,0:0:0:0:
404,142,148512,6,0,P|290:136|173:97,1,216,6|0,3:2|3:0,0:0:0:0:
251,32,149312,2,0,P|319:11|391:8,1,144,10|2,0:0|0:0,0:0:0:0:
465,65,149912,1,0,3:0:0:0:
497,153,150112,2,0,L|503:230,1,72,10|0,0:0|0:0,0:0:0:0:
409,215,150512,2,0,L|403:138,1,72,2|0,3:2|0:0,0:0:0:0:
313,117,150912,5,8,0:0:0:0:
241,59,151112,1,8,0:0:0:0:
162,110,151312,1,0,3:0:0:0:
186,199,151512,1,0,3:0:0:0:
280,204,151712,1,6,3:2:0:0:
256,192,151912,12,0,153712,3:0:0:0:
241,32,154112,5,8,0:0:0:0:
260,123,154312,1,8,0:0:0:0:
280,214,154512,2,0,L|295:288,1,72,0|0,3:0|3:0,0:0:0:0:
365,377,154912,6,0,P|386:314|451:285,1,129.599996044922,4|0,3:2|3:0,0:0:0:0:
492,212,155511,1,0,3:0:0:0:
419,157,155711,2,0,P|356:136|327:71,1,129.599996044922,10|0,0:0|0:0,0:0:0:0:
254,30,156311,1,2,3:2:0:0:
72,41,156711,1,0,3:0:0:0:
117,119,156911,1,2,3:2:0:0:
88,205,157111,2,0,P|66:220|39:329,1,129.599996044922,2|0,0:0|3:0,0:0:0:0:
112,361,157711,1,2,0:0:0:0:
293,353,158111,5,0,3:0:0:0:
254,271,158311,2,0,L|211:279,2,32.3999990112305,0|0|0,0:0|0:0|3:0,0:0:0:0:
287,186,158711,1,0,3:0:0:0:
372,219,158911,1,10,0:0:0:0:
459,195,159111,2,0,P|472:156|453:61,1,129.599996044922,2|0,0:0|3:0,0:0:0:0:
284,16,159911,2,0,P|271:55|290:150,1,129.599996044922,0|2,3:0|0:0,0:0:0:0:
361,317,160711,1,2,3:2:0:0:
361,317,160811,1,0,0:0:0:0:
361,317,160911,2,0,P|326:326|296:342,1,64.799998022461
221,293,161311,5,0,3:0:0:0:
136,327,161511,2,0,P|128:346|127:367,2,32.3999990112305,0|0|0,0:0|0:0|3:0,0:0:0:0:
55,285,161911,1,0,3:0:0:0:
34,196,162111,1,10,0:0:0:0:
111,148,162311,2,0,L|125:12,1,129.599996044922,2|0,0:0|0:0,0:0:0:0:
295,79,163111,2,0,L|281:215,1,129.599996044922,0|0,3:0|0:0,0:0:0:0:
206,259,163711,1,10,0:0:0:0:
288,295,163911,1,2,0:0:0:0:
370,332,164111,2,0,P|393:356|411:389,1,64.799998022461,2|0,0:0|0:0,0:0:0:0:
498,365,164511,5,0,3:0:0:0:
508,274,164711,2,0,L|514:228,2,32.3999990112305,0|0|0,0:0|0:0|3:0,0:0:0:0:
419,256,165111,2,0,L|431:164,2,64.799998022461,0|10|2,3:0|0:0|0:0,0:0:0:0:
246,312,165911,2,0,P|104:270|-20:255,1,259.199992089844,2|0,3:2|0:0,0:0:0:0:
16,167,166911,1,10,0:0:0:0:
114,181,167111,1,0,3:0:0:0:
114,181,167211,1,0,0:0:0:0:
114,181,167311,2,0,P|146:171|178:160,1,64.799998022461,2|0,0:0|0:0,0:0:0:0:
255,204,167711,5,0,3:0:0:0:
345,209,167911,2,0,P|353:226|359:253,2,32.3999990112305,0|0|0,0:0|0:0|3:0,0:0:0:0:
412,148,168311,1,0,3:0:0:0:
417,58,168511,2,0,P|363:33|269:26,1,129.599996044922,10|0,0:0|0:0,0:0:0:0:
262,108,169111,1,2,3:2:0:0:
100,24,169511,1,0,3:0:0:0:
35,88,169711,1,2,3:2:0:0:
69,172,169911,2,0,L|207:178,1,129.599996044922,2|0,0:0|3:0,0:0:0:0:
232,261,170511,1,2,0:0:0:0:
405,206,170911,5,0,3:0:0:0:
470,268,171111,2,0,P|486:259|502:239,2,32.3999990112305,0|0|0,0:0|0:0|3:0,0:0:0:0:
427,348,171511,1,0,3:0:0:0:
336,357,171711,1,10,0:0:0:0:
245,366,171911,2,0,P|185:362|105:328,1,129.599996044922,2|0,0:0|3:0,0:0:0:0:
152,158,172711,2,0,P|212:162|292:196,1,129.599996044922,0|2,3:0|0:0,0:0:0:0:
461,153,173511,1,2,3:2:0:0:
461,153,173611,1,0,0:0:0:0:
461,153,173711,2,0,P|463:123|480:83,1,64.799998022461
393,49,174111,5,0,3:0:0:0:
304,30,174311,2,0,P|292:13|266:9,2,32.3999990112305,0|0|0,0:0|0:0|3:0,0:0:0:0:
258,108,174711,1,0,3:0:0:0:
317,175,174911,2,0,P|297:228|292:326,1,129.599996044922,10|0,0:0|0:0,0:0:0:0:
209,344,175511,2,0,P|180:246|124:161,1,194.399994067383,2|0,3:2|3:0,0:0:0:0:
51,123,176311,1,0,0:0:0:0:
74,35,176511,1,10,0:0:0:0:
164,32,176711,1,2,0:0:0:0:
254,30,176911,2,0,L|323:40,1,64.799998022461,2|0,0:0|3:0,0:0:0:0:
433,20,177311,6,0,P|447:51|451:170,1,129.599996044922,6|0,3:2|3:0,0:0:0:0:
443,234,177911,1,0,3:0:0:0:
357,264,178111,2,0,P|343:233|339:114,1,129.599996044922,10|0,0:0|0:0,0:0:0:0:
260,85,178711,2,0,P|259:52|248:22,2,64.799998022461,0|2|2,3:0|0:0|0:0,0:0:0:0:
174,114,179311,6,0,L|95:99,1,64.799998022461,2|0,3:2|0:0,0:0:0:0:
49,169,179711,2,0,L|34:248,1,64.799998022461,10|0,0:0|3:0,0:0:0:0:
104,294,180110,2,0,L|183:309,1,64.799998022461,2|0,0:0|3:0,0:0:0:0:
241,215,180510,6,0,B|271:205|335:234|392:207,1,129.599996044922,6|0,3:2|3:0,0:0:0:0:
444,162,181110,1,0,3:0:0:0:
359,127,181310,2,0,B|335:106|328:36|276:0,1,129.599996044922,10|0,0:0|0:0,0:0:0:0:
216,62,181910,1,0,3:0:0:0:
134,22,182110,5,10,0:0:0:0:
67,84,182310,2,0,L|57:153,1,64.799998022461,8|2,0:0|3:2,0:0:0:0:
115,218,182710,1,8,0:0:0:0:
48,280,182910,2,0,L|38:349,1,64.799998022461,2|0,3:2|3:0,0:0:0:0:
126,367,183310,2,0,L|136:298,1,64.799998022461,2|0,3:2|3:0,0:0:0:0:
243,236,183710,6,0,P|263:312|310:386,1,158.400004833985,4|2,3:2|0:0,0:0:0:0:
384,314,184309,1,0,3:0:0:0:
485,294,184509,2,0,P|464:217|417:143,1,158.400004833985,8|2,0:0|0:0,0:0:0:0:
348,79,185109,1,0,3:0:0:0:
246,93,185309,2,0,P|207:87|160:61,2,79.2000024169923,2|0|0,0:0|3:0|3:0,0:0:0:0:
350,270,186109,1,8,0:0:0:0:
442,224,186309,1,0,3:0:0:0:
510,300,186509,2,0,P|504:339|478:386,1,79.2000024169923,2|0,0:0|3:0,0:0:0:0:
357,366,186909,6,0,P|292:364|199:372,1,158.400004833985,4|2,3:2|0:0,0:0:0:0:
115,310,187509,1,0,3:0:0:0:
81,212,187709,2,0,P|146:214|239:206,1,158.400004833985,8|2,0:0|0:0,0:0:0:0:
323,268,188309,2,0,P|335:234|355:189,1,79.2000024169923,0|2,3:0|0:0,0:0:0:0:
398,101,188709,1,0,3:0:0:0:
305,55,188909,1,0,3:0:0:0:
101,24,189309,2,0,P|89:58|69:103,1,79.2000024169923,8|0,0:0|3:0,0:0:0:0:
26,191,189709,1,2,0:0:0:0:
119,237,189909,1,0,3:0:0:0:
222,164,190109,6,0,P|297:138|368:167,1,158.400004833985,4|2,3:2|0:0,0:0:0:0:
415,74,190709,1,0,3:0:0:0:
490,144,190909,2,0,P|475:221|414:268,1,158.400004833985,8|2,0:0|0:0,0:0:0:0:
471,356,191509,1,0,3:0:0:0:
368,366,191709,2,0,L|282:354,1,79.2000024169923,2|0,0:0|3:0,0:0:0:0:
244,261,192109,2,0,L|268:89,1,158.400004833985,0|8,3:0|0:0,0:0:0:0:
190,33,192709,1,0,3:0:0:0:
120,109,192909,2,0,P|83:118|38:118,1,79.2000024169923,2|0,0:0|3:0,0:0:0:0:
2,213,193309,6,0,P|78:214|165:238,1,158.400004833985,4|2,3:2|0:0,0:0:0:0:
252,193,193909,1,0,3:0:0:0:
290,97,194109,2,0,P|366:96|453:72,1,158.400004833985,8|2,0:0|0:0,0:0:0:0:
487,169,194709,1,0,3:0:0:0:
468,270,194909,2,0,P|464:309|481:365,2,79.2000024169923,2|0|0,0:0|3:0|3:0,0:0:0:0:
275,194,195709,1,10,0:0:0:0:
326,283,195909,1,0,3:0:0:0:
253,356,196109,2,0,P|214:362|177:334,1,79.2000024169923,2|0,3:2|3:0,0:0:0:0:
148,219,196509,6,0,P|101:282|9:295,1,158.400004833985,4|2,3:2|0:0,0:0:0:0:
26,195,197109,1,0,3:0:0:0:
22,92,197309,2,0,P|69:29|161:16,1,158.400004833985,8|2,0:0|0:0,0:0:0:0:
144,116,197909,1,0,3:0:0:0:
246,121,198109,2,0,L|342:139,1,79.2000024169923,2|0,0:0|3:0,0:0:0:0:
363,231,198509,2,0,L|524:120,1,158.400004833985,0|8,3:0|0:0,0:0:0:0:
437,54,199109,1,0,3:0:0:0:
335,35,199309,2,0,L|239:17,1,79.2000024169923,2|0,0:0|3:0,0:0:0:0:
147,85,199709,6,0,P|211:126|233:203,1,158.400004833985,4|2,3:2|0:0,0:0:0:0:
332,227,200309,1,0,3:0:0:0:
433,246,200509,2,0,P|392:310|315:332,1,158.400004833985,8|2,0:0|0:0,0:0:0:0:
223,376,201109,1,0,3:0:0:0:
141,313,201309,2,0,P|101:312|60:327,2,79.2000024169923,2|0|0,0:0|3:0|3:0,0:0:0:0:
325,222,202109,1,8,0:0:0:0:
392,144,202309,1,0,3:0:0:0:
291,125,202509,2,0,P|283:88|279:29,1,79.2000024169923,2|0,0:0|3:0,0:0:0:0:
154,25,202909,6,0,P|112:81|5:107,1,158.400004833985,4|2,3:2|0:0,0:0:0:0:
37,212,203509,1,0,3:0:0:0:
135,241,203709,2,0,L|300:216,1,158.400004833985,8|2,0:0|0:0,0:0:0:0:
319,118,204309,1,0,3:0:0:0:
421,114,204509,2,0,L|433:196,1,79.2000024169923,2|0,0:0|3:0,0:0:0:0:
408,292,204909,2,0,P|333:315|284:376,1,158.400004833985,0|8,3:0|0:0,0:0:0:0:
182,362,205509,1,0,3:0:0:0:
184,259,205709,2,0,P|183:216|171:170,1,79.2000024169923,2|0,0:0|3:0,0:0:0:0:
278,107,206109,6,0,P|220:98|144:24,1,158.400004833985,4|2,3:2|0:0,0:0:0:0:
45,21,206709,1,0,3:0:0:0:
62,122,206909,2,0,P|79:208|13:353,1,237.600007250977,8|0,0:0|3:0,0:0:0:0:
121,379,207709,5,8,0:0:0:0:
223,370,207909,1,0,3:0:0:0:
298,300,208109,1,8,0:0:0:0:
408,317,208309,1,0,3:0:0:0:
408,317,208409,1,0,3:0:0:0:
408,317,208509,1,0,3:0:0:0:
425,207,208709,2,0,L|436:126,2,79.2000024169923,0|0|0,3:0|3:0|3:0,0:0:0:0:
297,194,209308,6,0,P|260:168|239:138,1,79.2000024169923,6|0,3:2|0:0,0:0:0:0:
170,64,209708,2,0,P|144:101|114:122,1,79.2000024169923,2|0,0:0|0:0,0:0:0:0:
34,182,210108,1,10,0:0:0:0:
54,282,210308,2,0,P|61:324|58:375,2,79.2000024169923,2|0|0,0:0|0:0|3:0,0:0:0:0:
156,287,210908,2,0,P|164:233|238:160,1,158.400004833985,2|0,0:0|3:0,0:0:0:0:
481,102,211708,1,8,0:0:0:0:
450,200,211908,2,0,P|396:192|323:118,1,158.400004833985,2|0,3:2|3:0,0:0:0:0:
239,26,212508,6,0,P|231:99|225:276,1,237.600007250977,6|0,3:2|3:0,0:0:0:0:
267,357,213308,2,0,P|312:343|313:295,1,79.2000024169923,8|0,0:0|0:0,0:0:0:0:
423,312,213708,2,0,P|468:298|469:250,1,79.2000024169923,2|0,0:0|3:0,0:0:0:0:
465,167,214108,1,2,0:0:0:0:
372,121,214308,1,0,3:0:0:0:
285,176,214508,2,0,P|220:122|202:27,1,158.400004833985,0|8,3:0|0:0,0:0:0:0:
100,26,215108,1,0,0:0:0:0:
90,128,215308,1,2,0:0:0:0:
29,211,215508,1,0,3:0:0:0:
112,307,215708,6,0,B|160:296|293:359|373:342,1,237.600007250977,6|0,3:2|3:0,0:0:0:0:
321,244,216508,2,0,P|309:209|309:164,1,79.2000024169923,10|0,0:0|0:0,0:0:0:0:
313,63,216908,2,0,P|348:51|393:51,1,79.2000024169923,2|0,0:0|3:0,0:0:0:0:
494,55,217308,1,2,0:0:0:0:
457,151,217508,1,0,3:0:0:0:
496,246,217708,2,0,L|386:365,1,158.400004833985,0|8,3:0|0:0,0:0:0:0:
303,304,218308,2,0,L|248:244,1,79.2000024169923,2|0,0:0|0:0,0:0:0:0:
146,252,218708,1,0,3:0:0:0:
208,362,218908,6,0,P|96:367|14:274,1,237.600007250977,6|0,3:2|3:0,0:0:0:0:
20,177,219708,2,0,P|71:77|193:52,1,237.600007250977,10|0,0:0|0:0,0:0:0:0:
251,161,220508,6,0,L|263:263,1,79.2000024169923,4|0,3:2|0:0,0:0:0:0:
279,340,220908,1,0,3:0:0:0:
290,339,221008,1,0,3:0:0:0:
302,338,221108,1,0,3:0:0:0:
314,336,221208,1,0,3:0:0:0:
326,335,221308,1,4,3:2:0:0:
487,139,221708,1,2,3:2:0:0:
476,140,221808,1,0,3:0:0:0:
464,141,221908,1,0,3:0:0:0:
452,143,222008,1,0,3:0:0:0:
440,144,222108,6,0,P|380:105|341:15,1,158.400004833985,6|0,3:2|0:0,0:0:0:0:
239,18,222708,1,2,3:2:0:0:
204,115,222908,2,0,P|226:220|172:356,1,237.600007250977,8|0,0:0|3:0,0:0:0:0:
16,149,223908,1,2,3:2:0:0:
24,46,224108,1,0,3:0:0:0:
276,23,224508,1,10,0:0:0:0:
379,31,224708,1,0,3:0:0:0:
370,133,224908,2,0,P|328:135|287:151,1,79.2000024169923,2|0,0:0|3:0,0:0:0:0:
196,229,225308,6,0,P|274:254|347:306,1,158.400004833985,6|0,3:2|0:0,0:0:0:0:
405,374,225908,1,2,3:2:0:0:
440,277,226108,2,0,P|465:198|517:125,1,158.400004833985,8|0,0:0|0:0,0:0:0:0:
464,41,226708,1,2,3:2:0:0:
369,82,226908,2,0,P|330:78|289:65,1,79.2000024169923,2|0,0:0|3:0,0:0:0:0:
193,36,227308,2,0,P|116:42|33:70,1,158.400004833985,0|10,3:0|0:0,0:0:0:0:
102,148,227908,1,0,3:0:0:0:
201,173,228108,2,0,P|204:189|205:265,1,79.2000024169923,2|0,0:0|3:0,0:0:0:0:
302,167,228508,6,0,P|308:199|310:351,1,158.400004833985,6|0,3:2|0:0,0:0:0:0:
220,372,229108,1,2,3:2:0:0:
117,367,229308,2,0,P|45:327|61:184,1,237.600007250977,8|0,0:0|3:0,0:0:0:0:
263,71,230308,1,2,3:2:0:0:
365,86,230508,1,0,3:0:0:0:
249,313,230908,1,2,3:2:0:0:
147,298,231108,1,0,3:0:0:0:
214,220,231308,2,0,P|252:215|304:213,1,79.2000024169923,2|0,0:0|3:0,0:0:0:0:
382,312,231708,6,0,P|402:238|363:83,1,237.600007250977,6|0,3:2|3:0,0:0:0:0:
269,44,232508,2,0,P|229:35|177:51,1,79.2000024169923,10|0,0:0|0:0,0:0:0:0:
92,71,232908,2,0,P|83:110|99:162,1,79.2000024169923,2|0,0:0|3:0,0:0:0:0:
57,247,233308,5,10,0:0:0:0:
141,306,233508,2,0,L|231:289,1,79.2000024169923,8|2,0:0|3:2,0:0:0:0:
176,197,233907,1,8,0:0:0:0:
260,138,234107,2,0,L|350:155,1,79.2000024169923,2|2,3:2|3:2,0:0:0:0:
429,105,234507,1,2,3:2:0:0:
476,197,234707,1,2,3:2:0:0:
373,269,234907,6,0,P|309:270|246:346,1,158.400004833985,6|0,3:2|0:0,0:0:0:0:
147,356,235507,1,0,3:0:0:0:
47,324,235707,2,0,P|44:172|27:83,1,237.600007250977,10|0,0:0|3:0,0:0:0:0:
131,76,236507,2,0,P|131:126|137:156,1,79.2000024169923,2|0,0:0|3:0,0:0:0:0:
184,245,236907,1,0,3:0:0:0:
426,337,237307,1,10,0:0:0:0:
384,242,237507,2,0,P|395:159|473:107,1,158.400004833985,0|0,3:0|3:0,0:0:0:0:
392,2,238107,6,0,P|329:62|249:97,1,158.400004833985,6|0,3:2|0:0,0:0:0:0:
248,194,238707,1,0,3:0:0:0:
146,209,238907,2,0,P|30:122|27:6,1,237.600007250977,10|0,0:0|3:0,0:0:0:0:
118,14,239707,2,0,P|126:55|127:101,1,79.2000024169923,2|0,0:0|3:0,0:0:0:0:
229,103,240107,2,0,P|275:172|339:238,1,158.400004833985,0|10,3:0|0:0,0:0:0:0:
425,254,240707,1,0,3:0:0:0:
455,352,240907,2,0,P|415:353|376:361,1,79.2000024169923,2|0,0:0|3:0,0:0:0:0:
262,308,241307,6,0,P|155:358|45:315,1,237.600007250977,6|0,3:2|3:0,0:0:0:0:
5,224,242107,2,0,P|76:190|149:219,1,158.400004833985,10|0,0:0|0:0,0:0:0:0:
250,209,242707,2,0,L|240:131,1,79.2000024169923,0|2,3:0|0:0,0:0:0:0:
302,48,243107,1,0,3:0:0:0:
401,23,243307,2,0,L|425:210,1,158.400004833985,0|10,3:0|0:0,0:0:0:0:
482,262,243907,1,0,3:0:0:0:
435,353,244107,2,0,P|403:356|351:316,1,79.2000024169923,2|0,0:0|3:0,0:0:0:0:
243,366,244507,6,0,P|260:288|186:256,1,158.400004833985,4|2,3:2|0:0,0:0:0:0:
101,279,245107,1,0,3:0:0:0:
34,200,245307,2,0,P|38:125|110:107,1,158.400004833985,10|0,0:0|0:0,0:0:0:0:
197,158,245907,1,0,3:0:0:0:
290,114,246107,2,0,L|280:35,1,79.2000024169923,8|0,0:0|0:0,0:0:0:0:
382,27,246507,2,0,L|392:106,1,79.2000024169923,8|0,0:0|0:0,0:0:0:0:
455,187,246907,2,0,L|408:264,1,79.2000024169923,2|2,3:2|3:2,0:0:0:0:
321,300,247307,1,2,3:2:0:0:
260,216,247507,1,2,3:2:0:0:
179,118,247707,6,0,P|148:176|48:176,1,158.400004833985,6|0,3:2|0:0,0:0:0:0:
13,276,248307,1,0,3:0:0:0:
91,342,248507,2,0,P|204:329|322:379,1,237.600007250977,10|0,0:0|3:0,0:0:0:0:
358,280,249307,2,0,P|323:256|294:220,1,79.2000024169923,2|0,0:0|3:0,0:0:0:0:
241,143,249707,1,0,3:0:0:0:
466,27,250107,1,10,0:0:0:0:
487,127,250307,2,0,P|480:206|455:303,1,158.400004833985,0|0,3:0|3:0,0:0:0:0:
354,351,250907,6,0,P|351:253|327:185,1,158.400004833985,6|0,3:2|0:0,0:0:0:0:
241,146,251507,1,0,3:0:0:0:
209,47,251707,2,0,P|74:54|28:146,1,237.600007250977,10|0,0:0|3:0,0:0:0:0:
8,234,252507,2,0,P|30:264|68:262,1,79.2000024169923,2|0,0:0|3:0,0:0:0:0:
170,252,252907,2,0,P|252:252|338:274,1,158.400004833985,0|10,3:0|0:0,0:0:0:0:
398,195,253507,1,0,3:0:0:0:
499,175,253707,2,0,P|492:218|492:261,1,79.2000024169923,2|0,0:0|3:0,0:0:0:0:
493,378,254107,6,0,P|424:351|253:375,1,237.600007250977,6|0,3:2|3:0,0:0:0:0:
169,328,254907,2,0,P|123:345|9:329,1,158.400004833985,10|0,0:0|0:0,0:0:0:0:
56,238,255507,2,0,P|44:207|55:131,1,79.2000024169923,0|2,3:0|0:0,0:0:0:0:
98,73,255907,1,0,3:0:0:0:
191,30,256107,2,0,P|227:78|206:172,1,158.400004833985,0|10,3:0|0:0,0:0:0:0:
164,263,256707,1,0,3:0:0:0:
234,338,256907,2,0,L|342:352,1,79.2000024169923,2|0,0:0|3:0,0:0:0:0:
368,233,257307,6,0,P|446:253|499:178,1,158.400004833985,4|2,3:2|0:0,0:0:0:0:
414,138,257907,1,0,3:0:0:0:
460,43,258107,2,0,P|382:23|329:98,1,158.400004833985,10|0,0:0|0:0,0:0:0:0:
239,118,258707,1,0,3:0:0:0:
170,40,258906,2,0,L|91:33,1,79.2000024169923,8|0,0:0|0:0,0:0:0:0:
15,102,259306,2,0,L|8:181,1,79.2000024169923,8|0,0:0|0:0,0:0:0:0:
83,250,259706,5,0,3:0:0:0:
170,195,259906,1,0,3:0:0:0:
261,241,260106,1,0,3:0:0:0:
174,296,260306,1,0,3:0:0:0:
282,361,260506,6,0,P|347:350|378:270,1,158.400004833985,6|0,3:2|0:0,0:0:0:0:
354,170,261106,1,0,3:0:0:0:
297,83,261306,2,0,P|397:30|494:89,1,237.600007250977,10|0,0:0|3:0,0:0:0:0:
482,191,262106,2,0,P|499:224|479:256,1,79.2000024169923,2|0,0:0|3:0,0:0:0:0:
378,270,262506,1,0,3:0:0:0:
137,355,262906,1,10,0:0:0:0:
208,280,263106,2,0,P|131:241|76:184,1,158.400004833985,0|0,3:0|3:0,0:0:0:0:
12,85,263706,6,0,P|77:100|151:50,1,158.400004833985,6|0,3:2|0:0,0:0:0:0:
248,22,264306,1,0,3:0:0:0:
272,122,264506,2,0,P|337:107|411:157,1,158.400004833985,10|0,0:0|0:0,0:0:0:0:
508,185,265106,1,0,3:0:0:0:
433,255,265306,2,0,L|348:263,1,79.2000024169923,2|0,0:0|3:0,0:0:0:0:
262,308,265706,2,0,L|92:292,1,158.400004833985,0|10,3:0|0:0,0:0:0:0:
23,229,266306,1,0,3:0:0:0:
92,153,266506,2,0,P|127:166|155:207,1,79.2000024169923,2|0,0:0|3:0,0:0:0:0:
279,212,266906,6,0,P|260:100|338:4,1,237.600007250977,6|0,3:2|3:0,0:0:0:0:
433,20,267706,2,0,P|445:94|393:158,1,158.400004833985,10|0,0:0|0:0,0:0:0:0:
376,257,268306,2,0,P|367:293|364:355,1,79.2000024169923,0|2,3:0|0:0,0:0:0:0:
261,353,268706,1,0,3:0:0:0:
170,303,268906,2,0,P|105:287|-7:282,1,158.400004833985,0|10,3:0|0:0,0:0:0:0:
37,180,269506,1,0,3:0:0:0:
139,188,269706,2,0,P|178:184|216:174,1,79.2000024169923,2|0,0:0|3:0,0:0:0:0:
320,248,270106,6,0,P|384:215|420:58,1,237.600007250977,2|0,3:2|3:0,0:0:0:0:
417,55,270806,1,2,0:0:0:0:
407,47,270906,2,0,P|338:24|202:109,1,237.600007250977,10|0,0:0|3:0,0:0:0:0:
172,181,271706,5,8,0:0:0:0:
76,239,271973,5,8,0:0:0:0:
102,293,272106,6,0,L|71:337,2,43.1999986816407,10|0|0,0:0|3:0|3:0,0:0:0:0:
155,321,272506,2,0,L|150:374,2,43.1999986816407,0|0|0,3:0|3:0|3:0,0:0:0:0:
215,319,272906,2,0,L|238:367,2,43.1999986816407,2|0|0,3:2|3:0|3:0,0:0:0:0:
265,286,273306,6,0,P|343:319|423:297,1,158.400004833985,6|0,3:2|0:0,0:0:0:0:
462,216,273906,1,0,3:0:0:0:
508,123,274106,2,0,P|435:74|343:172,1,237.600007250977,10|0,0:0|3:0,0:0:0:0:
240,145,274906,2,0,P|239:109|230:55,1,79.2000024169923,2|0,0:0|3:0,0:0:0:0:
146,9,275306,1,0,3:0:0:0:
20,229,275706,1,10,0:0:0:0:
45,328,275906,2,0,P|123:307|219:302,1,158.400004833985,0|0,3:0|3:0,0:0:0:0:
315,352,276506,5,4,3:2:0:0:
417,365,276706,1,2,0:0:0:0:
430,263,276906,1,2,0:0:0:0:
328,250,277106,1,0,3:0:0:0:
358,151,277306,2,0,P|357:109|344:62,1,79.2000024169923,10|2,0:0|0:0,0:0:0:0:
246,92,277706,2,0,P|247:134|260:181,1,79.2000024169923,2|0,0:0|3:0,0:0:0:0:
203,259,278106,2,0,L|125:249,1,79.2000024169923,2|0,0:0|3:0,0:0:0:0:
131,146,278506,2,0,L|53:136,1,79.2000024169923,0|0,3:0|0:0,0:0:0:0:
69,34,278906,2,0,L|326:67,1,237.600007250977,10|0,0:0|0:0,0:0:0:0:
427,96,279706,5,4,3:2:0:0:
507,159,279906,1,2,0:0:0:0:
444,239,280106,1,2,0:0:0:0:
364,176,280306,1,0,3:0:0:0:
262,159,280506,2,0,P|225:162|187:181,1,79.2000024169923,10|0,0:0|0:0,0:0:0:0:
85,171,280906,2,0,P|88:208|107:246,1,79.2000024169923,0|0,0:0|3:0,0:0:0:0:
168,328,281306,6,0,L|251:333,1,79.2000024169923,2|2,0:0|3:2,0:0:0:0:
349,339,281706,2,0,L|375:260,1,79.2000024169923,2|2,3:2|0:0,0:0:0:0:
427,175,282106,2,0,L|344:170,1,79.2000024169923,10|0,0:0|0:0,0:0:0:0:
246,164,282506,2,0,L|219:242,1,79.2000024169923,2|0,0:0|3:0,0:0:0:0:
94,259,282906,6,0,P|57:126|11:33,1,237.600007250977,6|0,3:2|3:0,0:0:0:0:
114,19,283706,2,0,P|203:41|271:46,1,158.400004833985,10|0,0:0|0:0,0:0:0:0:
371,34,284305,1,0,3:0:0:0:
472,16,284505,5,10,0:0:0:0:
501,267,284905,1,0,3:0:0:0:
247,254,285305,1,10,0:0:0:0:
235,153,285505,1,10,0:0:0:0:
224,53,285705,1,0,3:0:0:0:
224,53,285905,1,0,3:0:0:0:
343,93,286105,5,6,3:2:0:0:
256,192,286305,12,0,295705,0:0:0:0:
