osu file format v14

[General]
AudioFilename: audio.mp3
AudioLeadIn: 0
PreviewTime: 171451
Countdown: 1
SampleSet: Normal
StackLeniency: 0.7
Mode: 0
LetterboxInBreaks: 0
WidescreenStoryboard: 0

[Editor]
DistanceSpacing: 1.1
BeatDivisor: 6
GridSize: 4
TimelineZoom: 1

[Metadata]
Title:Monsters
TitleUnicode:Monsters
Artist:NOA
ArtistUnicode:NOA
Creator:Netsuzou
Version:so random huh
Source:
Tags:
BeatmapID:1906284
BeatmapSetID:912540

[Difficulty]
HPDrainRate:0.5
CircleSize:4
OverallDifficulty:7
ApproachRate:10
SliderMultiplier:2
SliderTickRate:1

[Events]
//Background and Video events
0,0,"374272_dark-anime-wallpaper.jpg",0,0
//Break Periods
//Storyboard Layer 0 (Background)
//Storyboard Layer 1 (Fail)
//Storyboard Layer 2 (Pass)
//Storyboard Layer 3 (Foreground)
//Storyboard Sound Samples

[TimingPoints]
22.888,714.285714285714,4,1,0,100,1,0
68602,-100,4,1,0,100,0,1
102887,-100,4,1,0,100,0,0

[HitObjects]
258,190,68594,5,0,0:0:0:0:
293,180,68713,1,0,0:0:0:0:
306,214,68832,1,0,0:0:0:0:
264,269,68951,1,0,0:0:0:0:
191,232,69070,1,0,0:0:0:0:
248,147,69189,1,0,0:0:0:0:
336,91,69308,5,0,0:0:0:0:
385,228,69427,1,0,0:0:0:0:
245,93,69546,1,0,0:0:0:0:
444,159,69665,1,0,0:0:0:0:
219,231,69784,1,0,0:0:0:0:
410,70,69903,1,0,0:0:0:0:
303,245,70022,5,0,0:0:0:0:
80,39,70141,1,0,0:0:0:0:
79,165,70260,1,0,0:0:0:0:
196,47,70380,1,0,0:0:0:0:
201,154,70499,1,0,0:0:0:0:
74,250,70618,1,0,0:0:0:0:
216,267,70737,1,0,0:0:0:0:
76,348,70856,5,0,0:0:0:0:
229,361,70975,1,0,0:0:0:0:
135,211,71094,1,0,0:0:0:0:
139,355,71213,1,0,0:0:0:0:
303,192,71332,1,0,0:0:0:0:
315,355,71451,1,0,0:0:0:0:
478,270,71570,1,0,0:0:0:0:
211,170,71689,1,0,0:0:0:0:
386,346,71808,1,0,0:0:0:0:
456,108,71927,5,0,0:0:0:0:
280,273,72046,1,0,0:0:0:0:
388,40,72165,1,0,0:0:0:0:
237,40,72284,1,0,0:0:0:0:
416,209,72403,1,0,0:0:0:0:
186,237,72522,1,0,0:0:0:0:
345,104,72641,1,0,0:0:0:0:
104,85,72760,1,0,0:0:0:0:
294,221,72880,5,0,0:0:0:0:
101,280,72999,1,0,0:0:0:0:
137,175,73118,1,0,0:0:0:0:
226,307,73237,1,0,0:0:0:0:
268,151,73356,1,0,0:0:0:0:
300,327,73475,1,0,0:0:0:0:
216,228,73594,1,0,0:0:0:0:
159,341,73713,5,0,0:0:0:0:
364,214,73832,1,0,0:0:0:0:
358,352,73951,1,0,0:0:0:0:
258,219,74070,1,0,0:0:0:0:
443,351,74189,1,0,0:0:0:0:
465,207,74308,5,0,0:0:0:0:
304,339,74427,1,0,0:0:0:0:
464,129,74546,1,0,0:0:0:0:
265,49,74665,1,0,0:0:0:0:
473,37,74784,1,0,0:0:0:0:
382,187,74903,1,0,0:0:0:0:
369,52,75022,1,0,0:0:0:0:
251,204,75141,1,0,0:0:0:0:
422,129,75260,1,0,0:0:0:0:
231,109,75380,5,0,0:0:0:0:
356,253,75499,1,0,0:0:0:0:
428,68,75618,1,0,0:0:0:0:
267,243,75737,1,0,0:0:0:0:
318,137,75856,1,0,0:0:0:0:
438,243,75975,1,0,0:0:0:0:
181,166,76094,1,0,0:0:0:0:
390,137,76213,5,0,0:0:0:0:
279,98,76332,1,0,0:0:0:0:
445,179,76451,1,0,0:0:0:0:
188,253,76570,1,0,0:0:0:0:
400,344,76689,1,0,0:0:0:0:
235,179,76808,5,0,0:0:0:0:
441,219,76927,1,0,0:0:0:0:
204,340,77046,1,0,0:0:0:0:
329,154,77165,1,0,0:0:0:0:
235,93,77284,1,0,0:0:0:0:
118,214,77403,1,0,0:0:0:0:
316,240,77522,5,0,0:0:0:0:
131,313,77641,1,0,0:0:0:0:
150,109,77760,1,0,0:0:0:0:
284,312,77880,1,0,0:0:0:0:
371,92,77999,1,0,0:0:0:0:
445,321,78118,1,0,0:0:0:0:
259,191,78237,5,0,0:0:0:0:
463,142,78356,1,0,0:0:0:0:
359,309,78475,1,0,0:0:0:0:
246,94,78594,1,0,0:0:0:0:
464,49,78713,1,0,0:0:0:0:
220,286,78832,1,0,0:0:0:0:
453,235,78951,1,0,0:0:0:0:
187,177,79070,1,0,0:0:0:0:
299,314,79189,5,0,0:0:0:0:
446,126,79308,1,0,0:0:0:0:
174,249,79427,1,0,0:0:0:0:
282,47,79546,1,0,0:0:0:0:
407,300,79665,1,0,0:0:0:0:
136,107,79784,1,0,0:0:0:0:
409,60,79903,1,0,0:0:0:0:
216,299,80022,5,0,0:0:0:0:
429,223,80141,1,0,0:0:0:0:
230,204,80260,1,0,0:0:0:0:
317,342,80380,1,0,0:0:0:0:
433,127,80499,1,0,0:0:0:0:
41,348,80618,5,0,0:0:0:0:
69,196,80737,1,0,0:0:0:0:
196,345,80856,1,0,0:0:0:0:
306,201,80975,1,0,0:0:0:0:
91,294,81094,1,0,0:0:0:0:
191,181,81213,1,0,0:0:0:0:
302,335,81332,1,0,0:0:0:0:
52,107,81451,1,0,0:0:0:0:
270,43,81570,5,0,0:0:0:0:
84,192,81689,1,0,0:0:0:0:
312,126,81808,1,0,0:0:0:0:
96,47,81927,1,0,0:0:0:0:
206,250,82046,1,0,0:0:0:0:
301,42,82165,1,0,0:0:0:0:
110,260,82284,1,0,0:0:0:0:
404,223,82403,5,0,0:0:0:0:
266,345,82522,1,0,0:0:0:0:
447,335,82641,1,0,0:0:0:0:
235,208,82760,1,0,0:0:0:0:
383,134,82880,1,0,0:0:0:0:
351,348,82999,5,0,0:0:0:0:
162,109,83118,1,0,0:0:0:0:
161,320,83237,1,0,0:0:0:0:
333,61,83356,1,0,0:0:0:0:
269,318,83475,1,0,0:0:0:0:
129,207,83594,1,0,0:0:0:0:
407,177,83713,1,0,0:0:0:0:
397,330,83832,5,0,0:0:0:0:
145,318,83951,1,0,0:0:0:0:
384,83,84070,1,0,0:0:0:0:
434,263,84189,1,0,0:0:0:0:
114,114,84308,1,0,0:0:0:0:
319,345,84427,1,0,0:0:0:0:
108,221,84546,1,0,0:0:0:0:
412,170,84665,1,0,0:0:0:0:
216,333,84784,1,0,0:0:0:0:
415,338,84903,5,0,0:0:0:0:
285,160,85022,1,0,0:0:0:0:
291,343,85141,1,0,0:0:0:0:
81,51,85260,1,0,0:0:0:0:
62,188,85380,1,0,0:0:0:0:
245,73,85499,1,0,0:0:0:0:
57,112,85618,1,0,0:0:0:0:
203,174,85737,5,0,0:0:0:0:
74,284,85856,1,0,0:0:0:0:
221,293,85975,1,0,0:0:0:0:
356,192,86094,1,0,0:0:0:0:
345,77,86213,1,0,0:0:0:0:
225,199,86332,1,0,0:0:0:0:
372,316,86451,1,0,0:0:0:0:
277,106,86570,1,0,0:0:0:0:
238,338,86689,1,0,0:0:0:0:
447,119,86808,5,0,0:0:0:0:
236,43,86927,1,0,0:0:0:0:
466,33,87046,1,0,0:0:0:0:
241,164,87165,1,0,0:0:0:0:
446,191,87284,1,0,0:0:0:0:
331,343,87403,5,0,0:0:0:0:
350,103,87522,1,0,0:0:0:0:
207,304,87641,1,0,0:0:0:0:
447,119,87760,1,0,0:0:0:0:
413,332,87880,1,0,0:0:0:0:
220,104,87999,1,0,0:0:0:0:
117,201,88118,5,0,0:0:0:0:
41,61,88237,1,0,0:0:0:0:
46,228,88356,1,0,0:0:0:0:
102,50,88475,1,0,0:0:0:0:
181,231,88594,1,0,0:0:0:0:
34,143,88713,1,0,0:0:0:0:
204,162,88832,1,0,0:0:0:0:
35,249,88951,5,0,0:0:0:0:
192,308,89070,1,0,0:0:0:0:
103,149,89189,1,0,0:0:0:0:
44,353,89308,1,0,0:0:0:0:
249,140,89427,5,0,0:0:0:0:
114,347,89546,1,0,0:0:0:0:
154,78,89665,1,0,0:0:0:0:
231,348,89784,1,0,0:0:0:0:
71,217,89903,5,0,0:0:0:0:
316,248,90022,1,0,0:0:0:0:
82,324,90141,1,0,0:0:0:0:
376,110,90260,1,0,0:0:0:0:
367,342,90380,1,0,0:0:0:0:
481,224,90499,1,0,0:0:0:0:
288,340,90618,1,0,0:0:0:0:
450,144,90737,5,0,0:0:0:0:
239,206,90856,1,0,0:0:0:0:
372,283,90975,1,0,0:0:0:0:
266,100,91094,1,0,0:0:0:0:
192,319,91213,1,0,0:0:0:0:
357,156,91332,1,0,0:0:0:0:
138,277,91451,1,0,0:0:0:0:
335,76,91570,5,0,0:0:0:0:
278,336,91689,1,0,0:0:0:0:
56,199,91808,1,0,0:0:0:0:
159,355,91927,1,0,0:0:0:0:
351,244,92046,1,0,0:0:0:0:
324,356,92165,5,0,0:0:0:0:
225,254,92284,1,0,0:0:0:0:
379,335,92403,1,0,0:0:0:0:
282,205,92522,1,0,0:0:0:0:
261,354,92641,1,0,0:0:0:0:
419,130,92760,1,0,0:0:0:0:
102,294,92880,1,0,0:0:0:0:
58,47,92999,1,0,0:0:0:0:
384,70,93118,1,0,0:0:0:0:
164,322,93237,5,0,0:0:0:0:
53,198,93356,1,0,0:0:0:0:
35,338,93475,1,0,0:0:0:0:
191,190,93594,1,0,0:0:0:0:
33,272,93713,1,0,0:0:0:0:
253,263,93832,1,0,0:0:0:0:
95,349,93951,5,0,0:0:0:0:
274,339,94070,1,0,0:0:0:0:
404,206,94189,1,0,0:0:0:0:
226,283,94308,1,0,0:0:0:0:
457,263,94427,1,0,0:0:0:0:
209,148,94546,5,0,0:0:0:0:
45,64,94665,1,0,0:0:0:0:
304,47,94784,1,0,0:0:0:0:
45,256,94903,1,0,0:0:0:0:
455,147,95022,1,0,0:0:0:0:
90,142,95141,1,0,0:0:0:0:
369,283,95260,1,0,0:0:0:0:
78,332,95380,5,0,0:0:0:0:
370,117,95499,1,0,0:0:0:0:
187,340,95618,1,0,0:0:0:0:
44,89,95737,1,0,0:0:0:0:
382,41,95856,1,0,0:0:0:0:
56,196,95975,1,0,0:0:0:0:
338,332,96094,1,0,0:0:0:0:
502,117,96213,5,0,0:0:0:0:
201,285,96332,1,0,0:0:0:0:
446,310,96451,1,0,0:0:0:0:
252,169,96570,1,0,0:0:0:0:
102,348,96689,1,0,0:0:0:0:
405,196,96808,1,0,0:0:0:0:
66,43,96927,5,0,0:0:0:0:
320,315,97046,1,0,0:0:0:0:
57,220,97165,1,0,0:0:0:0:
323,91,97284,1,0,0:0:0:0:
97,110,97403,1,0,0:0:0:0:
341,227,97522,1,0,0:0:0:0:
75,302,97641,5,0,0:0:0:0:
358,157,97760,1,0,0:0:0:0:
231,306,97880,1,0,0:0:0:0:
416,335,97999,1,0,0:0:0:0:
209,191,98118,1,0,0:0:0:0:
423,88,98237,1,0,0:0:0:0:
316,288,98356,1,0,0:0:0:0:
465,271,98475,1,0,0:0:0:0:
342,358,98594,5,0,0:0:0:0:
445,192,98713,1,0,0:0:0:0:
232,348,98832,1,0,0:0:0:0:
463,355,98951,1,0,0:0:0:0:
207,198,99070,1,0,0:0:0:0:
41,335,99189,1,0,0:0:0:0:
268,289,99308,1,0,0:0:0:0:
37,197,99427,1,0,0:0:0:0:
375,80,99546,5,0,0:0:0:0:
48,81,99665,1,0,0:0:0:0:
403,181,99784,1,0,0:0:0:0:
48,349,99903,1,0,0:0:0:0:
311,52,100022,1,0,0:0:0:0:
31,150,100141,1,0,0:0:0:0:
422,346,100260,1,0,0:0:0:0:
91,347,100380,5,0,0:0:0:0:
407,63,100499,1,0,0:0:0:0:
92,193,100618,1,0,0:0:0:0:
351,367,100737,1,0,0:0:0:0:
131,45,100856,1,0,0:0:0:0:
67,296,100975,1,0,0:0:0:0:
362,38,101094,1,0,0:0:0:0:
34,355,101213,5,0,0:0:0:0:
455,72,101332,1,0,0:0:0:0:
67,108,101451,1,0,0:0:0:0:
491,227,101570,1,0,0:0:0:0:
80,202,101689,1,0,0:0:0:0:
470,129,101808,1,0,0:0:0:0:
133,350,101927,5,0,0:0:0:0:
362,38,102046,1,0,0:0:0:0:
41,51,102165,1,0,0:0:0:0:
471,319,102284,1,0,0:0:0:0:
32,127,102403,1,0,0:0:0:0:
485,44,102522,1,0,0:0:0:0:
35,302,102641,1,0,0:0:0:0:
491,253,102760,1,0,0:0:0:0:
31,92,102880,1,0,0:0:0:0:
