osu file format v14

[General]
AudioFilename: audio_1.3.mp3
AudioLeadIn: 0
PreviewTime: 48373
Countdown: 0
SampleSet: None
StackLeniency: 0.7
Mode: 3
LetterboxInBreaks: 0
SpecialStyle: 0
WidescreenStoryboard: 0

[Editor]
DistanceSpacing: 3.2
BeatDivisor: 3
GridSize: 4
TimelineZoom: 1.5

[Metadata]
Title:Monsters
TitleUnicode:Monsters
Artist:NOA
ArtistUnicode:NOA
Creator:Mat
Version:>< x1.3
Source:
Tags:
BeatmapID:1694442
BeatmapSetID:805345

[Difficulty]
HPDrainRate:5
CircleSize:4
OverallDifficulty:9
ApproachRate:5
SliderMultiplier:1.4
SliderTickRate:1

[Events]
//Background and Video events
//Break Periods
//Storyboard Layer 0 (Background)
//Storyboard Layer 1 (Fail)
//Storyboard Layer 2 (Pass)
//Storyboard Layer 3 (Foreground)
//Storyboard Sound Samples

[TimingPoints]
17604,274.725274725275,4,1,0,30,1,0
52769,-100,4,1,0,30,0,1
79142,-100,4,1,0,30,0,0
140680,-100,4,1,0,30,0,1
175846,-100,4,1,0,30,0,0

[HitObjects]
64,192,43977,5,0,0:0:0:0:
448,192,43977,1,0,0:0:0:0:
320,192,43977,1,0,0:0:0:0:
192,192,44115,1,0,0:0:0:0:
320,192,44183,1,0,0:0:0:0:
64,192,44252,1,0,0:0:0:0:
448,192,44252,1,0,0:0:0:0:
192,192,44390,1,0,0:0:0:0:
448,192,44526,1,0,0:0:0:0:
320,192,44526,1,0,0:0:0:0:
192,192,44733,1,0,0:0:0:0:
64,192,44802,1,0,0:0:0:0:
448,192,44802,1,0,0:0:0:0:
320,192,44939,1,0,0:0:0:0:
192,192,45076,1,0,0:0:0:0:
448,192,45076,1,0,0:0:0:0:
64,192,45283,1,0,0:0:0:0:
192,192,45351,1,0,0:0:0:0:
320,192,45351,1,0,0:0:0:0:
64,192,45488,1,0,0:0:0:0:
448,192,45626,1,0,0:0:0:0:
192,192,45626,1,0,0:0:0:0:
320,192,45763,1,0,0:0:0:0:
192,192,45832,1,0,0:0:0:0:
448,192,45900,1,0,0:0:0:0:
64,192,45900,1,0,0:0:0:0:
448,192,46038,1,0,0:0:0:0:
320,192,46038,1,0,0:0:0:0:
64,192,46175,1,0,0:0:0:0:
192,192,46175,1,0,0:0:0:0:
320,192,46313,1,0,0:0:0:0:
192,192,46381,1,0,0:0:0:0:
64,192,46450,1,0,0:0:0:0:
448,192,46450,1,0,0:0:0:0:
192,192,46587,1,0,0:0:0:0:
64,192,46725,1,0,0:0:0:0:
448,192,46725,1,0,0:0:0:0:
320,192,46930,1,0,0:0:0:0:
192,192,47000,1,0,0:0:0:0:
64,192,47000,1,0,0:0:0:0:
448,192,47136,1,0,0:0:0:0:
64,192,47274,1,0,0:0:0:0:
320,192,47274,1,0,0:0:0:0:
192,192,47411,1,0,0:0:0:0:
320,192,47480,1,0,0:0:0:0:
192,192,47549,1,0,0:0:0:0:
448,192,47549,1,0,0:0:0:0:
64,192,47686,1,0,0:0:0:0:
448,192,47823,1,0,0:0:0:0:
320,192,47823,1,0,0:0:0:0:
192,192,47961,1,0,0:0:0:0:
64,192,47961,1,0,0:0:0:0:
320,192,48030,1,0,0:0:0:0:
448,192,48030,1,0,0:0:0:0:
192,192,48098,1,0,0:0:0:0:
64,192,48098,1,0,0:0:0:0:
192,192,48236,1,0,0:0:0:0:
64,192,48236,1,0,0:0:0:0:
320,192,48304,1,0,0:0:0:0:
448,192,48304,1,0,0:0:0:0:
192,192,48373,1,0,0:0:0:0:
64,192,48373,1,0,0:0:0:0:
320,192,48442,1,0,0:0:0:0:
448,192,48510,1,0,0:0:0:0:
64,192,48510,1,0,0:0:0:0:
192,192,48579,1,0,0:0:0:0:
448,192,48648,1,0,0:0:0:0:
320,192,48648,1,0,0:0:0:0:
64,192,48716,1,0,0:0:0:0:
192,192,48785,1,0,0:0:0:0:
448,192,48785,1,0,0:0:0:0:
320,192,48853,1,0,0:0:0:0:
448,192,48923,1,0,0:0:0:0:
64,192,48923,1,0,0:0:0:0:
192,192,48991,1,0,0:0:0:0:
448,192,49060,1,0,0:0:0:0:
320,192,49060,1,0,0:0:0:0:
192,192,49129,1,0,0:0:0:0:
320,192,49197,1,0,0:0:0:0:
64,192,49197,1,0,0:0:0:0:
448,192,49266,1,0,0:0:0:0:
192,192,49334,1,0,0:0:0:0:
64,192,49334,1,0,0:0:0:0:
448,192,49403,1,0,0:0:0:0:
320,192,49472,1,0,0:0:0:0:
64,192,49472,1,0,0:0:0:0:
192,192,49540,1,0,0:0:0:0:
320,192,49610,1,0,0:0:0:0:
448,192,49610,1,0,0:0:0:0:
192,192,49678,1,0,0:0:0:0:
64,192,49746,1,0,0:0:0:0:
448,192,49746,1,0,0:0:0:0:
192,192,49815,1,0,0:0:0:0:
64,192,49884,1,0,0:0:0:0:
320,192,49884,1,0,0:0:0:0:
448,192,49953,1,0,0:0:0:0:
64,192,50021,1,0,0:0:0:0:
192,192,50021,1,0,0:0:0:0:
320,192,50090,1,0,0:0:0:0:
448,192,50159,1,0,0:0:0:0:
64,192,50159,1,0,0:0:0:0:
192,192,50227,1,0,0:0:0:0:
448,192,50296,1,0,0:0:0:0:
320,192,50296,1,0,0:0:0:0:
64,192,50365,1,0,0:0:0:0:
192,192,50433,1,0,0:0:0:0:
448,192,50433,1,0,0:0:0:0:
320,192,50502,1,0,0:0:0:0:
192,192,50571,1,0,0:0:0:0:
64,192,50571,1,0,0:0:0:0:
448,192,50605,1,0,0:0:0:0:
320,192,50640,1,0,0:0:0:0:
192,192,50674,1,0,0:0:0:0:
448,192,50708,1,0,0:0:0:0:
320,192,50743,1,0,0:0:0:0:
64,192,50776,1,0,0:0:0:0:
192,192,50811,1,0,0:0:0:0:
448,192,50846,1,0,0:0:0:0:
320,192,50880,1,0,0:0:0:0:
192,192,50914,1,0,0:0:0:0:
448,192,50949,1,0,0:0:0:0:
64,192,50983,1,0,0:0:0:0:
320,192,51017,1,0,0:0:0:0:
192,192,51052,1,0,0:0:0:0:
64,192,51086,1,0,0:0:0:0:
448,192,51120,1,0,0:0:0:0:
192,192,51155,1,0,0:0:0:0:
320,192,51189,1,0,0:0:0:0:
64,192,51223,1,0,0:0:0:0:
192,192,51257,1,0,0:0:0:0:
448,192,51292,1,0,0:0:0:0:
320,192,51326,1,0,0:0:0:0:
192,192,51360,1,0,0:0:0:0:
64,192,51395,1,0,0:0:0:0:
320,192,51430,1,0,0:0:0:0:
192,192,51463,1,0,0:0:0:0:
64,192,51498,1,0,0:0:0:0:
448,192,51533,1,0,0:0:0:0:
320,192,51566,1,0,0:0:0:0:
64,192,51601,1,0,0:0:0:0:
192,192,51636,1,0,0:0:0:0:
448,192,51670,1,0,0:0:0:0:
320,192,51670,1,0,0:0:0:0:
64,192,51704,1,0,0:0:0:0:
192,192,51738,1,0,0:0:0:0:
448,192,51773,1,0,0:0:0:0:
320,192,51807,1,0,0:0:0:0:
64,192,51807,1,0,0:0:0:0:
192,192,51841,1,0,0:0:0:0:
448,192,51876,1,0,0:0:0:0:
320,192,51910,1,0,0:0:0:0:
64,192,51944,1,0,0:0:0:0:
192,192,51944,1,0,0:0:0:0:
448,192,51979,1,0,0:0:0:0:
320,192,52013,1,0,0:0:0:0:
64,192,52047,1,0,0:0:0:0:
448,192,52082,1,0,0:0:0:0:
192,192,52082,1,0,0:0:0:0:
320,192,52116,1,0,0:0:0:0:
64,192,52150,1,0,0:0:0:0:
192,192,52185,1,0,0:0:0:0:
448,192,52219,1,0,0:0:0:0:
320,192,52219,1,0,0:0:0:0:
64,192,52494,1,0,0:0:0:0:
192,192,52494,1,0,0:0:0:0:
320,192,52586,1,0,0:0:0:0:
448,192,52586,1,0,0:0:0:0:
192,192,52677,1,0,0:0:0:0:
64,192,52677,1,0,0:0:0:0:
320,192,52769,1,0,0:0:0:0:
448,192,52769,1,0,0:0:0:0:
64,192,52769,1,0,0:0:0:0:
192,192,52860,1,0,0:0:0:0:
448,192,52860,1,0,0:0:0:0:
448,192,52952,1,0,0:0:0:0:
320,192,52952,1,0,0:0:0:0:
192,192,53043,1,0,0:0:0:0:
64,192,53043,1,0,0:0:0:0:
64,192,53135,1,0,0:0:0:0:
448,192,53135,1,0,0:0:0:0:
192,192,53226,1,0,0:0:0:0:
448,192,53226,1,0,0:0:0:0:
320,192,53318,1,0,0:0:0:0:
64,192,53318,1,0,0:0:0:0:
192,192,53318,1,0,0:0:0:0:
320,192,53410,1,0,0:0:0:0:
448,192,53410,1,0,0:0:0:0:
448,192,53501,1,0,0:0:0:0:
64,192,53501,1,0,0:0:0:0:
320,192,53593,1,0,0:0:0:0:
64,192,53593,1,0,0:0:0:0:
192,192,53684,1,0,0:0:0:0:
320,192,53684,1,0,0:0:0:0:
192,192,53776,1,0,0:0:0:0:
448,192,53776,1,0,0:0:0:0:
64,192,53776,1,0,0:0:0:0:
320,192,53867,1,0,0:0:0:0:
448,192,53867,1,0,0:0:0:0:
64,192,53867,1,0,0:0:0:0:
320,192,53959,1,0,0:0:0:0:
192,192,53959,1,0,0:0:0:0:
64,192,54050,1,0,0:0:0:0:
448,192,54050,1,0,0:0:0:0:
320,192,54142,1,0,0:0:0:0:
448,192,54142,1,0,0:0:0:0:
192,192,54142,1,0,0:0:0:0:
64,192,54234,1,0,0:0:0:0:
320,192,54234,1,0,0:0:0:0:
448,192,54326,1,0,0:0:0:0:
192,192,54326,1,0,0:0:0:0:
64,192,54326,1,0,0:0:0:0:
448,192,54417,1,0,0:0:0:0:
320,192,54417,1,0,0:0:0:0:
192,192,54417,1,0,0:0:0:0:
448,192,54509,1,0,0:0:0:0:
64,192,54509,1,0,0:0:0:0:
192,192,54600,1,0,0:0:0:0:
64,192,54600,1,0,0:0:0:0:
448,192,54692,1,0,0:0:0:0:
320,192,54692,1,0,0:0:0:0:
448,192,54783,1,0,0:0:0:0:
192,192,54783,1,0,0:0:0:0:
192,192,54875,1,0,0:0:0:0:
64,192,54875,1,0,0:0:0:0:
448,192,54966,1,0,0:0:0:0:
320,192,54966,1,0,0:0:0:0:
64,192,54966,1,0,0:0:0:0:
192,192,55058,1,0,0:0:0:0:
448,192,55058,1,0,0:0:0:0:
448,192,55150,1,0,0:0:0:0:
320,192,55150,1,0,0:0:0:0:
64,192,55241,1,0,0:0:0:0:
192,192,55241,1,0,0:0:0:0:
448,192,55333,1,0,0:0:0:0:
64,192,55333,1,0,0:0:0:0:
192,192,55424,1,0,0:0:0:0:
448,192,55424,1,0,0:0:0:0:
192,192,55516,1,0,0:0:0:0:
320,192,55516,1,0,0:0:0:0:
64,192,55516,1,0,0:0:0:0:
320,192,55607,1,0,0:0:0:0:
448,192,55607,1,0,0:0:0:0:
448,192,55699,1,0,0:0:0:0:
64,192,55699,1,0,0:0:0:0:
64,192,55790,1,0,0:0:0:0:
320,192,55790,1,0,0:0:0:0:
192,192,55882,1,0,0:0:0:0:
320,192,55882,1,0,0:0:0:0:
192,192,55973,1,0,0:0:0:0:
448,192,55973,1,0,0:0:0:0:
64,192,55973,1,0,0:0:0:0:
320,192,56065,1,0,0:0:0:0:
448,192,56065,1,0,0:0:0:0:
448,192,56157,1,0,0:0:0:0:
64,192,56157,1,0,0:0:0:0:
192,192,56249,1,0,0:0:0:0:
64,192,56249,1,0,0:0:0:0:
320,192,56340,1,0,0:0:0:0:
448,192,56340,1,0,0:0:0:0:
192,192,56340,1,0,0:0:0:0:
64,192,56432,1,0,0:0:0:0:
448,192,56432,1,0,0:0:0:0:
192,192,56523,1,0,0:0:0:0:
320,192,56523,1,0,0:0:0:0:
448,192,56615,1,0,0:0:0:0:
64,192,56615,1,0,0:0:0:0:
192,192,56615,1,0,0:0:0:0:
448,192,56706,1,0,0:0:0:0:
320,192,56706,1,0,0:0:0:0:
64,192,56798,1,0,0:0:0:0:
320,192,56798,1,0,0:0:0:0:
64,192,56890,1,0,0:0:0:0:
192,192,56890,1,0,0:0:0:0:
448,192,56981,1,0,0:0:0:0:
320,192,56981,1,0,0:0:0:0:
64,192,57073,1,0,0:0:0:0:
448,192,57073,1,0,0:0:0:0:
320,192,57164,1,0,0:0:0:0:
192,192,57164,1,0,0:0:0:0:
64,192,57164,1,0,0:0:0:0:
320,192,57256,1,0,0:0:0:0:
448,192,57256,1,0,0:0:0:0:
448,192,57347,1,0,0:0:0:0:
192,192,57347,1,0,0:0:0:0:
192,192,57439,1,0,0:0:0:0:
320,192,57439,1,0,0:0:0:0:
448,192,57530,1,0,0:0:0:0:
64,192,57530,1,0,0:0:0:0:
192,192,57622,1,0,0:0:0:0:
64,192,57622,1,0,0:0:0:0:
320,192,57713,1,0,0:0:0:0:
448,192,57713,1,0,0:0:0:0:
192,192,57713,1,0,0:0:0:0:
64,192,57805,1,0,0:0:0:0:
448,192,57805,1,0,0:0:0:0:
64,192,57896,1,0,0:0:0:0:
320,192,57896,1,0,0:0:0:0:
192,192,57988,1,0,0:0:0:0:
320,192,57988,1,0,0:0:0:0:
64,192,58080,1,0,0:0:0:0:
448,192,58080,1,0,0:0:0:0:
320,192,58172,1,0,0:0:0:0:
448,192,58172,1,0,0:0:0:0:
192,192,58172,1,0,0:0:0:0:
64,192,58263,1,0,0:0:0:0:
320,192,58263,1,0,0:0:0:0:
192,192,58263,1,0,0:0:0:0:
448,192,58355,1,0,0:0:0:0:
64,192,58355,1,0,0:0:0:0:
320,192,58446,1,0,0:0:0:0:
448,192,58446,1,0,0:0:0:0:
192,192,58538,1,0,0:0:0:0:
320,192,58538,1,0,0:0:0:0:
64,192,58538,1,0,0:0:0:0:
64,192,58630,1,0,0:0:0:0:
192,192,58630,1,0,0:0:0:0:
448,192,58721,1,0,0:0:0:0:
320,192,58721,1,0,0:0:0:0:
192,192,58721,1,0,0:0:0:0:
448,192,58813,1,0,0:0:0:0:
320,192,58813,1,0,0:0:0:0:
64,192,58813,1,0,0:0:0:0:
64,192,58904,1,0,0:0:0:0:
192,192,58904,1,0,0:0:0:0:
320,192,58996,1,0,0:0:0:0:
448,192,58996,1,0,0:0:0:0:
448,192,59087,1,0,0:0:0:0:
64,192,59087,1,0,0:0:0:0:
64,192,59179,1,0,0:0:0:0:
192,192,59179,1,0,0:0:0:0:
448,192,59270,1,0,0:0:0:0:
320,192,59270,1,0,0:0:0:0:
448,192,59362,1,0,0:0:0:0:
64,192,59362,1,0,0:0:0:0:
192,192,59362,1,0,0:0:0:0:
64,192,59453,1,0,0:0:0:0:
320,192,59453,1,0,0:0:0:0:
192,192,59545,1,0,0:0:0:0:
320,192,59545,1,0,0:0:0:0:
448,192,59636,1,0,0:0:0:0:
64,192,59636,1,0,0:0:0:0:
320,192,59728,1,0,0:0:0:0:
448,192,59728,1,0,0:0:0:0:
64,192,59820,1,0,0:0:0:0:
192,192,59820,1,0,0:0:0:0:
320,192,59911,1,0,0:0:0:0:
448,192,59911,1,0,0:0:0:0:
64,192,59911,1,0,0:0:0:0:
192,192,60003,1,0,0:0:0:0:
448,192,60003,1,0,0:0:0:0:
192,192,60095,1,0,0:0:0:0:
320,192,60095,1,0,0:0:0:0:
64,192,60186,1,0,0:0:0:0:
448,192,60186,1,0,0:0:0:0:
320,192,60278,1,0,0:0:0:0:
448,192,60278,1,0,0:0:0:0:
64,192,60370,1,0,0:0:0:0:
320,192,60370,1,0,0:0:0:0:
192,192,60370,1,0,0:0:0:0:
64,192,60461,1,0,0:0:0:0:
448,192,60461,1,0,0:0:0:0:
64,192,60736,1,0,0:0:0:0:
192,192,60736,1,0,0:0:0:0:
320,192,61010,1,0,0:0:0:0:
448,192,61010,1,0,0:0:0:0:
192,192,61010,1,0,0:0:0:0:
320,192,61285,1,0,0:0:0:0:
448,192,61285,1,0,0:0:0:0:
192,192,61376,1,0,0:0:0:0:
64,192,61376,1,0,0:0:0:0:
320,192,61468,1,0,0:0:0:0:
448,192,61468,1,0,0:0:0:0:
448,192,61560,1,0,0:0:0:0:
64,192,61560,1,0,0:0:0:0:
192,192,61560,1,0,0:0:0:0:
64,192,61651,1,0,0:0:0:0:
320,192,61651,1,0,0:0:0:0:
192,192,61743,1,0,0:0:0:0:
64,192,61743,1,0,0:0:0:0:
448,192,61834,1,0,0:0:0:0:
320,192,61834,1,0,0:0:0:0:
64,192,61926,1,0,0:0:0:0:
448,192,61926,1,0,0:0:0:0:
192,192,62018,1,0,0:0:0:0:
320,192,62018,1,0,0:0:0:0:
320,192,62110,1,0,0:0:0:0:
448,192,62110,1,0,0:0:0:0:
64,192,62110,1,0,0:0:0:0:
64,192,62201,1,0,0:0:0:0:
192,192,62201,1,0,0:0:0:0:
448,192,62293,1,0,0:0:0:0:
192,192,62293,1,0,0:0:0:0:
448,192,62384,1,0,0:0:0:0:
320,192,62384,1,0,0:0:0:0:
192,192,62476,1,0,0:0:0:0:
320,192,62476,1,0,0:0:0:0:
448,192,62567,1,0,0:0:0:0:
64,192,62567,1,0,0:0:0:0:
192,192,62567,1,0,0:0:0:0:
448,192,62659,1,0,0:0:0:0:
64,192,62659,1,0,0:0:0:0:
320,192,62659,1,0,0:0:0:0:
320,192,62750,1,0,0:0:0:0:
192,192,62750,1,0,0:0:0:0:
64,192,62842,1,0,0:0:0:0:
448,192,62842,1,0,0:0:0:0:
320,192,62933,1,0,0:0:0:0:
64,192,62933,1,0,0:0:0:0:
192,192,62933,1,0,0:0:0:0:
192,192,63025,1,0,0:0:0:0:
448,192,63025,1,0,0:0:0:0:
448,192,63116,1,0,0:0:0:0:
320,192,63116,1,0,0:0:0:0:
64,192,63116,1,0,0:0:0:0:
320,192,63208,1,0,0:0:0:0:
192,192,63208,1,0,0:0:0:0:
64,192,63208,1,0,0:0:0:0:
448,192,63300,1,0,0:0:0:0:
64,192,63300,1,0,0:0:0:0:
448,192,63391,1,0,0:0:0:0:
320,192,63391,1,0,0:0:0:0:
192,192,63483,1,0,0:0:0:0:
64,192,63483,1,0,0:0:0:0:
320,192,63574,1,0,0:0:0:0:
64,192,63574,1,0,0:0:0:0:
448,192,63666,1,0,0:0:0:0:
320,192,63666,1,0,0:0:0:0:
448,192,63757,1,0,0:0:0:0:
192,192,63757,1,0,0:0:0:0:
64,192,63757,1,0,0:0:0:0:
64,192,63850,1,0,0:0:0:0:
320,192,63850,1,0,0:0:0:0:
192,192,63941,1,0,0:0:0:0:
64,192,63941,1,0,0:0:0:0:
192,192,64033,1,0,0:0:0:0:
448,192,64033,1,0,0:0:0:0:
320,192,64124,1,0,0:0:0:0:
64,192,64124,1,0,0:0:0:0:
448,192,64216,1,0,0:0:0:0:
320,192,64216,1,0,0:0:0:0:
448,192,64307,1,0,0:0:0:0:
192,192,64307,1,0,0:0:0:0:
64,192,64307,1,0,0:0:0:0:
320,192,64399,1,0,0:0:0:0:
192,192,64399,1,0,0:0:0:0:
448,192,64490,1,0,0:0:0:0:
64,192,64490,1,0,0:0:0:0:
192,192,64582,1,0,0:0:0:0:
448,192,64582,1,0,0:0:0:0:
192,192,64673,1,0,0:0:0:0:
320,192,64673,1,0,0:0:0:0:
448,192,64765,1,0,0:0:0:0:
64,192,64765,1,0,0:0:0:0:
320,192,64765,1,0,0:0:0:0:
64,192,64856,1,0,0:0:0:0:
192,192,64856,1,0,0:0:0:0:
448,192,64948,1,0,0:0:0:0:
64,192,64948,1,0,0:0:0:0:
448,192,65040,1,0,0:0:0:0:
320,192,65040,1,0,0:0:0:0:
320,192,65131,1,0,0:0:0:0:
64,192,65131,1,0,0:0:0:0:
192,192,65131,1,0,0:0:0:0:
64,192,65223,1,0,0:0:0:0:
448,192,65223,1,0,0:0:0:0:
192,192,65314,1,0,0:0:0:0:
320,192,65314,1,0,0:0:0:0:
320,192,65406,1,0,0:0:0:0:
448,192,65406,1,0,0:0:0:0:
64,192,65406,1,0,0:0:0:0:
192,192,65497,1,0,0:0:0:0:
64,192,65497,1,0,0:0:0:0:
192,192,65589,1,0,0:0:0:0:
448,192,65589,1,0,0:0:0:0:
320,192,65680,1,0,0:0:0:0:
448,192,65680,1,0,0:0:0:0:
192,192,65773,1,0,0:0:0:0:
64,192,65773,1,0,0:0:0:0:
64,192,65864,1,0,0:0:0:0:
448,192,65864,1,0,0:0:0:0:
448,192,65956,1,0,0:0:0:0:
320,192,65956,1,0,0:0:0:0:
192,192,65956,1,0,0:0:0:0:
64,192,66047,1,0,0:0:0:0:
192,192,66047,1,0,0:0:0:0:
448,192,66139,1,0,0:0:0:0:
64,192,66139,1,0,0:0:0:0:
192,192,66230,1,0,0:0:0:0:
320,192,66230,1,0,0:0:0:0:
192,192,66322,1,0,0:0:0:0:
64,192,66322,1,0,0:0:0:0:
448,192,66413,1,0,0:0:0:0:
320,192,66413,1,0,0:0:0:0:
320,192,66505,1,0,0:0:0:0:
64,192,66505,1,0,0:0:0:0:
192,192,66505,1,0,0:0:0:0:
64,192,66596,1,0,0:0:0:0:
448,192,66596,1,0,0:0:0:0:
192,192,66688,1,0,0:0:0:0:
448,192,66688,1,0,0:0:0:0:
192,192,66780,1,0,0:0:0:0:
320,192,66780,1,0,0:0:0:0:
64,192,66871,1,0,0:0:0:0:
448,192,66871,1,0,0:0:0:0:
320,192,66963,1,0,0:0:0:0:
64,192,66963,1,0,0:0:0:0:
192,192,66963,1,0,0:0:0:0:
320,192,67054,1,0,0:0:0:0:
192,192,67054,1,0,0:0:0:0:
448,192,67054,1,0,0:0:0:0:
448,192,67146,1,0,0:0:0:0:
64,192,67146,1,0,0:0:0:0:
64,192,67237,1,0,0:0:0:0:
192,192,67237,1,0,0:0:0:0:
448,192,67329,1,0,0:0:0:0:
192,192,67329,1,0,0:0:0:0:
320,192,67329,1,0,0:0:0:0:
320,192,67420,1,0,0:0:0:0:
448,192,67420,1,0,0:0:0:0:
320,192,67512,1,0,0:0:0:0:
192,192,67512,1,0,0:0:0:0:
64,192,67512,1,0,0:0:0:0:
448,192,67603,1,0,0:0:0:0:
192,192,67603,1,0,0:0:0:0:
64,192,67603,1,0,0:0:0:0:
320,192,67696,1,0,0:0:0:0:
448,192,67696,1,0,0:0:0:0:
64,192,67787,1,0,0:0:0:0:
192,192,67787,1,0,0:0:0:0:
320,192,67879,1,0,0:0:0:0:
192,192,67879,1,0,0:0:0:0:
320,192,67970,1,0,0:0:0:0:
448,192,67970,1,0,0:0:0:0:
192,192,68062,1,0,0:0:0:0:
64,192,68062,1,0,0:0:0:0:
320,192,68153,1,0,0:0:0:0:
448,192,68153,1,0,0:0:0:0:
64,192,68153,1,0,0:0:0:0:
192,192,68245,1,0,0:0:0:0:
448,192,68245,1,0,0:0:0:0:
192,192,68336,1,0,0:0:0:0:
320,192,68336,1,0,0:0:0:0:
448,192,68428,1,0,0:0:0:0:
64,192,68428,1,0,0:0:0:0:
64,192,68520,1,0,0:0:0:0:
192,192,68520,1,0,0:0:0:0:
320,192,68611,1,0,0:0:0:0:
448,192,68611,1,0,0:0:0:0:
448,192,68703,1,0,0:0:0:0:
64,192,68703,1,0,0:0:0:0:
192,192,68703,1,0,0:0:0:0:
64,192,68794,1,0,0:0:0:0:
320,192,68794,1,0,0:0:0:0:
192,192,68886,1,0,0:0:0:0:
320,192,68886,1,0,0:0:0:0:
64,192,68977,1,0,0:0:0:0:
448,192,68977,1,0,0:0:0:0:
64,192,69069,1,0,0:0:0:0:
192,192,69069,1,0,0:0:0:0:
320,192,69160,1,0,0:0:0:0:
192,192,69160,1,0,0:0:0:0:
448,192,69160,1,0,0:0:0:0:
64,192,69252,1,0,0:0:0:0:
448,192,69252,1,0,0:0:0:0:
320,192,69526,1,0,0:0:0:0:
192,192,69526,1,0,0:0:0:0:
320,192,69802,1,0,0:0:0:0:
64,192,69802,1,0,0:0:0:0:
448,192,69802,1,0,0:0:0:0:
192,192,70076,1,0,0:0:0:0:
64,192,70076,1,0,0:0:0:0:
320,192,70168,1,0,0:0:0:0:
448,192,70168,1,0,0:0:0:0:
192,192,70260,1,0,0:0:0:0:
64,192,70260,1,0,0:0:0:0:
64,192,70351,1,0,0:0:0:0:
448,192,70351,1,0,0:0:0:0:
320,192,70351,1,0,0:0:0:0:
320,192,70443,1,0,0:0:0:0:
192,192,70443,1,0,0:0:0:0:
64,192,70534,1,0,0:0:0:0:
448,192,70534,1,0,0:0:0:0:
448,192,70626,1,0,0:0:0:0:
192,192,70626,1,0,0:0:0:0:
320,192,70717,1,0,0:0:0:0:
192,192,70717,1,0,0:0:0:0:
64,192,70809,1,0,0:0:0:0:
320,192,70809,1,0,0:0:0:0:
192,192,70900,1,0,0:0:0:0:
64,192,70900,1,0,0:0:0:0:
448,192,70900,1,0,0:0:0:0:
448,192,70992,1,0,0:0:0:0:
320,192,70992,1,0,0:0:0:0:
64,192,71083,1,0,0:0:0:0:
320,192,71083,1,0,0:0:0:0:
64,192,71175,1,0,0:0:0:0:
192,192,71175,1,0,0:0:0:0:
448,192,71266,1,0,0:0:0:0:
192,192,71266,1,0,0:0:0:0:
64,192,71358,1,0,0:0:0:0:
448,192,71358,1,0,0:0:0:0:
320,192,71358,1,0,0:0:0:0:
64,192,71450,1,0,0:0:0:0:
320,192,71450,1,0,0:0:0:0:
192,192,71450,1,0,0:0:0:0:
448,192,71542,1,0,0:0:0:0:
192,192,71542,1,0,0:0:0:0:
320,192,71633,1,0,0:0:0:0:
64,192,71633,1,0,0:0:0:0:
192,192,71725,1,0,0:0:0:0:
448,192,71725,1,0,0:0:0:0:
320,192,71725,1,0,0:0:0:0:
192,192,71816,1,0,0:0:0:0:
64,192,71816,1,0,0:0:0:0:
320,192,71908,1,0,0:0:0:0:
64,192,71908,1,0,0:0:0:0:
448,192,71908,1,0,0:0:0:0:
192,192,72000,1,0,0:0:0:0:
320,192,72000,1,0,0:0:0:0:
448,192,72000,1,0,0:0:0:0:
64,192,72091,1,0,0:0:0:0:
192,192,72091,1,0,0:0:0:0:
448,192,72183,1,0,0:0:0:0:
64,192,72183,1,0,0:0:0:0:
192,192,72274,1,0,0:0:0:0:
448,192,72274,1,0,0:0:0:0:
192,192,72366,1,0,0:0:0:0:
320,192,72366,1,0,0:0:0:0:
64,192,72457,1,0,0:0:0:0:
320,192,72457,1,0,0:0:0:0:
64,192,72549,1,0,0:0:0:0:
192,192,72549,1,0,0:0:0:0:
448,192,72549,1,0,0:0:0:0:
320,192,72640,1,0,0:0:0:0:
192,192,72640,1,0,0:0:0:0:
64,192,72732,1,0,0:0:0:0:
448,192,72732,1,0,0:0:0:0:
448,192,72823,1,0,0:0:0:0:
320,192,72823,1,0,0:0:0:0:
64,192,72915,1,0,0:0:0:0:
192,192,72915,1,0,0:0:0:0:
320,192,73006,1,0,0:0:0:0:
192,192,73006,1,0,0:0:0:0:
64,192,73098,1,0,0:0:0:0:
320,192,73098,1,0,0:0:0:0:
448,192,73098,1,0,0:0:0:0:
192,192,73190,1,0,0:0:0:0:
448,192,73190,1,0,0:0:0:0:
64,192,73281,1,0,0:0:0:0:
320,192,73281,1,0,0:0:0:0:
448,192,73373,1,0,0:0:0:0:
64,192,73373,1,0,0:0:0:0:
320,192,73465,1,0,0:0:0:0:
192,192,73465,1,0,0:0:0:0:
64,192,73556,1,0,0:0:0:0:
448,192,73556,1,0,0:0:0:0:
192,192,73556,1,0,0:0:0:0:
448,192,73648,1,0,0:0:0:0:
320,192,73648,1,0,0:0:0:0:
64,192,73740,1,0,0:0:0:0:
448,192,73740,1,0,0:0:0:0:
64,192,73831,1,0,0:0:0:0:
192,192,73831,1,0,0:0:0:0:
192,192,73923,1,0,0:0:0:0:
448,192,73923,1,0,0:0:0:0:
320,192,73923,1,0,0:0:0:0:
448,192,74014,1,0,0:0:0:0:
64,192,74014,1,0,0:0:0:0:
320,192,74106,1,0,0:0:0:0:
192,192,74106,1,0,0:0:0:0:
192,192,74197,1,0,0:0:0:0:
64,192,74197,1,0,0:0:0:0:
448,192,74197,1,0,0:0:0:0:
320,192,74289,1,0,0:0:0:0:
448,192,74289,1,0,0:0:0:0:
320,192,74380,1,0,0:0:0:0:
64,192,74380,1,0,0:0:0:0:
192,192,74472,1,0,0:0:0:0:
64,192,74472,1,0,0:0:0:0:
320,192,74563,1,0,0:0:0:0:
448,192,74563,1,0,0:0:0:0:
448,192,74655,1,0,0:0:0:0:
64,192,74655,1,0,0:0:0:0:
64,192,74746,1,0,0:0:0:0:
192,192,74746,1,0,0:0:0:0:
320,192,74746,1,0,0:0:0:0:
448,192,74838,1,0,0:0:0:0:
320,192,74838,1,0,0:0:0:0:
192,192,74930,1,0,0:0:0:0:
448,192,74930,1,0,0:0:0:0:
320,192,75021,1,0,0:0:0:0:
64,192,75021,1,0,0:0:0:0:
320,192,75113,1,0,0:0:0:0:
448,192,75113,1,0,0:0:0:0:
64,192,75204,1,0,0:0:0:0:
192,192,75204,1,0,0:0:0:0:
192,192,75296,1,0,0:0:0:0:
448,192,75296,1,0,0:0:0:0:
320,192,75296,1,0,0:0:0:0:
448,192,75388,1,0,0:0:0:0:
64,192,75388,1,0,0:0:0:0:
320,192,75480,1,0,0:0:0:0:
64,192,75480,1,0,0:0:0:0:
320,192,75571,1,0,0:0:0:0:
192,192,75571,1,0,0:0:0:0:
448,192,75663,1,0,0:0:0:0:
64,192,75663,1,0,0:0:0:0:
192,192,75754,1,0,0:0:0:0:
448,192,75754,1,0,0:0:0:0:
320,192,75754,1,0,0:0:0:0:
192,192,75846,1,0,0:0:0:0:
320,192,75846,1,0,0:0:0:0:
64,192,75846,1,0,0:0:0:0:
64,192,75937,1,0,0:0:0:0:
448,192,75937,1,0,0:0:0:0:
448,192,76029,1,0,0:0:0:0:
320,192,76029,1,0,0:0:0:0:
64,192,76120,1,0,0:0:0:0:
320,192,76120,1,0,0:0:0:0:
192,192,76120,1,0,0:0:0:0:
448,192,76212,1,0,0:0:0:0:
64,192,76212,1,0,0:0:0:0:
192,192,76303,1,0,0:0:0:0:
320,192,76303,1,0,0:0:0:0:
448,192,76303,1,0,0:0:0:0:
64,192,76395,1,0,0:0:0:0:
320,192,76395,1,0,0:0:0:0:
192,192,76395,1,0,0:0:0:0:
448,192,76486,1,0,0:0:0:0:
64,192,76486,1,0,0:0:0:0:
192,192,76578,1,0,0:0:0:0:
320,192,76578,1,0,0:0:0:0:
192,192,76670,1,0,0:0:0:0:
448,192,76670,1,0,0:0:0:0:
320,192,76761,1,0,0:0:0:0:
64,192,76761,1,0,0:0:0:0:
64,192,76853,1,0,0:0:0:0:
448,192,76853,1,0,0:0:0:0:
192,192,76944,1,0,0:0:0:0:
320,192,76944,1,0,0:0:0:0:
448,192,76944,1,0,0:0:0:0:
192,192,77036,1,0,0:0:0:0:
64,192,77036,1,0,0:0:0:0:
64,192,77127,1,0,0:0:0:0:
448,192,77127,1,0,0:0:0:0:
192,192,77219,1,0,0:0:0:0:
320,192,77219,1,0,0:0:0:0:
448,192,77311,1,0,0:0:0:0:
320,192,77311,1,0,0:0:0:0:
192,192,77403,1,0,0:0:0:0:
64,192,77403,1,0,0:0:0:0:
64,192,77494,1,0,0:0:0:0:
448,192,77494,1,0,0:0:0:0:
320,192,77494,1,0,0:0:0:0:
448,192,77586,1,0,0:0:0:0:
192,192,77586,1,0,0:0:0:0:
320,192,77677,1,0,0:0:0:0:
192,192,77677,1,0,0:0:0:0:
448,192,77769,1,0,0:0:0:0:
64,192,77769,1,0,0:0:0:0:
448,192,77860,1,0,0:0:0:0:
320,192,77860,1,0,0:0:0:0:
192,192,77952,1,0,0:0:0:0:
320,192,77952,1,0,0:0:0:0:
64,192,77952,1,0,0:0:0:0:
448,192,78043,1,0,0:0:0:0:
64,192,78043,1,0,0:0:0:0:
320,192,78318,1,0,0:0:0:0:
448,192,78318,1,0,0:0:0:0:
64,192,78593,1,0,0:0:0:0:
192,192,78593,1,0,0:0:0:0:
448,192,78593,1,0,0:0:0:0:
448,192,78867,1,0,0:0:0:0:
64,192,78867,1,0,0:0:0:0:
192,192,78959,1,0,0:0:0:0:
320,192,78959,1,0,0:0:0:0:
64,192,79050,1,0,0:0:0:0:
448,192,79050,1,0,0:0:0:0:
192,192,79142,1,0,0:0:0:0:
320,192,79142,128,0,79509:0:0:0:0:
448,192,79509,1,0,0:0:0:0:
64,192,79577,128,0,79920:0:0:0:0:
192,192,79577,1,0,0:0:0:0:
320,192,79920,1,0,0:0:0:0:
448,192,79990,128,0,80058:0:0:0:0:
448,192,80126,128,0,80196:0:0:0:0:
64,192,80813,128,0,81088:0:0:0:0:
448,192,81088,128,0,81340:0:0:0:0:
192,192,81340,1,0,0:0:0:0:
64,192,81340,128,0,81706:0:0:0:0:
320,192,81340,1,0,0:0:0:0:
448,192,81706,1,0,0:0:0:0:
192,192,81775,128,0,82119:0:0:0:0:
448,192,82119,1,0,0:0:0:0:
320,192,82187,128,0,82256:0:0:0:0:
320,192,82324,128,0,82393:0:0:0:0:
192,192,82439,1,0,0:0:0:0:
64,192,82439,1,0,0:0:0:0:
448,192,83011,128,0,83286:0:0:0:0:
64,192,83286,128,0,83538:0:0:0:0:
320,192,83538,128,0,83881:0:0:0:0:
192,192,83538,1,0,0:0:0:0:
448,192,83538,1,0,0:0:0:0:
64,192,83881,1,0,0:0:0:0:
448,192,83973,128,0,84316:0:0:0:0:
64,192,84316,1,0,0:0:0:0:
192,192,84385,128,0,84453:0:0:0:0:
192,192,84523,128,0,84591:0:0:0:0:
64,192,85209,128,0,85484:0:0:0:0:
448,192,85484,128,0,85736:0:0:0:0:
192,192,85736,128,0,86102:0:0:0:0:
64,192,85736,1,0,0:0:0:0:
320,192,85736,1,0,0:0:0:0:
64,192,86102,1,0,0:0:0:0:
320,192,86170,128,0,86514:0:0:0:0:
448,192,86514,1,0,0:0:0:0:
64,192,86583,128,0,86651:0:0:0:0:
64,192,86720,128,0,86789:0:0:0:0:
320,192,86834,1,0,0:0:0:0:
448,192,86834,128,0,87865:0:0:0:0:
320,192,87178,128,0,87865:0:0:0:0:
192,192,87453,128,0,87865:0:0:0:0:
64,192,87727,128,0,87865:0:0:0:0:
192,192,87933,128,0,88140:0:0:0:0:
64,192,87933,128,0,88140:0:0:0:0:
320,192,87933,128,0,88140:0:0:0:0:
448,192,87933,128,0,88140:0:0:0:0:
64,192,88208,128,0,88757:0:0:0:0:
448,192,88208,1,0,0:0:0:0:
192,192,88276,128,0,88757:0:0:0:0:
320,192,88346,1,0,0:0:0:0:
448,192,88483,1,0,0:0:0:0:
320,192,88483,1,0,0:0:0:0:
448,192,88620,1,0,0:0:0:0:
320,192,88757,1,0,0:0:0:0:
448,192,88757,1,0,0:0:0:0:
192,192,88895,1,0,0:0:0:0:
320,192,88963,1,0,0:0:0:0:
448,192,89033,1,0,0:0:0:0:
64,192,89170,1,0,0:0:0:0:
192,192,89170,1,0,0:0:0:0:
320,192,89307,1,0,0:0:0:0:
448,192,89307,128,0,89444:0:0:0:0:
64,192,89444,1,0,0:0:0:0:
320,192,89582,1,0,0:0:0:0:
448,192,89582,1,0,0:0:0:0:
192,192,89719,1,0,0:0:0:0:
64,192,89856,1,0,0:0:0:0:
320,192,89994,1,0,0:0:0:0:
448,192,90131,1,0,0:0:0:0:
64,192,90131,1,0,0:0:0:0:
192,192,90406,1,0,0:0:0:0:
320,192,90543,1,0,0:0:0:0:
192,192,90680,1,0,0:0:0:0:
448,192,90680,1,0,0:0:0:0:
64,192,90818,1,0,0:0:0:0:
448,192,90956,1,0,0:0:0:0:
320,192,91024,1,0,0:0:0:0:
192,192,91093,1,0,0:0:0:0:
64,192,91093,1,0,0:0:0:0:
320,192,91161,1,0,0:0:0:0:
448,192,91230,1,0,0:0:0:0:
192,192,91367,1,0,0:0:0:0:
64,192,91367,1,0,0:0:0:0:
64,192,91505,1,0,0:0:0:0:
320,192,91505,1,0,0:0:0:0:
448,192,91642,1,0,0:0:0:0:
320,192,91780,1,0,0:0:0:0:
192,192,91780,1,0,0:0:0:0:
64,192,91917,1,0,0:0:0:0:
192,192,91986,1,0,0:0:0:0:
320,192,92054,1,0,0:0:0:0:
448,192,92054,128,0,92123:0:0:0:0:
192,192,92192,1,0,0:0:0:0:
320,192,92192,128,0,92260:0:0:0:0:
448,192,92329,1,0,0:0:0:0:
64,192,92329,1,0,0:0:0:0:
192,192,92466,1,0,0:0:0:0:
320,192,92603,1,0,0:0:0:0:
64,192,92741,1,0,0:0:0:0:
448,192,92879,1,0,0:0:0:0:
320,192,92879,1,0,0:0:0:0:
192,192,93016,1,0,0:0:0:0:
64,192,93153,1,0,0:0:0:0:
448,192,93153,1,0,0:0:0:0:
320,192,93222,1,0,0:0:0:0:
192,192,93290,1,0,0:0:0:0:
448,192,93360,1,0,0:0:0:0:
64,192,93428,1,0,0:0:0:0:
320,192,93428,1,0,0:0:0:0:
64,192,93565,1,0,0:0:0:0:
192,192,93565,1,0,0:0:0:0:
320,192,93703,1,0,0:0:0:0:
448,192,93703,128,0,93840:0:0:0:0:
192,192,93840,1,0,0:0:0:0:
64,192,93977,1,0,0:0:0:0:
320,192,93977,1,0,0:0:0:0:
448,192,94115,1,0,0:0:0:0:
192,192,94252,1,0,0:0:0:0:
320,192,94390,1,0,0:0:0:0:
64,192,94526,1,0,0:0:0:0:
192,192,94526,1,0,0:0:0:0:
320,192,94802,1,0,0:0:0:0:
64,192,94939,1,0,0:0:0:0:
192,192,95076,1,0,0:0:0:0:
448,192,95076,1,0,0:0:0:0:
64,192,95213,1,0,0:0:0:0:
320,192,95351,1,0,0:0:0:0:
192,192,95420,1,0,0:0:0:0:
448,192,95488,1,0,0:0:0:0:
64,192,95488,1,0,0:0:0:0:
320,192,95557,1,0,0:0:0:0:
192,192,95626,1,0,0:0:0:0:
448,192,95763,1,0,0:0:0:0:
64,192,95763,1,0,0:0:0:0:
448,192,95900,1,0,0:0:0:0:
320,192,95900,1,0,0:0:0:0:
192,192,96038,1,0,0:0:0:0:
320,192,96175,1,0,0:0:0:0:
64,192,96175,1,0,0:0:0:0:
448,192,96313,1,0,0:0:0:0:
192,192,96450,1,0,0:0:0:0:
320,192,96587,1,0,0:0:0:0:
192,192,96725,1,0,0:0:0:0:
64,192,96725,1,0,0:0:0:0:
448,192,96725,1,0,0:0:0:0:
320,192,96862,1,0,0:0:0:0:
64,192,97000,1,0,0:0:0:0:
448,192,97136,1,0,0:0:0:0:
192,192,97274,1,0,0:0:0:0:
64,192,97274,1,0,0:0:0:0:
320,192,97411,1,0,0:0:0:0:
448,192,97549,1,0,0:0:0:0:
64,192,97549,1,0,0:0:0:0:
192,192,97617,1,0,0:0:0:0:
320,192,97686,1,0,0:0:0:0:
64,192,97755,1,0,0:0:0:0:
192,192,97823,1,0,0:0:0:0:
448,192,97961,1,0,0:0:0:0:
320,192,97961,1,0,0:0:0:0:
64,192,98098,1,0,0:0:0:0:
448,192,98098,128,0,98236:0:0:0:0:
192,192,98236,1,0,0:0:0:0:
448,192,98373,1,0,0:0:0:0:
320,192,98373,1,0,0:0:0:0:
192,192,98510,1,0,0:0:0:0:
448,192,98648,1,0,0:0:0:0:
320,192,98785,1,0,0:0:0:0:
192,192,98923,1,0,0:0:0:0:
64,192,98923,1,0,0:0:0:0:
448,192,99197,1,0,0:0:0:0:
192,192,99334,1,0,0:0:0:0:
64,192,99472,1,0,0:0:0:0:
448,192,99472,1,0,0:0:0:0:
320,192,99610,1,0,0:0:0:0:
192,192,99746,1,0,0:0:0:0:
64,192,99815,1,0,0:0:0:0:
320,192,99884,1,0,0:0:0:0:
448,192,99884,1,0,0:0:0:0:
192,192,99953,1,0,0:0:0:0:
64,192,100021,1,0,0:0:0:0:
320,192,100159,1,0,0:0:0:0:
448,192,100159,1,0,0:0:0:0:
64,192,100296,1,0,0:0:0:0:
320,192,100296,1,0,0:0:0:0:
192,192,100433,1,0,0:0:0:0:
448,192,100571,1,0,0:0:0:0:
64,192,100571,1,0,0:0:0:0:
320,192,100708,1,0,0:0:0:0:
192,192,100846,1,0,0:0:0:0:
448,192,100846,128,0,100914:0:0:0:0:
320,192,100983,1,0,0:0:0:0:
64,192,100983,128,0,101052:0:0:0:0:
448,192,101120,1,0,0:0:0:0:
192,192,101120,1,0,0:0:0:0:
64,192,101395,1,0,0:0:0:0:
448,192,101533,1,0,0:0:0:0:
320,192,101670,1,0,0:0:0:0:
64,192,101670,1,0,0:0:0:0:
192,192,101807,1,0,0:0:0:0:
320,192,101944,1,0,0:0:0:0:
448,192,101944,1,0,0:0:0:0:
64,192,102013,1,0,0:0:0:0:
192,192,102082,1,0,0:0:0:0:
448,192,102219,1,0,0:0:0:0:
320,192,102356,1,0,0:0:0:0:
64,192,102356,1,0,0:0:0:0:
64,192,102494,1,0,0:0:0:0:
448,192,102494,128,0,102631:0:0:0:0:
320,192,102769,1,0,0:0:0:0:
64,192,102769,1,0,0:0:0:0:
192,192,102906,1,0,0:0:0:0:
448,192,103043,1,0,0:0:0:0:
320,192,103180,1,0,0:0:0:0:
64,192,103318,1,0,0:0:0:0:
448,192,103318,1,0,0:0:0:0:
192,192,103593,1,0,0:0:0:0:
64,192,103730,1,0,0:0:0:0:
320,192,103867,1,0,0:0:0:0:
448,192,103867,1,0,0:0:0:0:
192,192,104005,1,0,0:0:0:0:
448,192,104142,1,0,0:0:0:0:
192,192,104280,1,0,0:0:0:0:
64,192,104280,1,0,0:0:0:0:
320,192,104348,1,0,0:0:0:0:
448,192,104417,1,0,0:0:0:0:
192,192,104554,1,0,0:0:0:0:
64,192,104554,1,0,0:0:0:0:
64,192,104692,5,0,0:0:0:0:
448,192,104692,1,0,0:0:0:0:
320,192,104829,1,0,0:0:0:0:
448,192,104966,1,0,0:0:0:0:
64,192,104966,1,0,0:0:0:0:
192,192,105103,1,0,0:0:0:0:
320,192,105241,1,0,0:0:0:0:
64,192,105379,1,0,0:0:0:0:
448,192,105516,1,0,0:0:0:0:
320,192,105516,1,0,0:0:0:0:
448,192,105653,1,0,0:0:0:0:
448,192,105790,1,0,0:0:0:0:
448,192,105928,1,0,0:0:0:0:
448,192,106065,1,0,0:0:0:0:
448,192,106203,1,0,0:0:0:0:
448,192,106340,1,0,0:0:0:0:
448,192,106477,1,0,0:0:0:0:
448,192,106615,1,0,0:0:0:0:
64,192,106615,128,0,106683:0:0:0:0:
448,192,106752,1,0,0:0:0:0:
448,192,106890,1,0,0:0:0:0:
192,192,106890,128,0,107026:0:0:0:0:
448,192,107026,1,0,0:0:0:0:
448,192,107164,1,0,0:0:0:0:
448,192,107302,1,0,0:0:0:0:
64,192,107302,128,0,107370:0:0:0:0:
448,192,107439,1,0,0:0:0:0:
448,192,107576,1,0,0:0:0:0:
320,192,107713,1,0,0:0:0:0:
320,192,107851,1,0,0:0:0:0:
320,192,107988,1,0,0:0:0:0:
320,192,108126,1,0,0:0:0:0:
320,192,108263,1,0,0:0:0:0:
320,192,108400,1,0,0:0:0:0:
320,192,108538,1,0,0:0:0:0:
320,192,108675,1,0,0:0:0:0:
320,192,108813,1,0,0:0:0:0:
448,192,108813,128,0,108881:0:0:0:0:
320,192,108950,1,0,0:0:0:0:
320,192,109087,1,0,0:0:0:0:
64,192,109087,128,0,109225:0:0:0:0:
320,192,109225,1,0,0:0:0:0:
320,192,109362,1,0,0:0:0:0:
320,192,109500,1,0,0:0:0:0:
448,192,109500,128,0,109568:0:0:0:0:
320,192,109636,1,0,0:0:0:0:
320,192,109774,1,0,0:0:0:0:
192,192,109911,1,0,0:0:0:0:
192,192,110049,1,0,0:0:0:0:
192,192,110186,1,0,0:0:0:0:
192,192,110323,1,0,0:0:0:0:
192,192,110461,1,0,0:0:0:0:
192,192,110598,1,0,0:0:0:0:
192,192,110736,1,0,0:0:0:0:
192,192,110873,1,0,0:0:0:0:
192,192,111010,1,0,0:0:0:0:
64,192,111010,128,0,111079:0:0:0:0:
192,192,111148,1,0,0:0:0:0:
192,192,111285,1,0,0:0:0:0:
448,192,111285,128,0,111423:0:0:0:0:
192,192,111423,1,0,0:0:0:0:
192,192,111560,1,0,0:0:0:0:
192,192,111697,1,0,0:0:0:0:
320,192,111697,128,0,111766:0:0:0:0:
192,192,111834,1,0,0:0:0:0:
192,192,111972,1,0,0:0:0:0:
64,192,112110,1,0,0:0:0:0:
64,192,112246,1,0,0:0:0:0:
64,192,112384,1,0,0:0:0:0:
64,192,112521,1,0,0:0:0:0:
64,192,112659,1,0,0:0:0:0:
64,192,112796,1,0,0:0:0:0:
64,192,112933,1,0,0:0:0:0:
64,192,113071,1,0,0:0:0:0:
64,192,113208,1,0,0:0:0:0:
192,192,113208,128,0,113276:0:0:0:0:
64,192,113346,1,0,0:0:0:0:
64,192,113483,1,0,0:0:0:0:
448,192,113483,128,0,113620:0:0:0:0:
64,192,113620,1,0,0:0:0:0:
64,192,113757,1,0,0:0:0:0:
64,192,113895,1,0,0:0:0:0:
320,192,113895,128,0,113963:0:0:0:0:
64,192,114033,1,0,0:0:0:0:
64,192,114170,1,0,0:0:0:0:
64,192,114307,1,0,0:0:0:0:
192,192,114307,1,0,0:0:0:0:
448,192,114307,1,0,0:0:0:0:
192,192,114444,1,0,0:0:0:0:
192,192,114582,1,0,0:0:0:0:
320,192,114582,1,0,0:0:0:0:
192,192,114719,1,0,0:0:0:0:
192,192,114856,1,0,0:0:0:0:
64,192,114856,1,0,0:0:0:0:
192,192,114994,1,0,0:0:0:0:
192,192,115131,1,0,0:0:0:0:
320,192,115131,1,0,0:0:0:0:
192,192,115269,1,0,0:0:0:0:
192,192,115406,1,0,0:0:0:0:
448,192,115406,1,0,0:0:0:0:
64,192,115406,128,0,115475:0:0:0:0:
192,192,115543,1,0,0:0:0:0:
192,192,115680,1,0,0:0:0:0:
64,192,115680,1,0,0:0:0:0:
448,192,115680,128,0,115818:0:0:0:0:
192,192,115818,1,0,0:0:0:0:
192,192,115956,1,0,0:0:0:0:
320,192,115956,1,0,0:0:0:0:
192,192,116093,1,0,0:0:0:0:
64,192,116093,128,0,116161:0:0:0:0:
448,192,116230,1,0,0:0:0:0:
192,192,116230,1,0,0:0:0:0:
192,192,116367,1,0,0:0:0:0:
320,192,116505,1,0,0:0:0:0:
448,192,116505,1,0,0:0:0:0:
448,192,116642,1,0,0:0:0:0:
448,192,116780,1,0,0:0:0:0:
192,192,116780,1,0,0:0:0:0:
448,192,116917,1,0,0:0:0:0:
448,192,117054,1,0,0:0:0:0:
64,192,117054,1,0,0:0:0:0:
448,192,117192,1,0,0:0:0:0:
192,192,117329,1,0,0:0:0:0:
448,192,117329,1,0,0:0:0:0:
448,192,117466,1,0,0:0:0:0:
320,192,117603,128,0,117673:0:0:0:0:
64,192,117603,1,0,0:0:0:0:
448,192,117603,1,0,0:0:0:0:
448,192,117741,1,0,0:0:0:0:
448,192,117879,1,0,0:0:0:0:
192,192,117879,1,0,0:0:0:0:
64,192,117879,128,0,118016:0:0:0:0:
448,192,118016,1,0,0:0:0:0:
192,192,118153,1,0,0:0:0:0:
448,192,118153,1,0,0:0:0:0:
320,192,118290,128,0,118360:0:0:0:0:
448,192,118290,1,0,0:0:0:0:
64,192,118428,1,0,0:0:0:0:
448,192,118428,1,0,0:0:0:0:
448,192,118565,1,0,0:0:0:0:
64,192,118703,1,0,0:0:0:0:
192,192,118703,1,0,0:0:0:0:
64,192,118840,1,0,0:0:0:0:
320,192,118977,1,0,0:0:0:0:
64,192,118977,1,0,0:0:0:0:
64,192,119115,1,0,0:0:0:0:
64,192,119252,1,0,0:0:0:0:
448,192,119252,1,0,0:0:0:0:
64,192,119390,1,0,0:0:0:0:
192,192,119526,1,0,0:0:0:0:
64,192,119526,1,0,0:0:0:0:
64,192,119664,1,0,0:0:0:0:
448,192,119802,1,0,0:0:0:0:
64,192,119802,1,0,0:0:0:0:
320,192,119802,128,0,119870:0:0:0:0:
64,192,119939,1,0,0:0:0:0:
64,192,120076,1,0,0:0:0:0:
192,192,120076,1,0,0:0:0:0:
448,192,120076,128,0,120213:0:0:0:0:
64,192,120213,1,0,0:0:0:0:
64,192,120351,1,0,0:0:0:0:
320,192,120351,1,0,0:0:0:0:
64,192,120488,1,0,0:0:0:0:
192,192,120488,128,0,120557:0:0:0:0:
448,192,120626,1,0,0:0:0:0:
64,192,120626,1,0,0:0:0:0:
64,192,120763,1,0,0:0:0:0:
320,192,120900,1,0,0:0:0:0:
192,192,120900,1,0,0:0:0:0:
320,192,121038,1,0,0:0:0:0:
320,192,121175,1,0,0:0:0:0:
448,192,121175,1,0,0:0:0:0:
320,192,121313,1,0,0:0:0:0:
64,192,121450,1,0,0:0:0:0:
320,192,121450,1,0,0:0:0:0:
320,192,121587,1,0,0:0:0:0:
192,192,121725,1,0,0:0:0:0:
320,192,121725,1,0,0:0:0:0:
320,192,121862,1,0,0:0:0:0:
320,192,122000,1,0,0:0:0:0:
64,192,122000,1,0,0:0:0:0:
448,192,122000,128,0,122068:0:0:0:0:
320,192,122136,1,0,0:0:0:0:
448,192,122274,1,0,0:0:0:0:
320,192,122274,1,0,0:0:0:0:
64,192,122274,128,0,122411:0:0:0:0:
320,192,122411,1,0,0:0:0:0:
192,192,122549,1,0,0:0:0:0:
320,192,122549,1,0,0:0:0:0:
320,192,122686,1,0,0:0:0:0:
448,192,122686,128,0,122755:0:0:0:0:
320,192,122823,1,0,0:0:0:0:
64,192,122823,1,0,0:0:0:0:
320,192,122961,1,0,0:0:0:0:
448,192,123098,128,0,123465:0:0:0:0:
192,192,123098,1,0,0:0:0:0:
64,192,123098,1,0,0:0:0:0:
192,192,123373,1,0,0:0:0:0:
320,192,123465,1,0,0:0:0:0:
64,192,123533,128,0,123876:0:0:0:0:
448,192,123648,1,0,0:0:0:0:
192,192,123876,1,0,0:0:0:0:
320,192,123923,1,0,0:0:0:0:
448,192,123946,128,0,124014:0:0:0:0:
448,192,124083,128,0,124151:0:0:0:0:
64,192,124197,1,0,0:0:0:0:
320,192,124220,128,0,124426:0:0:0:0:
448,192,124472,1,0,0:0:0:0:
192,192,124495,128,0,124701:0:0:0:0:
64,192,124746,1,0,0:0:0:0:
448,192,124770,128,0,124976:0:0:0:0:
320,192,125021,1,0,0:0:0:0:
64,192,125044,128,0,125296:0:0:0:0:
320,192,125296,128,0,125663:0:0:0:0:
192,192,125296,1,0,0:0:0:0:
448,192,125296,1,0,0:0:0:0:
64,192,125571,1,0,0:0:0:0:
448,192,125663,1,0,0:0:0:0:
192,192,125731,128,0,126074:0:0:0:0:
320,192,125846,1,0,0:0:0:0:
64,192,126074,1,0,0:0:0:0:
448,192,126120,1,0,0:0:0:0:
320,192,126143,128,0,126212:0:0:0:0:
320,192,126280,128,0,126350:0:0:0:0:
448,192,126395,1,0,0:0:0:0:
192,192,126395,1,0,0:0:0:0:
64,192,126418,128,0,126624:0:0:0:0:
320,192,126670,1,0,0:0:0:0:
192,192,126693,128,0,126899:0:0:0:0:
64,192,126944,1,0,0:0:0:0:
448,192,126967,128,0,127173:0:0:0:0:
320,192,127219,1,0,0:0:0:0:
64,192,127242,128,0,127494:0:0:0:0:
320,192,127494,1,0,0:0:0:0:
192,192,127494,128,0,127860:0:0:0:0:
448,192,127494,1,0,0:0:0:0:
64,192,127769,1,0,0:0:0:0:
320,192,127860,1,0,0:0:0:0:
448,192,127929,128,0,128273:0:0:0:0:
64,192,128043,1,0,0:0:0:0:
192,192,128273,1,0,0:0:0:0:
320,192,128318,1,0,0:0:0:0:
64,192,128341,128,0,128410:0:0:0:0:
64,192,128478,128,0,128547:0:0:0:0:
448,192,128593,1,0,0:0:0:0:
320,192,128616,128,0,128822:0:0:0:0:
192,192,128867,1,0,0:0:0:0:
64,192,128890,128,0,129096:0:0:0:0:
448,192,129142,1,0,0:0:0:0:
192,192,129165,128,0,129371:0:0:0:0:
64,192,129417,1,0,0:0:0:0:
448,192,129440,128,0,129692:0:0:0:0:
64,192,129692,128,0,130058:0:0:0:0:
320,192,129692,1,0,0:0:0:0:
192,192,129692,1,0,0:0:0:0:
192,192,129966,1,0,0:0:0:0:
448,192,130058,1,0,0:0:0:0:
320,192,130126,128,0,130470:0:0:0:0:
64,192,130241,1,0,0:0:0:0:
64,192,130470,1,0,0:0:0:0:
448,192,130516,1,0,0:0:0:0:
192,192,130539,128,0,130607:0:0:0:0:
192,192,130676,128,0,130745:0:0:0:0:
320,192,130790,1,0,0:0:0:0:
448,192,130813,128,0,131020:0:0:0:0:
192,192,131065,1,0,0:0:0:0:
64,192,131088,128,0,131294:0:0:0:0:
448,192,131340,1,0,0:0:0:0:
320,192,131363,128,0,131569:0:0:0:0:
192,192,131615,1,0,0:0:0:0:
64,192,131638,128,0,131890:0:0:0:0:
448,192,131890,1,0,0:0:0:0:
320,192,131890,1,0,0:0:0:0:
192,192,132026,1,0,0:0:0:0:
64,192,132096,1,0,0:0:0:0:
320,192,132164,1,0,0:0:0:0:
448,192,132164,1,0,0:0:0:0:
192,192,132302,1,0,0:0:0:0:
448,192,132439,1,0,0:0:0:0:
64,192,132439,1,0,0:0:0:0:
192,192,132645,1,0,0:0:0:0:
320,192,132713,1,0,0:0:0:0:
448,192,132713,1,0,0:0:0:0:
64,192,132851,1,0,0:0:0:0:
192,192,132988,1,0,0:0:0:0:
320,192,132988,1,0,0:0:0:0:
448,192,133194,1,0,0:0:0:0:
64,192,133263,1,0,0:0:0:0:
320,192,133263,1,0,0:0:0:0:
192,192,133400,1,0,0:0:0:0:
448,192,133538,1,0,0:0:0:0:
64,192,133538,1,0,0:0:0:0:
320,192,133675,1,0,0:0:0:0:
192,192,133744,1,0,0:0:0:0:
448,192,133813,1,0,0:0:0:0:
64,192,133813,1,0,0:0:0:0:
448,192,133950,1,0,0:0:0:0:
320,192,133950,1,0,0:0:0:0:
64,192,134087,1,0,0:0:0:0:
192,192,134087,1,0,0:0:0:0:
320,192,134225,1,0,0:0:0:0:
192,192,134293,1,0,0:0:0:0:
64,192,134362,1,0,0:0:0:0:
448,192,134362,1,0,0:0:0:0:
192,192,134500,1,0,0:0:0:0:
64,192,134636,1,0,0:0:0:0:
448,192,134636,1,0,0:0:0:0:
192,192,134843,1,0,0:0:0:0:
320,192,134911,1,0,0:0:0:0:
448,192,134911,1,0,0:0:0:0:
64,192,135049,1,0,0:0:0:0:
448,192,135186,1,0,0:0:0:0:
192,192,135186,1,0,0:0:0:0:
320,192,135323,1,0,0:0:0:0:
192,192,135392,1,0,0:0:0:0:
320,192,135461,1,0,0:0:0:0:
64,192,135461,1,0,0:0:0:0:
448,192,135598,1,0,0:0:0:0:
192,192,135736,1,0,0:0:0:0:
64,192,135736,1,0,0:0:0:0:
320,192,135873,1,0,0:0:0:0:
448,192,135873,1,0,0:0:0:0:
192,192,135942,1,0,0:0:0:0:
64,192,135942,1,0,0:0:0:0:
320,192,136010,1,0,0:0:0:0:
448,192,136010,1,0,0:0:0:0:
448,192,136148,1,0,0:0:0:0:
320,192,136148,1,0,0:0:0:0:
192,192,136216,1,0,0:0:0:0:
64,192,136216,1,0,0:0:0:0:
320,192,136285,1,0,0:0:0:0:
448,192,136285,1,0,0:0:0:0:
192,192,136353,1,0,0:0:0:0:
64,192,136423,1,0,0:0:0:0:
448,192,136423,1,0,0:0:0:0:
320,192,136491,1,0,0:0:0:0:
64,192,136560,1,0,0:0:0:0:
192,192,136560,1,0,0:0:0:0:
448,192,136629,1,0,0:0:0:0:
320,192,136697,1,0,0:0:0:0:
64,192,136697,1,0,0:0:0:0:
192,192,136766,1,0,0:0:0:0:
64,192,136834,1,0,0:0:0:0:
448,192,136834,1,0,0:0:0:0:
320,192,136903,1,0,0:0:0:0:
64,192,136972,1,0,0:0:0:0:
192,192,136972,1,0,0:0:0:0:
320,192,137040,1,0,0:0:0:0:
192,192,137110,1,0,0:0:0:0:
448,192,137110,1,0,0:0:0:0:
64,192,137178,1,0,0:0:0:0:
320,192,137246,1,0,0:0:0:0:
448,192,137246,1,0,0:0:0:0:
64,192,137315,1,0,0:0:0:0:
192,192,137384,1,0,0:0:0:0:
448,192,137384,1,0,0:0:0:0:
320,192,137453,1,0,0:0:0:0:
192,192,137521,1,0,0:0:0:0:
64,192,137521,1,0,0:0:0:0:
320,192,137590,1,0,0:0:0:0:
448,192,137659,1,0,0:0:0:0:
64,192,137659,1,0,0:0:0:0:
320,192,137727,1,0,0:0:0:0:
448,192,137796,1,0,0:0:0:0:
192,192,137796,1,0,0:0:0:0:
64,192,137865,1,0,0:0:0:0:
448,192,137933,1,0,0:0:0:0:
320,192,137933,1,0,0:0:0:0:
192,192,138002,1,0,0:0:0:0:
64,192,138071,1,0,0:0:0:0:
448,192,138071,1,0,0:0:0:0:
320,192,138140,1,0,0:0:0:0:
64,192,138208,1,0,0:0:0:0:
192,192,138208,1,0,0:0:0:0:
448,192,138276,1,0,0:0:0:0:
320,192,138346,1,0,0:0:0:0:
64,192,138346,1,0,0:0:0:0:
192,192,138414,1,0,0:0:0:0:
320,192,138483,1,0,0:0:0:0:
448,192,138483,1,0,0:0:0:0:
64,192,138517,1,0,0:0:0:0:
192,192,138552,1,0,0:0:0:0:
320,192,138586,1,0,0:0:0:0:
64,192,138620,1,0,0:0:0:0:
192,192,138655,1,0,0:0:0:0:
448,192,138689,1,0,0:0:0:0:
320,192,138723,1,0,0:0:0:0:
64,192,138757,1,0,0:0:0:0:
192,192,138792,1,0,0:0:0:0:
320,192,138826,1,0,0:0:0:0:
64,192,138860,1,0,0:0:0:0:
448,192,138895,1,0,0:0:0:0:
192,192,138930,1,0,0:0:0:0:
320,192,138963,1,0,0:0:0:0:
448,192,138998,1,0,0:0:0:0:
64,192,139033,1,0,0:0:0:0:
320,192,139066,1,0,0:0:0:0:
192,192,139101,1,0,0:0:0:0:
448,192,139136,1,0,0:0:0:0:
320,192,139170,1,0,0:0:0:0:
64,192,139204,1,0,0:0:0:0:
192,192,139238,1,0,0:0:0:0:
320,192,139273,1,0,0:0:0:0:
448,192,139307,1,0,0:0:0:0:
192,192,139341,1,0,0:0:0:0:
320,192,139376,1,0,0:0:0:0:
448,192,139410,1,0,0:0:0:0:
64,192,139444,1,0,0:0:0:0:
192,192,139479,1,0,0:0:0:0:
448,192,139513,1,0,0:0:0:0:
320,192,139547,1,0,0:0:0:0:
64,192,139582,1,0,0:0:0:0:
192,192,139582,1,0,0:0:0:0:
448,192,139616,1,0,0:0:0:0:
320,192,139650,1,0,0:0:0:0:
64,192,139685,1,0,0:0:0:0:
192,192,139719,1,0,0:0:0:0:
448,192,139719,1,0,0:0:0:0:
320,192,139753,1,0,0:0:0:0:
64,192,139788,1,0,0:0:0:0:
192,192,139822,1,0,0:0:0:0:
448,192,139856,1,0,0:0:0:0:
320,192,139856,1,0,0:0:0:0:
64,192,139891,1,0,0:0:0:0:
192,192,139925,1,0,0:0:0:0:
448,192,139960,1,0,0:0:0:0:
64,192,139994,1,0,0:0:0:0:
320,192,139994,1,0,0:0:0:0:
192,192,140028,1,0,0:0:0:0:
448,192,140063,1,0,0:0:0:0:
320,192,140097,1,0,0:0:0:0:
64,192,140131,1,0,0:0:0:0:
192,192,140131,1,0,0:0:0:0:
448,192,140406,1,0,0:0:0:0:
320,192,140406,1,0,0:0:0:0:
64,192,140497,1,0,0:0:0:0:
192,192,140497,1,0,0:0:0:0:
320,192,140589,1,0,0:0:0:0:
448,192,140589,1,0,0:0:0:0:
64,192,140680,1,0,0:0:0:0:
448,192,140680,1,0,0:0:0:0:
320,192,140680,1,0,0:0:0:0:
448,192,140773,1,0,0:0:0:0:
192,192,140773,1,0,0:0:0:0:
320,192,140864,1,0,0:0:0:0:
448,192,140864,1,0,0:0:0:0:
64,192,140956,1,0,0:0:0:0:
192,192,140956,1,0,0:0:0:0:
448,192,141047,1,0,0:0:0:0:
64,192,141047,1,0,0:0:0:0:
448,192,141139,1,0,0:0:0:0:
192,192,141139,1,0,0:0:0:0:
192,192,141230,1,0,0:0:0:0:
64,192,141230,1,0,0:0:0:0:
320,192,141230,1,0,0:0:0:0:
448,192,141322,1,0,0:0:0:0:
320,192,141322,1,0,0:0:0:0:
64,192,141413,1,0,0:0:0:0:
448,192,141413,1,0,0:0:0:0:
64,192,141505,1,0,0:0:0:0:
320,192,141505,1,0,0:0:0:0:
320,192,141596,1,0,0:0:0:0:
192,192,141596,1,0,0:0:0:0:
64,192,141688,1,0,0:0:0:0:
448,192,141688,1,0,0:0:0:0:
192,192,141688,1,0,0:0:0:0:
64,192,141780,1,0,0:0:0:0:
448,192,141780,1,0,0:0:0:0:
320,192,141780,1,0,0:0:0:0:
192,192,141871,1,0,0:0:0:0:
320,192,141871,1,0,0:0:0:0:
448,192,141963,1,0,0:0:0:0:
64,192,141963,1,0,0:0:0:0:
192,192,142054,1,0,0:0:0:0:
448,192,142054,1,0,0:0:0:0:
320,192,142054,1,0,0:0:0:0:
320,192,142146,1,0,0:0:0:0:
64,192,142146,1,0,0:0:0:0:
64,192,142237,1,0,0:0:0:0:
192,192,142237,1,0,0:0:0:0:
448,192,142237,1,0,0:0:0:0:
192,192,142329,1,0,0:0:0:0:
320,192,142329,1,0,0:0:0:0:
448,192,142329,1,0,0:0:0:0:
64,192,142420,1,0,0:0:0:0:
448,192,142420,1,0,0:0:0:0:
64,192,142512,1,0,0:0:0:0:
192,192,142512,1,0,0:0:0:0:
320,192,142603,1,0,0:0:0:0:
448,192,142603,1,0,0:0:0:0:
192,192,142696,1,0,0:0:0:0:
448,192,142696,1,0,0:0:0:0:
64,192,142787,1,0,0:0:0:0:
192,192,142787,1,0,0:0:0:0:
64,192,142879,1,0,0:0:0:0:
320,192,142879,1,0,0:0:0:0:
448,192,142879,1,0,0:0:0:0:
448,192,142970,1,0,0:0:0:0:
192,192,142970,1,0,0:0:0:0:
320,192,143062,1,0,0:0:0:0:
448,192,143062,1,0,0:0:0:0:
192,192,143153,1,0,0:0:0:0:
64,192,143153,1,0,0:0:0:0:
64,192,143245,1,0,0:0:0:0:
448,192,143245,1,0,0:0:0:0:
448,192,143336,1,0,0:0:0:0:
192,192,143336,1,0,0:0:0:0:
64,192,143428,1,0,0:0:0:0:
320,192,143428,1,0,0:0:0:0:
192,192,143428,1,0,0:0:0:0:
448,192,143520,1,0,0:0:0:0:
320,192,143520,1,0,0:0:0:0:
64,192,143611,1,0,0:0:0:0:
448,192,143611,1,0,0:0:0:0:
320,192,143703,1,0,0:0:0:0:
64,192,143703,1,0,0:0:0:0:
320,192,143794,1,0,0:0:0:0:
192,192,143794,1,0,0:0:0:0:
64,192,143886,1,0,0:0:0:0:
448,192,143886,1,0,0:0:0:0:
192,192,143886,1,0,0:0:0:0:
448,192,143977,1,0,0:0:0:0:
320,192,143977,1,0,0:0:0:0:
64,192,144069,1,0,0:0:0:0:
448,192,144069,1,0,0:0:0:0:
64,192,144160,1,0,0:0:0:0:
192,192,144160,1,0,0:0:0:0:
192,192,144252,1,0,0:0:0:0:
448,192,144252,1,0,0:0:0:0:
320,192,144252,1,0,0:0:0:0:
448,192,144343,1,0,0:0:0:0:
64,192,144343,1,0,0:0:0:0:
320,192,144435,1,0,0:0:0:0:
192,192,144435,1,0,0:0:0:0:
192,192,144526,1,0,0:0:0:0:
64,192,144526,1,0,0:0:0:0:
448,192,144526,1,0,0:0:0:0:
320,192,144619,1,0,0:0:0:0:
448,192,144619,1,0,0:0:0:0:
320,192,144710,1,0,0:0:0:0:
64,192,144710,1,0,0:0:0:0:
192,192,144802,1,0,0:0:0:0:
64,192,144802,1,0,0:0:0:0:
320,192,144893,1,0,0:0:0:0:
448,192,144893,1,0,0:0:0:0:
448,192,144985,1,0,0:0:0:0:
64,192,144985,1,0,0:0:0:0:
64,192,145076,1,0,0:0:0:0:
192,192,145076,1,0,0:0:0:0:
320,192,145076,1,0,0:0:0:0:
448,192,145168,1,0,0:0:0:0:
320,192,145168,1,0,0:0:0:0:
192,192,145260,1,0,0:0:0:0:
448,192,145260,1,0,0:0:0:0:
320,192,145351,1,0,0:0:0:0:
192,192,145351,1,0,0:0:0:0:
64,192,145443,1,0,0:0:0:0:
448,192,145443,1,0,0:0:0:0:
64,192,145534,1,0,0:0:0:0:
192,192,145534,1,0,0:0:0:0:
192,192,145626,1,0,0:0:0:0:
448,192,145626,1,0,0:0:0:0:
320,192,145626,1,0,0:0:0:0:
448,192,145717,1,0,0:0:0:0:
64,192,145717,1,0,0:0:0:0:
320,192,145809,1,0,0:0:0:0:
64,192,145809,1,0,0:0:0:0:
320,192,145900,1,0,0:0:0:0:
192,192,145900,1,0,0:0:0:0:
448,192,145992,1,0,0:0:0:0:
64,192,145992,1,0,0:0:0:0:
192,192,146083,1,0,0:0:0:0:
448,192,146083,1,0,0:0:0:0:
320,192,146083,1,0,0:0:0:0:
192,192,146175,1,0,0:0:0:0:
320,192,146175,1,0,0:0:0:0:
64,192,146175,1,0,0:0:0:0:
64,192,146266,1,0,0:0:0:0:
448,192,146266,1,0,0:0:0:0:
448,192,146358,1,0,0:0:0:0:
320,192,146358,1,0,0:0:0:0:
64,192,146450,1,0,0:0:0:0:
320,192,146450,1,0,0:0:0:0:
192,192,146450,1,0,0:0:0:0:
192,192,146542,1,0,0:0:0:0:
64,192,146542,1,0,0:0:0:0:
192,192,146633,1,0,0:0:0:0:
320,192,146633,1,0,0:0:0:0:
448,192,146633,1,0,0:0:0:0:
64,192,146725,1,0,0:0:0:0:
320,192,146725,1,0,0:0:0:0:
448,192,146725,1,0,0:0:0:0:
192,192,146816,1,0,0:0:0:0:
64,192,146816,1,0,0:0:0:0:
448,192,146908,1,0,0:0:0:0:
320,192,146908,1,0,0:0:0:0:
64,192,147000,1,0,0:0:0:0:
448,192,147000,1,0,0:0:0:0:
192,192,147091,1,0,0:0:0:0:
64,192,147091,1,0,0:0:0:0:
320,192,147183,1,0,0:0:0:0:
448,192,147183,1,0,0:0:0:0:
192,192,147274,1,0,0:0:0:0:
64,192,147274,1,0,0:0:0:0:
448,192,147274,1,0,0:0:0:0:
320,192,147366,1,0,0:0:0:0:
64,192,147366,1,0,0:0:0:0:
320,192,147457,1,0,0:0:0:0:
192,192,147457,1,0,0:0:0:0:
64,192,147549,1,0,0:0:0:0:
448,192,147549,1,0,0:0:0:0:
448,192,147640,1,0,0:0:0:0:
320,192,147640,1,0,0:0:0:0:
192,192,147732,1,0,0:0:0:0:
64,192,147732,1,0,0:0:0:0:
64,192,147823,1,0,0:0:0:0:
448,192,147823,1,0,0:0:0:0:
320,192,147823,1,0,0:0:0:0:
448,192,147915,1,0,0:0:0:0:
192,192,147915,1,0,0:0:0:0:
320,192,148006,1,0,0:0:0:0:
192,192,148006,1,0,0:0:0:0:
448,192,148098,1,0,0:0:0:0:
64,192,148098,1,0,0:0:0:0:
448,192,148190,1,0,0:0:0:0:
320,192,148190,1,0,0:0:0:0:
192,192,148281,1,0,0:0:0:0:
320,192,148281,1,0,0:0:0:0:
64,192,148281,1,0,0:0:0:0:
448,192,148373,1,0,0:0:0:0:
64,192,148373,1,0,0:0:0:0:
192,192,148648,1,0,0:0:0:0:
64,192,148648,1,0,0:0:0:0:
192,192,148923,1,0,0:0:0:0:
448,192,148923,1,0,0:0:0:0:
320,192,148923,1,0,0:0:0:0:
448,192,149197,1,0,0:0:0:0:
320,192,149197,1,0,0:0:0:0:
64,192,149289,1,0,0:0:0:0:
192,192,149289,1,0,0:0:0:0:
448,192,149380,1,0,0:0:0:0:
320,192,149380,1,0,0:0:0:0:
192,192,149472,1,0,0:0:0:0:
64,192,149472,1,0,0:0:0:0:
448,192,149472,1,0,0:0:0:0:
320,192,149563,1,0,0:0:0:0:
64,192,149563,1,0,0:0:0:0:
64,192,149655,1,0,0:0:0:0:
192,192,149655,1,0,0:0:0:0:
320,192,149746,1,0,0:0:0:0:
448,192,149746,1,0,0:0:0:0:
448,192,149838,1,0,0:0:0:0:
64,192,149838,1,0,0:0:0:0:
320,192,149930,1,0,0:0:0:0:
192,192,149930,1,0,0:0:0:0:
64,192,150021,1,0,0:0:0:0:
448,192,150021,1,0,0:0:0:0:
320,192,150021,1,0,0:0:0:0:
192,192,150113,1,0,0:0:0:0:
64,192,150113,1,0,0:0:0:0:
192,192,150204,1,0,0:0:0:0:
448,192,150204,1,0,0:0:0:0:
320,192,150296,1,0,0:0:0:0:
448,192,150296,1,0,0:0:0:0:
320,192,150388,1,0,0:0:0:0:
192,192,150388,1,0,0:0:0:0:
192,192,150480,1,0,0:0:0:0:
64,192,150480,1,0,0:0:0:0:
448,192,150480,1,0,0:0:0:0:
320,192,150571,1,0,0:0:0:0:
64,192,150571,1,0,0:0:0:0:
448,192,150571,1,0,0:0:0:0:
192,192,150663,1,0,0:0:0:0:
320,192,150663,1,0,0:0:0:0:
448,192,150754,1,0,0:0:0:0:
64,192,150754,1,0,0:0:0:0:
192,192,150846,1,0,0:0:0:0:
64,192,150846,1,0,0:0:0:0:
320,192,150846,1,0,0:0:0:0:
448,192,150937,1,0,0:0:0:0:
192,192,150937,1,0,0:0:0:0:
64,192,151029,1,0,0:0:0:0:
320,192,151029,1,0,0:0:0:0:
448,192,151029,1,0,0:0:0:0:
64,192,151120,1,0,0:0:0:0:
192,192,151120,1,0,0:0:0:0:
320,192,151120,1,0,0:0:0:0:
64,192,151212,1,0,0:0:0:0:
448,192,151212,1,0,0:0:0:0:
320,192,151303,1,0,0:0:0:0:
448,192,151303,1,0,0:0:0:0:
64,192,151395,1,0,0:0:0:0:
192,192,151395,1,0,0:0:0:0:
64,192,151486,1,0,0:0:0:0:
320,192,151486,1,0,0:0:0:0:
320,192,151578,1,0,0:0:0:0:
448,192,151578,1,0,0:0:0:0:
64,192,151670,1,0,0:0:0:0:
192,192,151670,1,0,0:0:0:0:
448,192,151670,1,0,0:0:0:0:
320,192,151761,1,0,0:0:0:0:
64,192,151761,1,0,0:0:0:0:
64,192,151853,1,0,0:0:0:0:
192,192,151853,1,0,0:0:0:0:
448,192,151944,1,0,0:0:0:0:
192,192,151944,1,0,0:0:0:0:
64,192,152036,1,0,0:0:0:0:
320,192,152036,1,0,0:0:0:0:
320,192,152127,1,0,0:0:0:0:
448,192,152127,1,0,0:0:0:0:
64,192,152219,1,0,0:0:0:0:
192,192,152219,1,0,0:0:0:0:
448,192,152219,1,0,0:0:0:0:
192,192,152311,1,0,0:0:0:0:
320,192,152311,1,0,0:0:0:0:
64,192,152403,1,0,0:0:0:0:
448,192,152403,1,0,0:0:0:0:
448,192,152494,1,0,0:0:0:0:
192,192,152494,1,0,0:0:0:0:
320,192,152586,1,0,0:0:0:0:
192,192,152586,1,0,0:0:0:0:
320,192,152677,1,0,0:0:0:0:
64,192,152677,1,0,0:0:0:0:
448,192,152677,1,0,0:0:0:0:
192,192,152769,1,0,0:0:0:0:
64,192,152769,1,0,0:0:0:0:
64,192,152860,1,0,0:0:0:0:
448,192,152860,1,0,0:0:0:0:
320,192,152952,1,0,0:0:0:0:
448,192,152952,1,0,0:0:0:0:
192,192,153043,1,0,0:0:0:0:
64,192,153043,1,0,0:0:0:0:
320,192,153043,1,0,0:0:0:0:
448,192,153135,1,0,0:0:0:0:
64,192,153135,1,0,0:0:0:0:
320,192,153226,1,0,0:0:0:0:
192,192,153226,1,0,0:0:0:0:
64,192,153318,1,0,0:0:0:0:
448,192,153318,1,0,0:0:0:0:
320,192,153318,1,0,0:0:0:0:
64,192,153410,1,0,0:0:0:0:
192,192,153410,1,0,0:0:0:0:
448,192,153501,1,0,0:0:0:0:
192,192,153501,1,0,0:0:0:0:
448,192,153593,1,0,0:0:0:0:
320,192,153593,1,0,0:0:0:0:
64,192,153684,1,0,0:0:0:0:
192,192,153684,1,0,0:0:0:0:
448,192,153776,1,0,0:0:0:0:
64,192,153776,1,0,0:0:0:0:
192,192,153867,1,0,0:0:0:0:
320,192,153867,1,0,0:0:0:0:
448,192,153867,1,0,0:0:0:0:
192,192,153959,1,0,0:0:0:0:
64,192,153959,1,0,0:0:0:0:
64,192,154050,1,0,0:0:0:0:
448,192,154050,1,0,0:0:0:0:
320,192,154142,1,0,0:0:0:0:
192,192,154142,1,0,0:0:0:0:
64,192,154234,1,0,0:0:0:0:
192,192,154234,1,0,0:0:0:0:
320,192,154326,1,0,0:0:0:0:
448,192,154326,1,0,0:0:0:0:
192,192,154417,1,0,0:0:0:0:
64,192,154417,1,0,0:0:0:0:
320,192,154417,1,0,0:0:0:0:
448,192,154509,1,0,0:0:0:0:
64,192,154509,1,0,0:0:0:0:
448,192,154600,1,0,0:0:0:0:
192,192,154600,1,0,0:0:0:0:
320,192,154692,1,0,0:0:0:0:
192,192,154692,1,0,0:0:0:0:
448,192,154783,1,0,0:0:0:0:
64,192,154783,1,0,0:0:0:0:
192,192,154875,1,0,0:0:0:0:
64,192,154875,1,0,0:0:0:0:
320,192,154875,1,0,0:0:0:0:
448,192,154966,1,0,0:0:0:0:
192,192,154966,1,0,0:0:0:0:
320,192,154966,1,0,0:0:0:0:
64,192,155058,1,0,0:0:0:0:
448,192,155058,1,0,0:0:0:0:
192,192,155150,1,0,0:0:0:0:
64,192,155150,1,0,0:0:0:0:
320,192,155241,1,0,0:0:0:0:
192,192,155241,1,0,0:0:0:0:
448,192,155241,1,0,0:0:0:0:
448,192,155333,1,0,0:0:0:0:
320,192,155333,1,0,0:0:0:0:
64,192,155424,1,0,0:0:0:0:
192,192,155424,1,0,0:0:0:0:
320,192,155424,1,0,0:0:0:0:
64,192,155516,1,0,0:0:0:0:
192,192,155516,1,0,0:0:0:0:
448,192,155516,1,0,0:0:0:0:
448,192,155607,1,0,0:0:0:0:
320,192,155607,1,0,0:0:0:0:
192,192,155699,1,0,0:0:0:0:
64,192,155699,1,0,0:0:0:0:
192,192,155790,1,0,0:0:0:0:
320,192,155790,1,0,0:0:0:0:
448,192,155882,1,0,0:0:0:0:
320,192,155882,1,0,0:0:0:0:
64,192,155973,1,0,0:0:0:0:
192,192,155973,1,0,0:0:0:0:
64,192,156065,1,0,0:0:0:0:
448,192,156065,1,0,0:0:0:0:
320,192,156065,1,0,0:0:0:0:
448,192,156157,1,0,0:0:0:0:
192,192,156157,1,0,0:0:0:0:
320,192,156249,1,0,0:0:0:0:
192,192,156249,1,0,0:0:0:0:
64,192,156340,1,0,0:0:0:0:
448,192,156340,1,0,0:0:0:0:
192,192,156432,1,0,0:0:0:0:
64,192,156432,1,0,0:0:0:0:
448,192,156523,1,0,0:0:0:0:
320,192,156523,1,0,0:0:0:0:
192,192,156615,1,0,0:0:0:0:
64,192,156615,1,0,0:0:0:0:
448,192,156615,1,0,0:0:0:0:
320,192,156706,1,0,0:0:0:0:
64,192,156706,1,0,0:0:0:0:
320,192,156798,1,0,0:0:0:0:
192,192,156798,1,0,0:0:0:0:
448,192,156890,1,0,0:0:0:0:
64,192,156890,1,0,0:0:0:0:
192,192,156981,1,0,0:0:0:0:
64,192,156981,1,0,0:0:0:0:
448,192,157073,1,0,0:0:0:0:
192,192,157073,1,0,0:0:0:0:
320,192,157073,1,0,0:0:0:0:
448,192,157164,1,0,0:0:0:0:
64,192,157164,1,0,0:0:0:0:
192,192,157439,1,0,0:0:0:0:
320,192,157439,1,0,0:0:0:0:
448,192,157713,1,0,0:0:0:0:
64,192,157713,1,0,0:0:0:0:
320,192,157713,1,0,0:0:0:0:
448,192,157988,1,0,0:0:0:0:
320,192,157988,1,0,0:0:0:0:
64,192,158080,1,0,0:0:0:0:
192,192,158080,1,0,0:0:0:0:
448,192,158172,1,0,0:0:0:0:
320,192,158172,1,0,0:0:0:0:
192,192,158263,1,0,0:0:0:0:
64,192,158263,1,0,0:0:0:0:
448,192,158263,1,0,0:0:0:0:
320,192,158355,1,0,0:0:0:0:
192,192,158355,1,0,0:0:0:0:
64,192,158446,1,0,0:0:0:0:
448,192,158446,1,0,0:0:0:0:
320,192,158538,1,0,0:0:0:0:
64,192,158538,1,0,0:0:0:0:
320,192,158630,1,0,0:0:0:0:
192,192,158630,1,0,0:0:0:0:
192,192,158721,1,0,0:0:0:0:
448,192,158721,1,0,0:0:0:0:
64,192,158813,1,0,0:0:0:0:
448,192,158813,1,0,0:0:0:0:
320,192,158813,1,0,0:0:0:0:
192,192,158904,1,0,0:0:0:0:
64,192,158904,1,0,0:0:0:0:
192,192,158996,1,0,0:0:0:0:
448,192,158996,1,0,0:0:0:0:
320,192,159087,1,0,0:0:0:0:
448,192,159087,1,0,0:0:0:0:
320,192,159179,1,0,0:0:0:0:
64,192,159179,1,0,0:0:0:0:
192,192,159270,1,0,0:0:0:0:
64,192,159270,1,0,0:0:0:0:
448,192,159270,1,0,0:0:0:0:
320,192,159362,1,0,0:0:0:0:
192,192,159362,1,0,0:0:0:0:
448,192,159362,1,0,0:0:0:0:
320,192,159453,1,0,0:0:0:0:
64,192,159453,1,0,0:0:0:0:
448,192,159545,1,0,0:0:0:0:
192,192,159545,1,0,0:0:0:0:
192,192,159636,1,0,0:0:0:0:
64,192,159636,1,0,0:0:0:0:
320,192,159636,1,0,0:0:0:0:
448,192,159728,1,0,0:0:0:0:
320,192,159728,1,0,0:0:0:0:
64,192,159820,1,0,0:0:0:0:
448,192,159820,1,0,0:0:0:0:
192,192,159820,1,0,0:0:0:0:
64,192,159911,1,0,0:0:0:0:
192,192,159911,1,0,0:0:0:0:
320,192,159911,1,0,0:0:0:0:
320,192,160003,1,0,0:0:0:0:
448,192,160003,1,0,0:0:0:0:
448,192,160095,1,0,0:0:0:0:
64,192,160095,1,0,0:0:0:0:
64,192,160186,1,0,0:0:0:0:
320,192,160186,1,0,0:0:0:0:
192,192,160278,1,0,0:0:0:0:
320,192,160278,1,0,0:0:0:0:
192,192,160370,1,0,0:0:0:0:
448,192,160370,1,0,0:0:0:0:
64,192,160461,1,0,0:0:0:0:
320,192,160461,1,0,0:0:0:0:
448,192,160461,1,0,0:0:0:0:
320,192,160553,1,0,0:0:0:0:
192,192,160553,1,0,0:0:0:0:
64,192,160644,1,0,0:0:0:0:
448,192,160644,1,0,0:0:0:0:
192,192,160736,1,0,0:0:0:0:
64,192,160736,1,0,0:0:0:0:
320,192,160827,1,0,0:0:0:0:
448,192,160827,1,0,0:0:0:0:
320,192,160919,1,0,0:0:0:0:
192,192,160919,1,0,0:0:0:0:
64,192,161010,1,0,0:0:0:0:
192,192,161010,1,0,0:0:0:0:
448,192,161010,1,0,0:0:0:0:
64,192,161102,1,0,0:0:0:0:
320,192,161102,1,0,0:0:0:0:
192,192,161193,1,0,0:0:0:0:
448,192,161193,1,0,0:0:0:0:
448,192,161285,1,0,0:0:0:0:
64,192,161285,1,0,0:0:0:0:
320,192,161376,1,0,0:0:0:0:
192,192,161376,1,0,0:0:0:0:
320,192,161468,1,0,0:0:0:0:
64,192,161468,1,0,0:0:0:0:
448,192,161468,1,0,0:0:0:0:
192,192,161560,1,0,0:0:0:0:
64,192,161560,1,0,0:0:0:0:
64,192,161651,1,0,0:0:0:0:
448,192,161651,1,0,0:0:0:0:
320,192,161743,1,0,0:0:0:0:
448,192,161743,1,0,0:0:0:0:
192,192,161834,1,0,0:0:0:0:
64,192,161834,1,0,0:0:0:0:
320,192,161834,1,0,0:0:0:0:
448,192,161926,1,0,0:0:0:0:
64,192,161926,1,0,0:0:0:0:
320,192,162018,1,0,0:0:0:0:
192,192,162018,1,0,0:0:0:0:
64,192,162110,1,0,0:0:0:0:
448,192,162110,1,0,0:0:0:0:
320,192,162110,1,0,0:0:0:0:
64,192,162201,1,0,0:0:0:0:
192,192,162201,1,0,0:0:0:0:
448,192,162293,1,0,0:0:0:0:
192,192,162293,1,0,0:0:0:0:
448,192,162384,1,0,0:0:0:0:
320,192,162384,1,0,0:0:0:0:
64,192,162476,1,0,0:0:0:0:
192,192,162476,1,0,0:0:0:0:
448,192,162567,1,0,0:0:0:0:
64,192,162567,1,0,0:0:0:0:
192,192,162659,1,0,0:0:0:0:
320,192,162659,1,0,0:0:0:0:
448,192,162659,1,0,0:0:0:0:
192,192,162750,1,0,0:0:0:0:
64,192,162750,1,0,0:0:0:0:
64,192,162842,1,0,0:0:0:0:
320,192,162842,1,0,0:0:0:0:
448,192,162933,1,0,0:0:0:0:
192,192,162933,1,0,0:0:0:0:
64,192,163025,1,0,0:0:0:0:
192,192,163025,1,0,0:0:0:0:
320,192,163116,1,0,0:0:0:0:
448,192,163116,1,0,0:0:0:0:
192,192,163208,1,0,0:0:0:0:
64,192,163208,1,0,0:0:0:0:
320,192,163208,1,0,0:0:0:0:
448,192,163300,1,0,0:0:0:0:
64,192,163300,1,0,0:0:0:0:
448,192,163391,1,0,0:0:0:0:
192,192,163391,1,0,0:0:0:0:
320,192,163483,1,0,0:0:0:0:
192,192,163483,1,0,0:0:0:0:
448,192,163574,1,0,0:0:0:0:
64,192,163574,1,0,0:0:0:0:
192,192,163666,1,0,0:0:0:0:
64,192,163666,1,0,0:0:0:0:
320,192,163666,1,0,0:0:0:0:
448,192,163757,1,0,0:0:0:0:
192,192,163757,1,0,0:0:0:0:
320,192,163757,1,0,0:0:0:0:
64,192,163850,1,0,0:0:0:0:
448,192,163850,1,0,0:0:0:0:
192,192,163941,1,0,0:0:0:0:
64,192,163941,1,0,0:0:0:0:
320,192,164033,1,0,0:0:0:0:
192,192,164033,1,0,0:0:0:0:
448,192,164033,1,0,0:0:0:0:
448,192,164124,1,0,0:0:0:0:
64,192,164124,1,0,0:0:0:0:
64,192,164216,1,0,0:0:0:0:
192,192,164216,1,0,0:0:0:0:
320,192,164216,1,0,0:0:0:0:
320,192,164307,1,0,0:0:0:0:
192,192,164307,1,0,0:0:0:0:
448,192,164307,1,0,0:0:0:0:
448,192,164399,1,0,0:0:0:0:
64,192,164399,1,0,0:0:0:0:
192,192,164490,1,0,0:0:0:0:
320,192,164490,1,0,0:0:0:0:
64,192,164582,1,0,0:0:0:0:
320,192,164582,1,0,0:0:0:0:
448,192,164673,1,0,0:0:0:0:
192,192,164673,1,0,0:0:0:0:
64,192,164765,1,0,0:0:0:0:
448,192,164765,1,0,0:0:0:0:
64,192,164856,1,0,0:0:0:0:
192,192,164856,1,0,0:0:0:0:
320,192,164856,1,0,0:0:0:0:
448,192,164948,1,0,0:0:0:0:
320,192,164948,1,0,0:0:0:0:
64,192,165040,1,0,0:0:0:0:
448,192,165040,1,0,0:0:0:0:
192,192,165131,1,0,0:0:0:0:
320,192,165131,1,0,0:0:0:0:
192,192,165223,1,0,0:0:0:0:
64,192,165223,1,0,0:0:0:0:
448,192,165314,1,0,0:0:0:0:
320,192,165314,1,0,0:0:0:0:
192,192,165406,1,0,0:0:0:0:
64,192,165406,1,0,0:0:0:0:
448,192,165406,1,0,0:0:0:0:
320,192,165497,1,0,0:0:0:0:
64,192,165497,1,0,0:0:0:0:
320,192,165589,1,0,0:0:0:0:
192,192,165589,1,0,0:0:0:0:
448,192,165680,1,0,0:0:0:0:
64,192,165680,1,0,0:0:0:0:
192,192,165773,1,0,0:0:0:0:
64,192,165773,1,0,0:0:0:0:
448,192,165864,1,0,0:0:0:0:
192,192,165864,1,0,0:0:0:0:
320,192,165864,1,0,0:0:0:0:
448,192,165956,1,0,0:0:0:0:
64,192,165956,1,0,0:0:0:0:
320,192,166230,1,0,0:0:0:0:
448,192,166230,1,0,0:0:0:0:
64,192,166505,1,0,0:0:0:0:
192,192,166505,1,0,0:0:0:0:
320,192,166505,1,0,0:0:0:0:
192,192,166780,1,0,0:0:0:0:
64,192,166780,1,0,0:0:0:0:
320,192,166871,1,0,0:0:0:0:
448,192,166871,1,0,0:0:0:0:
192,192,166963,1,0,0:0:0:0:
64,192,166963,1,0,0:0:0:0:
320,192,167054,1,0,0:0:0:0:
448,192,167054,1,0,0:0:0:0:
64,192,167054,1,0,0:0:0:0:
192,192,167146,1,0,0:0:0:0:
448,192,167146,1,0,0:0:0:0:
320,192,167237,1,0,0:0:0:0:
64,192,167237,1,0,0:0:0:0:
64,192,167329,1,0,0:0:0:0:
448,192,167329,1,0,0:0:0:0:
192,192,167420,1,0,0:0:0:0:
320,192,167420,1,0,0:0:0:0:
320,192,167512,1,0,0:0:0:0:
64,192,167512,1,0,0:0:0:0:
448,192,167603,1,0,0:0:0:0:
64,192,167603,1,0,0:0:0:0:
192,192,167603,1,0,0:0:0:0:
320,192,167696,1,0,0:0:0:0:
192,192,167696,1,0,0:0:0:0:
64,192,167787,1,0,0:0:0:0:
320,192,167787,1,0,0:0:0:0:
64,192,167879,1,0,0:0:0:0:
448,192,167879,1,0,0:0:0:0:
192,192,167970,1,0,0:0:0:0:
448,192,167970,1,0,0:0:0:0:
320,192,168062,1,0,0:0:0:0:
192,192,168062,1,0,0:0:0:0:
64,192,168062,1,0,0:0:0:0:
448,192,168153,1,0,0:0:0:0:
320,192,168153,1,0,0:0:0:0:
64,192,168153,1,0,0:0:0:0:
192,192,168245,1,0,0:0:0:0:
448,192,168245,1,0,0:0:0:0:
64,192,168336,1,0,0:0:0:0:
320,192,168336,1,0,0:0:0:0:
320,192,168428,1,0,0:0:0:0:
448,192,168428,1,0,0:0:0:0:
64,192,168428,1,0,0:0:0:0:
192,192,168520,1,0,0:0:0:0:
320,192,168520,1,0,0:0:0:0:
192,192,168611,1,0,0:0:0:0:
64,192,168611,1,0,0:0:0:0:
448,192,168611,1,0,0:0:0:0:
448,192,168703,1,0,0:0:0:0:
320,192,168703,1,0,0:0:0:0:
64,192,168703,1,0,0:0:0:0:
192,192,168794,1,0,0:0:0:0:
320,192,168794,1,0,0:0:0:0:
64,192,168886,1,0,0:0:0:0:
448,192,168886,1,0,0:0:0:0:
448,192,168977,1,0,0:0:0:0:
320,192,168977,1,0,0:0:0:0:
64,192,169069,1,0,0:0:0:0:
192,192,169069,1,0,0:0:0:0:
448,192,169160,1,0,0:0:0:0:
64,192,169160,1,0,0:0:0:0:
320,192,169252,1,0,0:0:0:0:
192,192,169252,1,0,0:0:0:0:
448,192,169252,1,0,0:0:0:0:
320,192,169343,1,0,0:0:0:0:
192,192,169343,1,0,0:0:0:0:
448,192,169435,1,0,0:0:0:0:
64,192,169435,1,0,0:0:0:0:
320,192,169526,1,0,0:0:0:0:
448,192,169526,1,0,0:0:0:0:
192,192,169619,1,0,0:0:0:0:
64,192,169619,1,0,0:0:0:0:
192,192,169710,1,0,0:0:0:0:
320,192,169710,1,0,0:0:0:0:
448,192,169802,1,0,0:0:0:0:
320,192,169802,1,0,0:0:0:0:
64,192,169802,1,0,0:0:0:0:
448,192,169893,1,0,0:0:0:0:
192,192,169893,1,0,0:0:0:0:
320,192,169985,1,0,0:0:0:0:
64,192,169985,1,0,0:0:0:0:
64,192,170076,1,0,0:0:0:0:
448,192,170076,1,0,0:0:0:0:
192,192,170168,1,0,0:0:0:0:
320,192,170168,1,0,0:0:0:0:
192,192,170260,1,0,0:0:0:0:
448,192,170260,1,0,0:0:0:0:
64,192,170260,1,0,0:0:0:0:
320,192,170351,1,0,0:0:0:0:
448,192,170351,1,0,0:0:0:0:
448,192,170443,1,0,0:0:0:0:
64,192,170443,1,0,0:0:0:0:
192,192,170534,1,0,0:0:0:0:
64,192,170534,1,0,0:0:0:0:
320,192,170626,1,0,0:0:0:0:
448,192,170626,1,0,0:0:0:0:
192,192,170626,1,0,0:0:0:0:
64,192,170717,1,0,0:0:0:0:
448,192,170717,1,0,0:0:0:0:
192,192,170809,1,0,0:0:0:0:
320,192,170809,1,0,0:0:0:0:
448,192,170900,1,0,0:0:0:0:
64,192,170900,1,0,0:0:0:0:
192,192,170900,1,0,0:0:0:0:
448,192,170992,1,0,0:0:0:0:
320,192,170992,1,0,0:0:0:0:
64,192,171083,1,0,0:0:0:0:
320,192,171083,1,0,0:0:0:0:
64,192,171175,1,0,0:0:0:0:
192,192,171175,1,0,0:0:0:0:
448,192,171266,1,0,0:0:0:0:
192,192,171266,1,0,0:0:0:0:
64,192,171358,1,0,0:0:0:0:
320,192,171358,1,0,0:0:0:0:
320,192,171450,1,0,0:0:0:0:
192,192,171450,1,0,0:0:0:0:
448,192,171450,1,0,0:0:0:0:
192,192,171542,1,0,0:0:0:0:
64,192,171542,1,0,0:0:0:0:
64,192,171633,1,0,0:0:0:0:
320,192,171633,1,0,0:0:0:0:
448,192,171725,1,0,0:0:0:0:
192,192,171725,1,0,0:0:0:0:
64,192,171816,1,0,0:0:0:0:
192,192,171816,1,0,0:0:0:0:
320,192,171908,1,0,0:0:0:0:
448,192,171908,1,0,0:0:0:0:
192,192,172000,1,0,0:0:0:0:
64,192,172000,1,0,0:0:0:0:
320,192,172000,1,0,0:0:0:0:
448,192,172091,1,0,0:0:0:0:
64,192,172091,1,0,0:0:0:0:
448,192,172183,1,0,0:0:0:0:
192,192,172183,1,0,0:0:0:0:
320,192,172274,1,0,0:0:0:0:
192,192,172274,1,0,0:0:0:0:
448,192,172366,1,0,0:0:0:0:
64,192,172366,1,0,0:0:0:0:
192,192,172457,1,0,0:0:0:0:
64,192,172457,1,0,0:0:0:0:
320,192,172457,1,0,0:0:0:0:
448,192,172549,1,0,0:0:0:0:
192,192,172549,1,0,0:0:0:0:
320,192,172549,1,0,0:0:0:0:
448,192,172640,1,0,0:0:0:0:
64,192,172640,1,0,0:0:0:0:
320,192,172732,1,0,0:0:0:0:
448,192,172732,1,0,0:0:0:0:
192,192,172823,1,0,0:0:0:0:
320,192,172823,1,0,0:0:0:0:
64,192,172823,1,0,0:0:0:0:
64,192,172915,1,0,0:0:0:0:
448,192,172915,1,0,0:0:0:0:
448,192,173006,1,0,0:0:0:0:
320,192,173006,1,0,0:0:0:0:
192,192,173006,1,0,0:0:0:0:
192,192,173098,1,0,0:0:0:0:
320,192,173098,1,0,0:0:0:0:
64,192,173098,1,0,0:0:0:0:
64,192,173190,1,0,0:0:0:0:
448,192,173190,1,0,0:0:0:0:
320,192,173281,1,0,0:0:0:0:
192,192,173281,1,0,0:0:0:0:
448,192,173373,1,0,0:0:0:0:
192,192,173373,1,0,0:0:0:0:
64,192,173465,1,0,0:0:0:0:
320,192,173465,1,0,0:0:0:0:
448,192,173556,1,0,0:0:0:0:
64,192,173556,1,0,0:0:0:0:
448,192,173648,1,0,0:0:0:0:
320,192,173648,1,0,0:0:0:0:
192,192,173648,1,0,0:0:0:0:
64,192,173740,1,0,0:0:0:0:
192,192,173740,1,0,0:0:0:0:
448,192,173831,1,0,0:0:0:0:
64,192,173831,1,0,0:0:0:0:
320,192,173923,1,0,0:0:0:0:
192,192,173923,1,0,0:0:0:0:
320,192,174014,1,0,0:0:0:0:
448,192,174014,1,0,0:0:0:0:
64,192,174106,1,0,0:0:0:0:
192,192,174106,1,0,0:0:0:0:
320,192,174197,1,0,0:0:0:0:
448,192,174197,1,0,0:0:0:0:
64,192,174197,1,0,0:0:0:0:
192,192,174289,1,0,0:0:0:0:
448,192,174289,1,0,0:0:0:0:
192,192,174380,1,0,0:0:0:0:
320,192,174380,1,0,0:0:0:0:
64,192,174472,1,0,0:0:0:0:
448,192,174472,1,0,0:0:0:0:
320,192,174563,1,0,0:0:0:0:
448,192,174563,1,0,0:0:0:0:
64,192,174655,1,0,0:0:0:0:
320,192,174655,1,0,0:0:0:0:
192,192,174655,1,0,0:0:0:0:
64,192,174746,1,0,0:0:0:0:
448,192,174746,1,0,0:0:0:0:
192,192,175021,1,0,0:0:0:0:
320,192,175021,1,0,0:0:0:0:
448,192,175296,1,0,0:0:0:0:
320,192,175296,1,0,0:0:0:0:
192,192,175296,1,0,0:0:0:0:
64,192,175571,1,0,0:0:0:0:
192,192,175571,1,0,0:0:0:0:
320,192,175663,1,0,0:0:0:0:
448,192,175663,1,0,0:0:0:0:
192,192,175754,1,0,0:0:0:0:
64,192,175754,1,0,0:0:0:0:
448,192,175846,128,0,178043:0:0:0:0:
320,192,175846,128,0,176944:0:0:0:0:
