osu file format v14

[General]
AudioFilename: audio.mp3
AudioLeadIn: 0
PreviewTime: 45754
Countdown: 1
SampleSet: Normal
StackLeniency: 0.7
Mode: 0
LetterboxInBreaks: 0
WidescreenStoryboard: 0

[Editor]
DistanceSpacing: 2
BeatDivisor: 3
GridSize: 4
TimelineZoom: 2

[Metadata]
Title:Monsters
TitleUnicode:Monsters
Artist:NOA
ArtistUnicode:NOA
Creator:Athi
Version:Pain
Source:
Tags:
BeatmapID:1930563
BeatmapSetID:924288

[Difficulty]
HPDrainRate:4
CircleSize:4
OverallDifficulty:9
ApproachRate:9.5
SliderMultiplier:1.4
SliderTickRate:1

[Events]
//Background and Video events
0,0,"5f442282-7509-4112-8ba6-cdedc13f5af7.jpg",0,0
//Break Periods
2,20240,20944
2,31312,32373
2,45954,56658
//Storyboard Layer 0 (Background)
//Storyboard Layer 1 (Fail)
//Storyboard Layer 2 (Pass)
//Storyboard Layer 3 (Foreground)
//Storyboard Sound Samples

[TimingPoints]
40,714.285714285714,4,1,0,100,1,0
40,-66.6666666666667,4,1,0,100,0,0
25372,-50,4,1,0,100,0,0
27157,-66.6666666666667,4,1,0,100,0,0
62897,357.142857142857,4,1,0,100,1,0
70729,-100,4,1,0,100,0,0
228373,-400,4,1,0,100,0,0

[HitObjects]
56,80,40,6,0,B|72:168|144:200|144:200|240:132|196:52|196:52|112:92|144:200|144:200|216:232|320:224,1,630.000024032594,0|0,2:2|2:2,2:2:0:0:
400,272,2897,2,0,P|456:200|408:100,1,210.000008010865,0|0,2:2|2:2,2:2:0:0:
256,72,4325,2,0,P|209:160|240:264,1,210.000008010865,0|0,2:2|2:2,2:2:0:0:
376,304,5754,2,0,B|312:336|224:312|224:312|208:216|272:152|272:152|320:224|320:224|360:136|360:136|320:72|320:72|284:120,1,630.000024032594,0|0,2:2|2:2,2:2:0:0:
284,80,8611,2,0,B|284:188|284:188|172:152|204:96|204:96|172:40|172:40|136:96|136:96|172:152|64:192|64:192|64:80,1,630.000024032594,0|0,2:2|2:2,2:2:0:0:
80,64,11469,6,0,B|40:180|116:256|116:256|216:200|216:200|176:172|160:136|160:136|188:112|240:88|240:88|224:44|224:44|288:28|288:28|292:60|292:60,1,630.000024032594,0|0,2:2|2:2,2:2:0:0:
320,44,14326,2,0,B|418:86|418:86|320:123|320:123|413:176|413:176|322:227|322:227|291:275|320:320|320:320|400:320|400:320|416:296,1,630.000024032594,0|0,2:2|2:2,2:2:0:0:
256,192,17183,12,0,20040,2:2:0:0:
120,96,21469,6,0,L|184:80,1,52.5000020027161,0|0,2:2|2:2,2:2:0:0:
200,184,21826,2,0,L|264:168,1,52.5000020027161,0|0,2:2|2:2,2:2:0:0:
304,120,22183,1,0,2:2:0:0:
392,144,22540,2,0,P|408:200|384:256,3,105.000004005432,0|0|0|0,2:2|2:2|2:2|2:2,2:2:0:0:
384,320,24326,5,0,2:2:0:0:
272,344,24683,1,0,2:2:0:0:
176,248,25040,1,0,2:2:0:0:
240,168,25398,2,0,B|256:224|328:256|328:256|400:184|400:184|380:108|380:108|320:160|320:160|328:256|328:256|384:280|448:264,1,560,0|0,2:2|2:2,2:2:0:0:
392,96,27183,6,0,L|332:80,1,52.5000020027161,0|0,2:2|2:2,2:2:0:0:
312,184,27540,2,0,L|248:172,1,52.5000020027161,0|0,2:2|2:2,2:2:0:0:
200,96,27898,1,0,2:2:0:0:
100,104,28255,2,0,P|72:152|96:192,3,105.000004005432,0|0|0|0,2:2|2:2|2:2|2:2,2:2:0:0:
184,184,29683,5,0,2:2:0:0:
184,80,30040,1,0,2:2:0:0:
288,64,30398,2,0,P|344:56|384:88,2,105.000004005432,0|0|0,2:2|2:2|2:2,2:2:0:0:
416,168,32898,6,0,P|432:224|408:272,1,105.000004005432,0|0,2:2|2:2,2:2:0:0:
344,304,33612,1,0,2:2:0:0:
256,312,33969,2,0,P|200:328|144:304,3,105.000004005432,0|0|0|0,2:2|2:2|2:2|2:2,2:2:0:0:
72,248,35398,5,0,2:2:0:0:
56,144,35755,1,0,2:2:0:0:
152,72,36112,1,0,2:2:0:0:
328,68,36469,2,0,B|344:76|385:105|385:105|364:205|364:205|328:192|328:192|300:151|300:151|385:105|385:105|424:128|440:148,1,420.000016021729,0|0,2:2|2:2,2:2:0:0:
416,264,38255,5,0,2:2:0:0:
416,264,38612,2,0,P|381:309|336:336,1,105.000004005432,0|0,2:2|2:2,2:2:0:0:
256,336,39326,1,0,2:2:0:0:
160,304,39683,2,0,P|112:280|112:224,3,105.000004005432,0|0|0|0,2:2|2:2|2:2|2:2,2:2:0:0:
72,152,41112,5,0,2:2:0:0:
136,72,41469,1,0,2:2:0:0:
232,120,41826,2,0,P|232:176|272:208,1,105.000004005432,0|0,2:2|2:2,2:2:0:0:
266,206,42540,2,0,P|302:241|300:292,1,105.000004005432,0|0,2:2|2:2,2:2:0:0:
344,320,43255,5,0,2:2:0:0:
216,344,43612,1,0,2:2:0:0:
104,264,43969,1,0,2:2:0:0:
120,152,44326,2,0,B|160:200|192:208|192:208|272:112|216:152|216:152|200:88|192:208|192:208|216:224|304:224,1,420.000016021729,0|0,2:2|2:2,2:2:0:0:
184,72,57183,6,0,L|152:136,1,70.0000026702882,0|0,2:2|2:2,2:2:0:0:
336,72,57540,2,0,L|368:136,1,70.0000026702882,0|0,2:2|2:2,2:2:0:0:
226,152,57898,6,0,L|296:152,1,70.0000026702882,0|0,2:2|2:2,2:2:0:0:
294,272,58255,2,0,L|224:272,1,70.0000026702882,0|0,2:2|2:2,2:2:0:0:
200,256,58612,6,0,P|168:240|160:208,1,70.0000026702882,0|0,2:2|2:2,2:2:0:0:
224,104,58969,6,0,P|265:90|296:104,1,70.0000026702882,0|0,2:2|2:2,2:2:0:0:
352,208,59326,6,0,P|342:241|312:256,1,70.0000026702882,0|0,2:2|2:2,2:2:0:0:
280,328,59683,5,0,2:2:0:0:
224,328,59802,1,0,2:2:0:0:
176,312,60040,2,0,P|128:288|104:240,1,105.000004005432,0|0,2:2|2:2,2:2:0:0:
104,152,60755,2,0,P|128:106|175:84,1,105.000004005432,0|0,2:2|2:2,2:2:0:0:
312,80,61469,2,0,P|358:102|383:147,1,105.000004005432,0|0,2:2|2:2,2:2:0:0:
382,239,62183,2,0,P|357:284|310:306,1,105.000004005432,0|0,2:2|2:2,2:2:0:0:
128,320,62898,5,0,2:2:0:0:
104,304,62987,1,0,2:2:0:0:
88,280,63076,1,0,2:2:0:0:
80,256,63165,1,0,2:2:0:0:
88,232,63255,1,0,2:2:0:0:
104,216,63344,1,0,2:2:0:0:
128,208,63433,5,0,2:2:0:0:
152,208,63523,1,0,2:2:0:0:
176,216,63612,1,0,2:2:0:0:
200,232,63701,1,0,2:2:0:0:
224,248,63790,1,0,2:2:0:0:
248,264,63880,5,0,2:2:0:0:
272,272,63969,1,0,2:2:0:0:
296,280,64058,1,0,2:2:0:0:
320,280,64148,1,0,2:2:0:0:
344,280,64237,1,0,2:2:0:0:
368,272,64326,1,0,2:2:0:0:
392,256,64415,5,0,2:2:0:0:
408,240,64505,1,0,2:2:0:0:
424,224,64594,1,0,2:2:0:0:
440,200,64683,1,0,2:2:0:0:
448,176,64773,1,0,2:2:0:0:
448,152,64862,1,0,2:2:0:0:
440,128,64951,5,0,2:2:0:0:
424,104,65040,1,0,2:2:0:0:
400,88,65130,1,0,2:2:0:0:
376,80,65219,1,0,2:2:0:0:
352,80,65308,1,0,2:2:0:0:
328,88,65398,1,0,2:2:0:0:
312,104,65487,5,0,2:2:0:0:
296,128,65576,1,0,2:2:0:0:
288,152,65665,1,0,2:2:0:0:
280,176,65755,1,0,2:2:0:0:
264,200,65844,1,0,2:2:0:0:
240,224,65933,5,0,2:2:0:0:
200,232,66023,1,0,2:2:0:0:
160,216,66112,1,0,2:2:0:0:
136,184,66201,1,0,2:2:0:0:
136,144,66290,1,0,2:2:0:0:
152,104,66380,1,0,2:2:0:0:
184,88,66469,1,0,2:2:0:0:
224,88,66558,1,0,2:2:0:0:
272,112,66648,5,0,2:2:0:0:
296,160,66737,1,0,2:2:0:0:
336,200,66826,1,0,2:2:0:0:
384,208,66915,1,0,2:2:0:0:
440,200,67005,1,0,2:2:0:0:
464,152,67094,1,0,2:2:0:0:
464,96,67183,2,0,P|464:80|440:64,3,26.2500010013581,0|0|0|0,2:2|2:2|2:2|2:2,2:2:0:0:
384,64,67540,2,0,P|377:52|378:39,4,26.2500010013581,0|0|0|0|0,2:2|2:2|2:2|2:2|2:2,2:2:0:0:
312,88,68612,5,0,2:2:0:0:
200,296,68731,1,0,2:2:0:0:
200,88,68850,1,0,2:2:0:0:
312,296,68969,1,0,2:2:0:0:
128,192,69088,1,0,2:2:0:0:
376,192,69207,1,0,2:2:0:0:
424,64,69326,5,0,2:2:0:0:
384,296,69445,1,0,2:2:0:0:
232,80,69564,5,0,2:2:0:0:
288,304,69682,1,0,2:2:0:0:
144,80,69802,5,0,2:2:0:0:
144,304,69921,1,0,2:2:0:0:
230,76,70040,5,0,2:2:0:0:
282,306,70159,1,0,2:2:0:0:
146,150,70278,1,0,2:2:0:0:
366,232,70397,1,0,2:2:0:0:
159,275,70516,1,0,2:2:0:0:
347,113,70635,1,0,2:2:0:0:
400,112,70755,6,0,L|360:96,3,23.3333333333333,0|0|0|0,2:2|2:2|2:2|2:2,2:2:0:0:
312,160,71111,6,0,L|272:144,3,23.3333333333333,0|0|0|0,2:2|2:2|2:2|2:2,2:2:0:0:
176,112,71469,5,0,2:2:0:0:
289,305,71588,1,0,2:2:0:0:
300,100,71707,1,0,2:2:0:0:
159,242,71826,1,0,2:2:0:0:
369,225,71945,1,0,2:2:0:0:
256,80,72064,5,0,2:2:0:0:
200,296,72183,1,0,2:2:0:0:
352,159,72302,1,0,2:2:0:0:
152,160,72421,1,0,2:2:0:0:
312,296,72540,1,0,2:2:0:0:
335,112,72660,5,0,2:2:0:0:
142,225,72779,1,0,2:2:0:0:
346,237,72898,1,0,2:2:0:0:
205,95,73017,1,0,2:2:0:0:
222,305,73136,1,0,2:2:0:0:
368,191,73255,5,0,2:2:0:0:
152,134,73374,1,0,2:2:0:0:
287,287,73493,1,0,2:2:0:0:
288,87,73612,1,0,2:2:0:0:
152,247,73731,1,0,2:2:0:0:
256,250,73850,5,0,2:2:0:0:
245,139,73969,1,0,2:2:0:0:
196,202,74088,5,0,2:2:0:0:
305,185,74207,1,0,2:2:0:0:
400,114,74326,5,0,2:2:0:0:
407,182,74445,1,0,2:2:0:0:
312,104,74564,5,0,2:2:0:0:
320,208,74683,1,0,2:2:0:0:
224,96,74802,5,0,2:2:0:0:
240,248,74921,1,0,2:2:0:0:
120,88,75040,5,0,2:2:0:0:
144,288,75159,1,0,2:2:0:0:
98,231,75279,5,0,2:2:0:0:
99,162,75398,1,0,2:2:0:0:
192,240,75517,5,0,2:2:0:0:
192,136,75636,1,0,2:2:0:0:
280,264,75755,5,0,2:2:0:0:
272,112,75874,1,0,2:2:0:0:
376,296,75993,5,0,2:2:0:0:
368,96,76112,1,0,2:2:0:0:
464,312,76231,5,0,2:2:0:0:
456,80,76350,1,0,2:2:0:0:
456,112,76468,2,0,P|464:160|432:200,1,93.3333333333333,0|0,2:2|2:2,2:2:0:0:
360,152,76945,5,0,2:2:0:0:
160,224,77064,1,0,2:2:0:0:
176,128,77183,5,0,2:2:0:0:
344,248,77302,1,0,2:2:0:0:
352,80,77421,5,0,2:2:0:0:
160,296,77540,1,0,2:2:0:0:
295,296,77660,5,0,2:2:0:0:
224,95,77779,1,0,2:2:0:0:
320,111,77898,5,0,2:2:0:0:
200,280,78017,1,0,2:2:0:0:
368,288,78136,5,0,2:2:0:0:
152,96,78255,1,0,2:2:0:0:
152,231,78374,5,0,2:2:0:0:
353,160,78493,1,0,2:2:0:0:
337,256,78612,5,0,2:2:0:0:
168,136,78731,1,0,2:2:0:0:
160,304,78850,5,0,2:2:0:0:
352,88,78969,1,0,2:2:0:0:
272,56,79088,5,0,2:2:0:0:
248,320,79207,1,0,2:2:0:0:
168,136,79326,1,0,2:2:0:0:
152,88,80040,5,8,2:2:0:0:
298,338,80159,1,8,2:2:0:0:
313,72,80278,1,8,2:2:0:0:
129,256,80397,1,8,2:2:0:0:
402,234,80516,1,8,2:2:0:0:
256,43,80636,5,8,2:2:0:0:
181,325,80755,1,8,2:2:0:0:
380,147,80874,1,8,2:2:0:0:
120,147,80993,1,8,2:2:0:0:
328,325,81112,1,8,2:2:0:0:
359,86,81231,5,8,2:2:0:0:
109,234,81350,1,8,2:2:0:0:
375,247,81469,1,8,2:2:0:0:
191,64,81588,1,8,2:2:0:0:
213,338,81707,1,8,2:2:0:0:
402,192,81826,5,8,2:2:0:0:
120,117,81945,1,8,2:2:0:0:
298,316,82064,1,8,2:2:0:0:
298,56,82183,1,8,2:2:0:0:
120,264,82302,1,8,2:2:0:0:
359,295,82421,5,8,2:2:0:0:
213,45,82540,1,8,2:2:0:0:
198,311,82659,1,8,2:2:0:0:
382,125,82778,1,8,2:2:0:0:
109,149,82897,1,8,2:2:0:0:
360,295,83016,5,8,2:2:0:0:
153,88,83135,1,8,2:2:0:0:
399,229,83254,5,8,2:2:0:0:
115,153,83373,1,8,2:2:0:0:
399,153,83492,5,8,2:2:0:0:
115,229,83611,1,8,2:2:0:0:
360,86,83730,5,8,2:2:0:0:
153,295,83849,1,8,2:2:0:0:
295,49,83968,5,8,2:2:0:0:
219,333,84087,1,8,2:2:0:0:
219,49,84206,5,8,2:2:0:0:
295,333,84325,1,8,2:2:0:0:
153,86,84444,5,8,2:2:0:0:
362,294,84563,1,8,2:2:0:0:
115,153,84682,5,8,2:2:0:0:
399,229,84801,1,8,2:2:0:0:
116,228,84920,5,8,2:2:0:0:
399,153,85039,1,8,2:2:0:0:
154,294,85158,5,8,2:2:0:0:
362,86,85277,1,8,2:2:0:0:
219,333,85396,5,8,2:2:0:0:
294,47,85515,1,8,2:2:0:0:
296,332,85634,5,8,2:2:0:0:
219,47,85753,1,8,2:2:0:0:
362,294,85872,5,8,2:2:0:0:
153,86,85991,1,8,2:2:0:0:
399,227,86111,5,8,2:2:0:0:
115,151,86230,1,8,2:2:0:0:
359,295,86349,5,8,2:2:0:0:
213,45,86468,1,8,2:2:0:0:
198,311,86587,1,8,2:2:0:0:
382,125,86706,1,8,2:2:0:0:
109,149,86825,1,8,2:2:0:0:
397,229,86944,5,8,2:2:0:0:
144,85,87063,1,8,2:2:0:0:
265,323,87182,1,8,2:2:0:0:
331,71,87301,1,8,2:2:0:0:
106,227,87420,1,8,2:2:0:0:
397,153,87539,5,8,2:2:0:0:
106,155,87658,1,8,2:2:0:0:
330,301,87777,1,8,2:2:0:0:
261,49,87896,1,8,2:2:0:0:
144,297,88015,1,8,2:2:0:0:
359,86,88135,5,8,2:2:0:0:
109,233,88254,1,8,2:2:0:0:
375,247,88373,1,8,2:2:0:0:
189,65,88492,1,8,2:2:0:0:
213,338,88611,1,8,2:2:0:0:
233,206,88730,5,0,0:0:0:0:
255,165,88849,1,0,0:0:0:0:
279,204,88968,1,0,0:0:0:0:
202,193,89087,5,0,0:0:0:0:
281,144,89206,1,0,0:0:0:0:
284,237,89325,1,0,0:0:0:0:
196,160,89444,5,0,0:0:0:0:
313,156,89563,1,0,0:0:0:0:
258,259,89682,1,0,0:0:0:0:
211,120,89801,5,0,0:0:0:0:
340,189,89920,1,0,0:0:0:0:
216,266,90039,1,0,0:0:0:0:
252,86,90158,5,0,0:0:0:0:
348,241,90277,1,0,0:0:0:0:
166,247,90396,1,0,0:0:0:0:
317,75,90516,5,0,0:0:0:0:
325,303,90635,1,0,0:0:0:0:
124,196,90754,1,0,0:0:0:0:
395,104,90873,5,0,0:0:0:0:
261,356,90992,1,0,0:0:0:0:
110,114,91111,1,0,0:0:0:0:
461,183,91230,5,0,0:0:0:0:
158,372,91349,1,0,0:0:0:0:
146,16,91468,1,0,0:0:0:0:
279,206,91587,5,0,0:0:0:0:
257,165,91706,1,0,0:0:0:0:
233,204,91825,1,0,0:0:0:0:
310,193,91944,5,0,0:0:0:0:
231,144,92063,1,0,0:0:0:0:
228,237,92182,1,0,0:0:0:0:
316,160,92301,5,0,0:0:0:0:
199,156,92420,1,0,0:0:0:0:
254,259,92539,1,0,0:0:0:0:
301,120,92658,5,0,0:0:0:0:
172,189,92777,1,0,0:0:0:0:
296,266,92896,1,0,0:0:0:0:
260,86,93015,5,0,0:0:0:0:
164,241,93134,1,0,0:0:0:0:
346,247,93253,1,0,0:0:0:0:
195,75,93373,5,0,0:0:0:0:
187,303,93492,1,0,0:0:0:0:
388,196,93611,1,0,0:0:0:0:
117,104,93730,5,0,0:0:0:0:
251,356,93849,1,0,0:0:0:0:
402,114,93968,1,0,0:0:0:0:
50,183,94087,5,0,0:0:0:0:
353,372,94206,1,0,0:0:0:0:
365,16,94325,1,0,0:0:0:0:
233,206,94444,5,0,0:0:0:0:
255,165,94563,1,0,0:0:0:0:
279,204,94682,1,0,0:0:0:0:
202,193,94801,5,0,0:0:0:0:
281,144,94920,1,0,0:0:0:0:
284,237,95039,1,0,0:0:0:0:
196,160,95158,5,0,0:0:0:0:
313,156,95277,1,0,0:0:0:0:
258,259,95396,1,0,0:0:0:0:
211,120,95515,5,0,0:0:0:0:
340,189,95634,1,0,0:0:0:0:
216,266,95753,1,0,0:0:0:0:
252,86,95872,5,0,0:0:0:0:
348,241,95991,1,0,0:0:0:0:
166,247,96110,1,0,0:0:0:0:
317,75,96230,5,0,0:0:0:0:
325,303,96349,1,0,0:0:0:0:
124,196,96468,1,0,0:0:0:0:
395,104,96587,5,0,0:0:0:0:
261,356,96706,1,0,0:0:0:0:
110,114,96825,1,0,0:0:0:0:
462,183,96944,5,0,0:0:0:0:
159,372,97063,1,0,0:0:0:0:
147,16,97182,1,0,0:0:0:0:
279,206,97301,5,0,0:0:0:0:
257,165,97420,1,0,0:0:0:0:
233,204,97539,1,0,0:0:0:0:
310,193,97658,5,0,0:0:0:0:
231,144,97777,1,0,0:0:0:0:
228,237,97896,1,0,0:0:0:0:
316,160,98015,5,0,0:0:0:0:
199,156,98134,1,0,0:0:0:0:
254,259,98253,1,0,0:0:0:0:
301,120,98372,5,0,0:0:0:0:
172,189,98491,1,0,0:0:0:0:
296,266,98610,1,0,0:0:0:0:
260,86,98729,5,0,0:0:0:0:
164,241,98848,1,0,0:0:0:0:
346,247,98967,1,0,0:0:0:0:
195,75,99087,5,0,0:0:0:0:
187,303,99206,1,0,0:0:0:0:
388,196,99325,1,0,0:0:0:0:
117,104,99444,5,0,0:0:0:0:
251,356,99563,1,0,0:0:0:0:
402,114,99682,1,0,0:0:0:0:
50,183,99801,5,0,0:0:0:0:
353,372,99920,1,0,0:0:0:0:
365,16,100039,1,0,0:0:0:0:
233,206,100158,5,0,0:0:0:0:
255,165,100277,1,0,0:0:0:0:
279,204,100396,1,0,0:0:0:0:
202,193,100515,5,0,0:0:0:0:
281,144,100634,1,0,0:0:0:0:
284,237,100753,1,0,0:0:0:0:
196,160,100872,5,0,0:0:0:0:
313,156,100991,1,0,0:0:0:0:
258,259,101110,1,0,0:0:0:0:
211,120,101229,5,0,0:0:0:0:
340,189,101348,1,0,0:0:0:0:
216,266,101467,1,0,0:0:0:0:
279,206,101587,5,0,0:0:0:0:
257,165,101706,1,0,0:0:0:0:
233,204,101825,1,0,0:0:0:0:
310,193,101944,5,0,0:0:0:0:
231,144,102063,1,0,0:0:0:0:
228,237,102182,1,0,0:0:0:0:
316,160,102301,5,0,0:0:0:0:
199,156,102420,1,0,0:0:0:0:
254,259,102539,1,0,0:0:0:0:
301,120,102658,5,0,0:0:0:0:
172,189,102777,1,0,0:0:0:0:
156,264,102896,6,0,B|104:248|48:192|48:192|160:104|232:88|320:88|376:116|464:184|464:184|416:264|352:288|268:280|220:272|220:272|200:224|196:184|240:136|304:136|344:196|312:248|312:248,1,1120,0|0,2:2|2:2,2:2:0:0:
