osu file format v14

[General]
AudioFilename: audio.mp3
AudioLeadIn: 0
PreviewTime: 47905
Countdown: 0
SampleSet: Soft
StackLeniency: 0.7
Mode: 0
LetterboxInBreaks: 0
WidescreenStoryboard: 1

[Editor]
Bookmarks: 22462,55120
DistanceSpacing: 0.6
BeatDivisor: 4
GridSize: 8
TimelineZoom: 1.3

[Metadata]
Title:Kibou ni Tsuite (TV Size)
TitleUnicode:Kibou ni Tsuite (TV Size)
Artist:NO NAME
ArtistUnicode:NO NAME
Creator:SevenFrenzy
Version:Normal
Source:AKB0048
Tags:idol opening AKB48 SKE48 NMB48 Satelight Sevenfrenzy
BeatmapID:1820684
BeatmapSetID:871382

[Difficulty]
HPDrainRate:3
CircleSize:3
OverallDifficulty:3
ApproachRate:5
SliderMultiplier:1.2
SliderTickRate:1

[Events]
//Background and Video events
0,0,"AKB0048.jpg",0,0
Video,1756,"AKB0048.avi"
//Break Periods
//Storyboard Layer 0 (Background)
//Storyboard Layer 1 (Fail)
//Storyboard Layer 2 (Pass)
//Storyboard Layer 3 (Foreground)
//Storyboard Layer 4 (Overlay)
//Storyboard Sound Samples

[TimingPoints]
817,379.746835443038,4,2,1,70,1,0
8411,-100,4,2,2,70,0,0
8696,-100,4,2,1,5,0,0
8886,-100,4,2,1,70,0,0
9076,-100,4,2,1,5,0,0
9266,-100,4,2,2,70,0,0
11449,-100,4,2,2,70,0,0
36323,-111.111111111111,4,2,2,70,0,0
36892,-99.9999999999999,4,2,2,70,0,0
37842,-111.111111111111,4,2,2,70,0,0
38411,-100,4,2,2,70,0,0
39361,-111.111111111111,4,2,2,70,0,0
39930,-100,4,2,2,70,0,0
40880,-111.111111111111,4,2,2,70,0,0
41449,-100,4,2,2,70,0,0
42399,-111.111111111111,4,2,2,70,0,0
42968,-100,4,2,2,70,0,0
43918,-111.111111111111,4,2,2,70,0,0
44487,-100,4,2,2,70,0,0
47905,-80,4,2,2,90,0,1
49994,-100,4,2,2,90,0,1
50563,-80,4,2,2,90,0,1
53032,-100,4,2,2,90,0,1
53601,-80,4,2,2,90,0,1
59108,-80,4,2,1,90,0,1
60057,-80,4,2,2,90,0,1
62146,-100,4,2,2,90,0,1
62715,-80,4,2,2,80,0,1
65184,-100,4,2,2,90,0,1
65753,-80,4,2,2,90,0,1
72209,-100,4,2,2,70,0,0
75247,-133.333333333333,4,2,2,70,0,0
76386,-100,4,2,2,70,0,0
76576,-133.333333333333,4,2,2,70,0,0

[Colours]
Combo1 : 255,0,255
Combo2 : 128,0,255
Combo3 : 255,0,128
Combo4 : 0,255,255

[HitObjects]
152,120,2335,5,2,0:0:0:0:
152,120,2905,1,2,0:0:0:0:
152,120,3475,1,2,0:0:0:0:
328,128,3854,5,2,0:0:0:0:
328,128,4424,1,2,0:0:0:0:
328,128,4994,1,2,0:0:0:0:
336,280,5373,5,2,0:0:0:0:
336,280,5943,1,2,0:0:0:0:
336,280,6513,1,2,0:0:0:0:
152,280,6892,5,2,0:0:0:0:
160,288,7462,1,2,0:0:0:0:
160,288,8032,1,2,0:0:0:0:
32,200,8411,6,0,P|64:176|208:136,2,180,10|10|0,0:0|0:0|0:0,0:0:0:0:
32,304,9741,2,0,B|144:304|144:304|128:256|128:256|288:256|288:256|264:304|264:304|448:304,1,540,10|2,0:0|0:0,0:0:0:0:
376,152,12209,5,0,0:0:0:0:
360,240,12589,1,10,0:0:0:0:
288,296,12968,1,0,0:0:0:0:
200,296,13348,1,10,0:0:0:0:
128,240,13728,1,0,0:0:0:0:
128,152,14108,1,10,0:0:0:0:
192,96,14487,1,0,0:0:0:0:
304,64,14867,5,10,0:0:0:0:
304,64,15057,2,0,L|432:64,1,120
376,144,15627,2,0,L|248:144,1,120,10|0,0:0|0:0,0:0:0:0:
376,64,16386,5,10,0:0:0:0:
376,64,16576,2,0,P|304:64|280:104,1,120
264,136,17146,2,0,P|240:168|160:184,1,120,10|0,0:0|0:0,0:0:0:0:
128,312,17905,5,10,0:0:0:0:
128,312,18095,2,0,B|192:280|192:280|240:312,1,120
288,320,18665,2,0,B|360:320|360:320|400:280,1,120,10|0,0:0|0:0,0:0:0:0:
432,176,19424,5,10,0:0:0:0:
432,136,19614,2,0,B|368:136|368:136|304:96,1,120
288,88,20184,2,0,B|224:104|224:104|168:144,1,120,10|0,0:0|0:0,0:0:0:0:
88,224,20943,5,10,0:0:0:0:
88,224,21133,2,0,L|216:224,1,120
304,288,21703,2,0,P|376:288|424:264,1,120,10|0,0:0|0:0,0:0:0:0:
448,160,22462,5,10,0:0:0:0:
448,136,22652,2,0,P|424:96|344:64,1,120
336,56,23222,2,0,L|192:56,1,120,10|0,0:0|0:0,0:0:0:0:
144,136,23981,5,10,0:0:0:0:
144,136,24171,2,0,L|264:184,1,120
288,200,24741,2,0,P|336:224|368:296,1,120,10|0,0:0|0:0,0:0:0:0:
280,344,25500,5,10,0:0:0:0:
280,344,25690,2,0,P|232:328|208:256,1,120
208,176,26260,2,0,P|232:120|304:104,1,120,10|0,0:0|0:0,0:0:0:0:
360,72,27019,5,10,0:0:0:0:
392,88,27209,2,0,B|416:152|416:152|400:208,1,120
368,216,27779,2,0,B|312:192|312:192|256:216,1,120,10|0,0:0|0:0,0:0:0:0:
136,304,28538,5,10,0:0:0:0:
136,304,28728,2,0,L|256:304,1,120
352,304,29298,2,0,L|464:224,1,120,10|0,0:0|0:0,0:0:0:0:
480,152,30057,5,10,0:0:0:0:
480,152,30247,2,0,P|408:144|344:152,1,120
272,168,30817,1,10,0:0:0:0:
256,192,31196,12,0,34994,0:0:0:0:
40,168,35753,6,0,P|88:144|152:168,1,120,0|10,0:0|0:0,0:0:0:0:
160,200,36323,2,0,P|208:224|296:176,1,161.999995056153,0|10,0:0|0:0,0:0:0:0:
376,104,37272,6,0,P|416:128|448:192,1,120,0|10,0:0|0:0,0:0:0:0:
336,208,37842,2,0,P|344:240|464:304,1,161.999995056153,0|10,0:0|0:0,0:0:0:0:
288,320,38791,6,0,L|152:320,1,120,0|10,0:0|0:0,0:0:0:0:
64,224,39361,2,0,L|232:224,1,161.999995056153,0|10,0:0|0:0,0:0:0:0:
392,216,40310,6,0,P|432:184|448:120,1,120,0|10,0:0|0:0,0:0:0:0:
448,56,40880,2,0,P|360:40|280:56,1,161.999995056153,0|10,0:0|0:0,0:0:0:0:
144,160,41829,6,0,P|104:192|88:256,1,120,0|10,0:0|0:0,0:0:0:0:
88,320,42399,2,0,P|176:336|248:320,1,161.999995056153,0|10,0:0|0:0,0:0:0:0:
416,208,43348,6,0,P|400:176|320:112,1,120,0|10,0:0|0:0,0:0:0:0:
288,96,43918,2,0,P|248:96|136:144,1,161.999995056153,0|10,0:0|0:0,0:0:0:0:
256,192,44867,12,0,47146,0:0:0:0:
168,232,47905,5,0,0:0:0:0:
232,296,48285,1,10,0:0:0:0:
320,296,48665,1,0,0:0:0:0:
384,232,49044,1,10,0:0:0:0:
392,144,49424,2,0,P|352:104|256:136,1,150,0|10,0:0|0:0,0:0:0:0:
240,144,49994,2,0,P|144:152|104:72,1,180,0|10,0:0|0:0,0:0:0:0:
416,192,50943,5,0,0:0:0:0:
352,128,51323,1,10,0:0:0:0:
264,128,51703,1,0,0:0:0:0:
200,192,52082,1,10,0:0:0:0:
191,276,52462,2,0,P|231:308|327:260,1,150,0|10,0:0|0:0,0:0:0:0:
344,256,53032,2,0,P|440:232|488:304,1,180,0|10,0:0|0:0,0:0:0:0:
296,312,53981,5,0,0:0:0:0:
208,312,54361,1,10,0:0:0:0:
136,256,54741,1,0,0:0:0:0:
136,168,55120,2,0,P|184:128|272:160,1,150,10|0,0:0|0:0,0:0:0:0:
296,176,55690,2,0,P|376:200|432:144,1,150
408,80,56449,1,0,0:0:0:0:
408,80,56639,1,8,0:0:0:0:
408,80,56829,6,0,L|328:24,1,75
248,104,57209,2,0,L|168:64,2,75,0|10|0,0:0|0:0|0:0,0:0:0:0:
120,200,57968,2,0,L|32:200,2,75,0|10|0,0:0|0:0|0:0,0:0:0:0:
248,280,58728,2,0,L|168:320,2,75,0|10|0,0:0|0:0|0:0,0:0:0:0:
288,144,59677,5,2,0:0:0:0:
400,48,60057,2,0,P|424:88|440:192,1,150,0|10,0:0|0:0,0:0:0:0:
384,320,60817,1,0,0:0:0:0:
384,320,61196,1,10,0:0:0:0:
232,336,61576,2,0,P|184:296|112:344,1,150,0|10,0:0|0:0,0:0:0:0:
56,328,62146,2,0,P|32:288|56:136,1,180,0|10,0:0|0:0,0:0:0:0:
376,320,63095,5,0,0:0:0:0:
456,208,63475,1,10,0:0:0:0:
416,96,63855,1,0,0:0:0:0:
304,40,64234,1,10,0:0:0:0:
304,40,64614,2,0,P|256:80|184:32,1,150,0|10,0:0|0:0,0:0:0:0:
136,48,65184,2,0,P|112:88|136:240,1,180,0|10,0:0|0:0,0:0:0:0:
256,272,66133,5,0,0:0:0:0:
256,272,66513,1,10,0:0:0:0:
384,168,66892,1,0,0:0:0:0:
384,168,67272,1,10,0:0:0:0:
256,88,67652,2,0,P|192:80|112:120,1,150,0|10,0:0|0:0,0:0:0:0:
64,176,68222,1,0,0:0:0:0:
168,264,68601,5,0,0:0:0:0:
168,264,68791,2,0,L|168:344,2,75,10|0|0,0:0|0:0|0:0,0:0:0:0:
320,240,69361,1,0,0:0:0:0:
320,240,69551,1,10,0:0:0:0:
320,240,69741,1,0,0:0:0:0:
384,112,70120,5,0,0:0:0:0:
384,112,70310,2,0,L|384:32,2,75,10|0|0,0:0|0:0|0:0,0:0:0:0:
224,120,70880,1,0,0:0:0:0:
224,120,71070,1,10,0:0:0:0:
224,120,71260,1,0,0:0:0:0:
224,256,71639,2,0,L|224:360,2,75,0|10|0,0:0|0:0|0:0,0:0:0:0:
256,192,72399,12,0,73728,0:0:0:0:
176,168,74487,5,0,0:0:0:0:
216,128,74867,1,0,0:0:0:0:
248,96,75247,2,0,P|315:64|433:195,1,270.000010299683
432,224,76576,6,0,B|392:280|392:280|352:224|352:224|312:280|312:280|272:224|272:224|232:280|232:280|200:224,1,405.000015449524
