osu file format v14

[General]
AudioFilename: audio.mp3
AudioLeadIn: 0
PreviewTime: 47905
Countdown: 0
SampleSet: Soft
StackLeniency: 0.7
Mode: 0
LetterboxInBreaks: 0
WidescreenStoryboard: 1

[Editor]
DistanceSpacing: 0.6
BeatDivisor: 4
GridSize: 16
TimelineZoom: 1.3

[Metadata]
Title:Kibou ni Tsuite (TV Size)
TitleUnicode:Kibou ni Tsuite (TV Size)
Artist:NO NAME
ArtistUnicode:NO NAME
Creator:SevenFrenzy
Version:Hard
Source:AKB0048
Tags:idol opening AKB48 SKE48 NMB48 Satelight Sevenfrenzy
BeatmapID:1820682
BeatmapSetID:871382

[Difficulty]
HPDrainRate:5
CircleSize:3.8
OverallDifficulty:6
ApproachRate:8
SliderMultiplier:1.4
SliderTickRate:1

[Events]
//Background and Video events
0,0,"AKB0048.jpg",0,0
Video,1756,"AKB0048.avi"
//Break Periods
//Storyboard Layer 0 (Background)
//Storyboard Layer 1 (Fail)
//Storyboard Layer 2 (Pass)
//Storyboard Layer 3 (Foreground)
//Storyboard Layer 4 (Overlay)
//Storyboard Sound Samples

[TimingPoints]
817,379.746835443038,4,2,1,70,1,0
2335,-133.333333333333,4,2,1,70,0,0
2715,-133.333333333333,4,2,1,5,0,0
2905,-133.333333333333,4,2,1,70,0,0
3095,-133.333333333333,4,2,1,5,0,0
3475,-133.333333333333,4,2,1,70,0,0
4234,-133.333333333333,4,2,1,5,0,0
4424,-133.333333333333,4,2,1,70,0,0
4614,-133.333333333333,4,2,1,5,0,0
4994,-133.333333333333,4,2,1,70,0,0
5753,-133.333333333333,4,2,1,5,0,0
5943,-133.333333333333,4,2,1,70,0,0
6133,-133.333333333333,4,2,1,5,0,0
6513,-133.333333333333,4,2,1,70,0,0
7272,-133.333333333333,4,2,1,5,0,0
7462,-133.333333333333,4,2,1,70,0,0
7652,-133.333333333333,4,2,1,5,0,0
8032,-100,4,2,2,70,0,0
32715,-100,4,2,2,70,0,0
47146,-83.3333333333333,4,2,2,70,0,0
47905,-76.9230769230769,4,2,2,90,0,1
57209,-86.9565217391304,4,2,2,90,0,1
59108,-76.9230769230769,4,2,2,90,0,1
72209,-76.9230769230769,4,2,2,80,0,0

[Colours]
Combo1 : 255,0,255
Combo2 : 128,0,255
Combo3 : 255,0,128
Combo4 : 0,255,255

[HitObjects]
192,160,2335,6,0,P|112:96|48:96,2,157.500006008148,2|2|2,0:0|0:0|0:0,0:0:0:0:
320,160,3854,6,0,P|400:96|464:96,2,157.500006008148,2|2|2,0:0|0:0|0:0,0:0:0:0:
320,256,5373,6,0,P|400:320|464:320,2,157.500006008148,2|2|2,0:0|0:0|0:0,0:0:0:0:
192,256,6892,6,0,P|112:320|48:320,2,157.500006008148,2|2|2,0:0|0:0|0:0,0:0:0:0:
256,192,8222,1,0,0:0:0:0:
256,192,8317,1,0,0:0:0:0:
256,192,8411,1,10,0:0:0:0:
384,96,8791,2,0,L|384:176,1,70,10|10,0:0|0:0,0:0:0:0:
256,192,9361,1,0,0:0:0:0:
256,192,9551,2,0,L|256:272,1,70,10|10,0:0|0:0,0:0:0:0:
256,192,9930,12,0,11449,0:0:0:0:
400,192,12399,5,0,0:0:0:0:
400,192,12494,1,0,0:0:0:0:
400,192,12589,2,0,L|368:112,1,70,10|0,0:0|0:0,0:0:0:0:
297,128,12968,1,0,0:0:0:0:
224,128,13158,2,0,P|160:96|96:128,2,140,0|4|0,0:0|0:0|0:0,0:0:0:0:
352,256,14298,1,4,0:0:0:0:
352,256,14487,6,0,L|192:256,1,140,10|0,0:0|0:0,0:0:0:0:
80,144,15057,2,0,L|224:144,1,140,10|0,0:0|0:0,0:0:0:0:
368,144,15627,2,0,P|416:160|496:240,1,140,10|10,0:0|0:0,0:0:0:0:
400,304,16386,2,0,L|336:352,1,70,0|10,0:0|0:0,0:0:0:0:
144,272,16956,5,0,0:0:0:0:
144,192,17146,1,8,0:0:0:0:
144,112,17335,1,0,0:0:0:0:
144,112,17525,2,0,P|192:64|272:48,1,140,6|0,0:0|0:0,0:0:0:0:
260,47,18095,1,4,0:0:0:0:
448,112,18475,5,0,0:0:0:0:
432,208,18665,1,8,0:0:0:0:
368,272,18854,1,0,0:0:0:0:
368,272,19044,2,0,P|304:288|224:288,1,140,6|0,0:0|0:0,0:0:0:0:
230,288,19614,1,4,0:0:0:0:
144,192,19994,6,0,L|224:192,1,70,0|10,0:0|0:0,0:0:0:0:
368,192,20373,1,0,0:0:0:0:
368,192,20563,2,0,L|432:128,1,70,6|0,0:0|0:0,0:0:0:0:
263,142,20943,2,0,L|199:206,1,70,10|4,0:0|0:0,0:0:0:0:
304,256,21323,2,0,L|384:256,1,70
256,144,21703,2,0,L|176:144,1,70,10|0,0:0|0:0,0:0:0:0:
64,240,22082,6,0,P|112:272|208:288,1,140,10|0,0:0|0:0,0:0:0:0:
416,176,22652,2,0,P|368:144|272:128,1,140,10|0,0:0|0:0,0:0:0:0:
112,160,23222,2,0,P|96:208|112:240,1,70,8|0,0:0|0:0,0:0:0:0:
160,288,23601,1,4,0:0:0:0:
256,304,23791,5,0,0:0:0:0:
256,304,23886,1,0,0:0:0:0:
256,304,23981,1,10,0:0:0:0:
320,256,24171,1,0,0:0:0:0:
368,192,24361,2,0,P|384:144|368:112,1,70
288,48,24741,2,0,P|272:96|288:128,1,70,10|0,0:0|0:0,0:0:0:0:
368,192,25120,6,0,P|416:256|416:336,1,140,0|10,0:0|0:0,0:0:0:0:
320,256,25690,2,0,P|272:192|272:112,1,140
266,134,26260,1,10,0:0:0:0:
160,176,26449,1,0,0:0:0:0:
160,176,26639,2,0,P|144:208|144:256,1,70
320,224,27019,2,0,P|336:192|336:144,1,70,10|0,0:0|0:0,0:0:0:0:
224,96,27399,2,0,L|144:96,1,70
304,32,27779,2,0,L|384:32,1,70,10|0,0:0|0:0,0:0:0:0:
448,144,28158,6,0,L|448:288,1,140,10|0,0:0|0:0,0:0:0:0:
304,240,28728,2,0,L|304:96,1,140,10|0,0:0|0:0,0:0:0:0:
208,48,29298,2,0,P|144:48|128:64,1,70,10|0,0:0|0:0,0:0:0:0:
48,144,29677,2,0,P|48:224|160:288,1,210,6|6,0:0|0:0,0:0:0:0:
256,320,30627,1,0,0:0:0:0:
368,288,30817,2,0,P|416:256|416:176,1,140,6|4,0:0|0:0,0:0:0:0:
368,64,31576,2,0,P|336:48|288:64,1,70,6|0,0:0|0:0,0:0:0:0:
320,128,31956,6,0,P|272:144|192:128,2,105,0|4|0,0:0|0:0|0:0,0:0:0:0:
144,224,32715,2,0,P|208:240|304:224,1,140,4|10,0:0|0:0,0:0:0:0:
416,224,33285,1,0,0:0:0:0:
416,224,33380,1,0,0:0:0:0:
416,224,33475,1,0,0:0:0:0:
384,96,33665,1,0,0:0:0:0:
384,96,33854,1,10,0:0:0:0:
208,80,34044,5,0,0:0:0:0:
208,80,34234,2,0,L|64:80,1,140,6|10,0:0|0:0,0:0:0:0:
208,224,34804,2,0,L|352:224,1,140,6|0,0:0|0:0,0:0:0:0:
432,144,35373,5,10,0:0:0:0:
384,80,35563,1,0,0:0:0:0:
304,80,35753,2,0,P|240:80|144:112,1,140,6|10,0:0|0:0,0:0:0:0:
256,256,36323,2,0,P|320:256|416:224,1,140,6|0,0:0|0:0,0:0:0:0:
448,128,36892,5,10,0:0:0:0:
448,128,37082,1,0,0:0:0:0:
304,80,37272,2,0,L|320:240,1,140,4|10,0:0|0:0,0:0:0:0:
176,208,37842,2,0,L|160:352,1,140,4|0,0:0|0:0,0:0:0:0:
400,160,38411,5,10,0:0:0:0:
400,240,38601,1,0,0:0:0:0:
352,304,38791,2,0,P|304:320|272:320,1,70,6|0,0:0|0:0,0:0:0:0:
144,288,39171,1,8,0:0:0:0:
144,288,39361,2,0,P|96:208|112:160,1,140,4|0,0:0|0:0,0:0:0:0:
224,48,39930,1,8,0:0:0:0:
352,112,40120,2,0,P|400:128|448:128,2,70,0|4|0,0:0|0:0|0:0,0:0:0:0:
448,224,40690,5,10,0:0:0:0:
384,320,40880,2,0,P|320:336|240:320,1,140,4|0,0:0|0:0,0:0:0:0:
160,256,41449,1,8,0:0:0:0:
96,160,41829,6,0,P|144:128|240:112,1,140,6|10,0:0|0:0,0:0:0:0:
416,192,42399,2,0,P|368:224|272:240,1,140,6|0,0:0|0:0,0:0:0:0:
144,224,42968,1,10,0:0:0:0:
144,224,43158,1,0,0:0:0:0:
224,336,43348,2,0,P|288:336|320:320,1,70,6|0,0:0|0:0,0:0:0:0:
416,256,43728,2,0,P|432:208|432:176,1,70,10|6,0:0|0:0,0:0:0:0:
416,96,44108,5,2,0:0:0:0:
384,64,44203,1,2,0:0:0:0:
336,48,44298,1,2,0:0:0:0:
240,64,44487,6,0,L|208:80,4,35,10|2|2|2|2,0:0|0:0|0:0|0:0|0:0,0:0:0:0:
256,192,45057,12,0,46766,0:0:0:0:
240,160,47146,6,0,P|208:128|160:112,1,83.9999974365235,2|2,0:0|0:0,0:0:0:0:
160,208,47525,2,0,P|192:240|240:256,1,83.9999974365235,2|2,0:0|0:0,0:0:0:0:
368,240,47905,5,4,0:0:0:0:
368,240,48285,1,10,0:0:0:0:
256,304,48665,1,0,0:0:0:0:
144,240,49044,1,10,0:0:0:0:
144,240,49234,1,0,0:0:0:0:
144,240,49424,6,0,P|112:192|112:144,1,90.9999958343508
288,192,49804,2,0,P|320:240|320:288,1,90.9999958343508,10|0,0:0|0:0,0:0:0:0:
176,304,50184,1,0,0:0:0:0:
176,304,50563,5,10,0:0:0:0:
64,208,50753,1,0,0:0:0:0:
48,176,50848,1,0,0:0:0:0:
64,144,50943,6,0,L|144:80,1,90.9999958343508
304,80,51323,2,0,L|224:144,1,90.9999958343508,10|0,0:0|0:0,0:0:0:0:
352,208,51703,2,0,L|448:208,1,90.9999958343508
288,304,52082,2,0,L|192:304,1,90.9999958343508,10|0,0:0|0:0,0:0:0:0:
80,256,52462,2,0,P|128:224|176:208,2,90.9999958343508,0|0|10,0:0|0:0|0:0,0:0:0:0:
80,128,53032,2,0,P|144:96|256:80,1,181.999991668702
400,80,53601,2,0,P|432:112|432:176,1,90.9999958343508,10|0,0:0|0:0,0:0:0:0:
352,288,53981,5,0,0:0:0:0:
256,352,54361,1,10,0:0:0:0:
144,288,54741,1,0,0:0:0:0:
144,288,54930,1,0,0:0:0:0:
144,288,55120,2,0,L|224:240,1,90.9999958343508,10|0,0:0|0:0,0:0:0:0:
256,112,55500,2,0,L|144:112,2,90.9999958343508,0|0|10,0:0|0:0|0:0,0:0:0:0:
336,208,56070,2,0,L|432:208,1,90.9999958343508
384,320,56449,5,0,0:0:0:0:
384,320,56639,1,10,0:0:0:0:
384,320,56829,1,0,0:0:0:0:
208,320,57019,5,0,0:0:0:0:
208,320,57209,2,0,L|112:320,2,80.5000015354157,0|10|0,0:0|0:0|0:0,0:0:0:0:
112,128,57968,5,0,0:0:0:0:
112,128,58158,1,10,0:0:0:0:
112,128,58348,1,0,0:0:0:0:
288,128,58538,5,0,0:0:0:0:
288,128,58728,2,0,L|384:128,2,80.5000015354157,0|10|0,0:0|0:0|0:0,0:0:0:0:
192,192,59298,2,0,L|80:192,1,90.9999958343508
256,272,59677,2,0,L|368:272,1,90.9999958343508,10|0,0:0|0:0,0:0:0:0:
400,128,60057,6,0,P|352:96|304:80,1,90.9999958343508
144,96,60437,2,0,P|192:128|240:144,1,90.9999958343508,10|0,0:0|0:0,0:0:0:0:
368,224,60817,2,0,P|400:272|400:304,1,90.9999958343508
272,320,61196,2,0,P|224:304|176:336,1,90.9999958343508,10|0,0:0|0:0,0:0:0:0:
80,320,61576,2,0,P|64:272|80:224,1,90.9999958343508
128,112,61956,1,10,0:0:0:0:
128,112,62146,1,0,0:0:0:0:
128,112,62335,2,0,P|208:96|240:96,1,90.9999958343508
384,144,62715,2,0,P|304:160|272:160,1,90.9999958343508,10|0,0:0|0:0,0:0:0:0:
160,224,63095,6,0,P|112:256|32:352,2,181.999991668702,0|10|0,0:0|0:0|0:0,0:0:0:0:
304,208,64234,1,10,0:0:0:0:
304,208,64614,2,0,P|352:176|400:128,2,90.9999958343508,0|0|10,0:0|0:0|0:0,0:0:0:0:
160,256,65184,2,0,P|208:288|336:320,1,181.999991668702
432,272,65753,1,10,0:0:0:0:
432,272,65943,1,0,0:0:0:0:
432,128,66133,5,0,0:0:0:0:
288,48,66513,1,10,0:0:0:0:
144,128,66892,1,0,0:0:0:0:
144,128,67082,1,0,0:0:0:0:
144,128,67272,2,0,L|224:192,1,90.9999958343508,10|0,0:0|0:0,0:0:0:0:
224,336,67652,2,0,L|144:272,1,90.9999958343508
304,160,68032,2,0,L|384:224,2,90.9999958343508,10|0|0,0:0|0:0|0:0,0:0:0:0:
160,80,68601,5,0,0:0:0:0:
160,80,68791,1,10,0:0:0:0:
64,240,68981,2,0,P|112:272|160:272,1,90.9999958343508
352,176,69361,2,0,P|304:144|256:144,1,90.9999958343508,0|10,0:0|0:0,0:0:0:0:
160,176,69741,1,0,0:0:0:0:
256,272,69930,1,0,0:0:0:0:
384,256,70120,6,0,P|432:208|448:176,1,90.9999958343508,0|10,0:0|0:0,0:0:0:0:
384,96,70500,1,0,0:0:0:0:
384,96,70690,1,0,0:0:0:0:
224,96,70880,6,0,L|133:96,2,90.9999958343508,0|10|0,0:0|0:0|0:0,0:0:0:0:
448,192,71639,5,0,0:0:0:0:
448,272,71829,1,10,0:0:0:0:
400,336,72019,1,0,0:0:0:0:
320,352,72209,2,0,P|256:352|208:336,1,90.9999958343508
128,240,72589,2,0,P|192:240|240:256,1,90.9999958343508,10|0,0:0|0:0,0:0:0:0:
352,256,72968,2,0,P|384:224|384:176,1,90.9999958343508
352,64,73348,2,0,L|256:64,1,90.9999958343508,10|0,0:0|0:0,0:0:0:0:
64,192,73728,2,0,L|256:192,1,181.999991668702,10|10,0:0|0:0,0:0:0:0:
400,192,74487,5,10,0:0:0:0:
368,224,74867,1,10,0:0:0:0:
256,192,75247,12,10,76576,0:0:0:0:
256,192,76766,12,0,78285,0:0:0:0:
