osu file format v14

[General]
AudioFilename: audio.mp3
AudioLeadIn: 0
PreviewTime: 47905
Countdown: 0
SampleSet: Soft
StackLeniency: 0.7
Mode: 0
LetterboxInBreaks: 0
WidescreenStoryboard: 1

[Editor]
DistanceSpacing: 0.6
BeatDivisor: 2
GridSize: 8
TimelineZoom: 1.3

[Metadata]
Title:Kibou ni Tsuite (TV Size)
TitleUnicode:Kibou ni Tsuite (TV Size)
Artist:NO NAME
ArtistUnicode:NO NAME
Creator:SevenFrenzy
Version:Easy
Source:AKB0048
Tags:idol opening AKB48 SKE48 NMB48 Satelight Sevenfrenzy
BeatmapID:1820681
BeatmapSetID:871382

[Difficulty]
HPDrainRate:2
CircleSize:3
OverallDifficulty:2
ApproachRate:3
SliderMultiplier:0.6
SliderTickRate:1

[Events]
//Background and Video events
0,0,"AKB0048.jpg",0,0
Video,1756,"AKB0048.avi"
//Break Periods
//Storyboard Layer 0 (Background)
//Storyboard Layer 1 (Fail)
//Storyboard Layer 2 (Pass)
//Storyboard Layer 3 (Foreground)
//Storyboard Layer 4 (Overlay)
//Storyboard Sound Samples

[TimingPoints]
817,379.746835443038,4,2,1,70,1,0
12589,-100,4,2,2,70,0,0
47905,-76.9230769230769,4,2,2,90,0,1
72209,-100,4,2,2,70,0,0

[Colours]
Combo1 : 255,0,255
Combo2 : 128,0,255
Combo3 : 255,0,128
Combo4 : 0,255,255

[HitObjects]
80,192,2335,5,2,0:0:0:0:
184,192,3854,1,2,0:0:0:0:
288,192,5373,1,2,0:0:0:0:
392,192,6892,1,2,0:0:0:0:
256,192,8411,12,0,11449,0:0:0:0:
256,272,12589,5,4,0:0:0:0:
256,272,12968,2,0,P|320:240|352:184,1,120
256,176,14108,1,4,0:0:0:0:
256,176,14487,2,0,P|292:129|419:90,1,180,0|4,0:0|0:0,0:0:0:0:
408,184,16006,6,0,P|392:248|360:280,1,90
280,312,17146,1,4,0:0:0:0:
280,312,17525,2,0,P|200:328|88:312,1,180,0|4,0:0|0:0,0:0:0:0:
40,272,19044,2,0,P|24:216|48:96,1,180,0|4,0:0|0:0,0:0:0:0:
120,56,20563,2,0,P|176:40|256:48,1,120,0|4,0:0|0:0,0:0:0:0:
256,192,22082,12,0,23601,0:0:0:0:
256,112,24741,5,4,0:0:0:0:
256,112,25120,2,0,P|192:144|160:200,1,120
256,208,26260,1,4,0:0:0:0:
256,208,26639,2,0,P|220:255|93:294,1,180,0|4,0:0|0:0,0:0:0:0:
112,192,28158,5,0,0:0:0:0:
112,192,28728,1,0,0:0:0:0:
136,72,29298,1,4,0:0:0:0:
136,72,29677,2,0,P|216:56|328:72,1,180,0|4,0:0|0:0,0:0:0:0:
384,112,31196,2,0,P|400:168|392:240,1,120,0|4,0:0|0:0,0:0:0:0:
256,192,32715,12,0,34994,0:0:0:0:
328,120,35753,6,0,L|456:120,1,120,4|0,0:0|0:0,0:0:0:0:
448,232,36892,1,0,0:0:0:0:
448,232,37272,2,0,L|304:232,1,120,4|0,0:0|0:0,0:0:0:0:
216,232,38411,1,0,0:0:0:0:
216,232,38791,2,0,P|160:216|136:152,1,120,4|0,0:0|0:0,0:0:0:0:
248,136,39930,1,0,0:0:0:0:
248,136,40310,2,0,P|304:152|328:216,1,120,4|0,0:0|0:0,0:0:0:0:
256,320,41829,6,0,L|384:320,1,120,4|0,0:0|0:0,0:0:0:0:
440,240,42968,1,0,0:0:0:0:
440,240,43348,2,0,P|440:192|392:120,1,120,4|0,0:0|0:0,0:0:0:0:
312,64,44867,6,0,P|240:40|112:96,1,210
56,160,47146,2,0,P|48:200|64:224,1,60
128,280,47905,5,0,0:0:0:0:
128,280,48285,1,8,0:0:0:0:
216,288,48665,2,0,L|304:288,1,77.9999964294435,0|8,0:0|0:0,0:0:0:0:
392,240,49424,1,0,0:0:0:0:
392,240,49804,1,8,0:0:0:0:
336,152,50184,2,0,L|264:216,1,77.9999964294435,0|8,0:0|0:0,0:0:0:0:
176,256,50943,5,0,0:0:0:0:
176,256,51323,2,0,L|249:282,1,77.9999964294435,8|0,0:0|0:0,0:0:0:0:
320,184,52082,2,0,L|264:120,2,77.9999964294435,8|0|8,0:0|0:0|0:0,0:0:0:0:
384,264,53221,1,0,0:0:0:0:
384,264,53601,1,8,0:0:0:0:
384,264,53981,6,0,P|424:232|440:176,1,77.9999964294435,0|8,0:0|0:0,0:0:0:0:
456,104,54741,1,0,0:0:0:0:
456,104,55120,1,8,0:0:0:0:
376,40,55500,2,0,P|336:72|304:184,1,155.999992858887
312,296,56639,6,0,L|400:296,2,77.9999964294435,8|0|8,0:0|0:0|0:0,0:0:0:0:
256,296,57779,1,0,0:0:0:0:
200,296,58158,2,0,L|112:296,2,77.9999964294435,8|0|8,0:0|0:0|0:0,0:0:0:0:
256,296,59298,1,0,0:0:0:0:
384,240,60057,6,0,B|440:184|440:184|384:104,1,155.999992858887
336,64,61196,1,8,0:0:0:0:
280,128,61576,2,0,B|224:184|224:184|160:128,1,155.999992858887
112,72,62715,1,8,0:0:0:0:
56,136,63095,2,0,B|0:192|0:192|56:272,1,155.999992858887
120,288,64234,1,8,0:0:0:0:
120,288,64614,2,0,L|280:288,1,155.999992858887
408,288,65753,5,8,0:0:0:0:
408,288,66133,2,0,L|408:128,1,155.999992858887
336,32,67272,1,8,0:0:0:0:
336,32,67652,2,0,P|288:56|216:152,1,155.999992858887
192,256,68791,6,0,L|88:256,2,77.9999964294435,8|0|8,0:0|0:0|0:0,0:0:0:0:
336,256,69930,1,0,0:0:0:0:
336,256,70310,2,0,L|432:256,2,77.9999964294435,8|0|8,0:0|0:0|0:0,0:0:0:0:
192,256,71449,2,0,L|96:256,1,77.9999964294435,0|8,0:0|0:0,0:0:0:0:
256,192,72209,12,0,76576,0:0:0:0:
256,192,78285,5,4,0:0:0:0:
