osu file format v14

[General]
AudioFilename: audio.mp3
AudioLeadIn: 0
PreviewTime: -1
Countdown: 1
SampleSet: Normal
StackLeniency: 0.2
Mode: 0
LetterboxInBreaks: 0
WidescreenStoryboard: 1

[Editor]
DistanceSpacing: 0.8
BeatDivisor: 4
GridSize: 16
TimelineZoom: 1.800001

[Metadata]
Title:Acid Hardcore (Extended Mix)
TitleUnicode:Acid Hardcore (Extended Mix)
Artist:NJB
ArtistUnicode:NJB
Creator:Stats-Kun
Version:IDawn
Source:NMSNL, Youtube Channel
Tags:I'M SICK OF THIS SH*T
BeatmapID:1266394
BeatmapSetID:599192

[Difficulty]
HPDrainRate:2
CircleSize:3
OverallDifficulty:7
ApproachRate:8
SliderMultiplier:1.4
SliderTickRate:1

[Events]
//Background and Video events
//Break Periods
2,98305,103473
//Storyboard Layer 0 (Background)
//Storyboard Layer 1 (Fail)
//Storyboard Layer 2 (Pass)
//Storyboard Layer 3 (Foreground)
//Storyboard Sound Samples

[TimingPoints]
1500.61722742461,335.195530726257,4,1,0,100,1,0
12226,-71.4285714285714,4,1,0,100,0,0
28314,1E-50,4,1,0,100,1,1
28481,335.195530726257,4,1,0,100,1,1
33676,1E-50,4,1,0,100,1,1
33843,335.195530726257,4,1,0,100,1,1
39038,1E-50,4,1,0,100,1,1
39205,335.195530726257,4,1,0,100,1,1
44400,1E-50,4,1,0,100,1,1
44567,335.195530726257,4,1,0,100,1,1
49761,1E-50,4,1,0,100,1,1
49929,335.195530726257,4,1,0,100,1,1
55124,1E-50,4,1,0,100,1,1
55291,335.195530726257,4,1,0,100,1,1
60486,1E-50,4,1,0,100,1,1
60653,335.195530726257,4,1,0,100,1,1
61490,335.195530726257,4,1,0,100,1,0
76741,1E-50,4,1,0,100,1,1
76908,335.195530726257,4,1,0,100,1,1
82103,1E-50,4,1,0,100,1,1
82270,335.195530726257,4,1,0,100,1,1
87465,1E-50,4,1,0,100,1,1
87632,335.195530726257,4,1,0,100,1,1
92827,1E-50,4,1,0,100,1,1
92994,335.195530726257,4,1,0,100,1,1
97686,-100,4,1,0,100,0,0
104573,335.195530726257,4,1,0,100,1,0
115299,-71.4285714285714,4,1,0,100,0,0

[HitObjects]
256,192,1081,5,0,0:0:0:0:
96,192,1500,2,0,L|128:208,2,35
256,192,1752,2,0,L|288:176,2,35
416,192,2003,2,0,L|384:208,2,35
288,192,2254,2,0,L|240:176,2,35
256,64,2590,1,0,0:0:0:0:
381,192,2841,6,0,L|416:176,2,35
224,192,3092,2,0,L|272:224,2,35
96,192,3344,2,0,L|144:160,2,35
256,192,3595,2,0,L|208:224,2,35
256,336,3930,1,0,0:0:0:0:
96,48,4182,5,0,0:0:0:0:
256,48,4433,1,0,0:0:0:0:
288,48,4517,1,0,0:0:0:0:
288,192,4684,1,0,0:0:0:0:
256,192,4768,1,0,0:0:0:0:
256,336,4936,1,0,0:0:0:0:
288,336,5020,1,0,0:0:0:0:
480,336,5187,1,0,0:0:0:0:
384,192,5522,5,0,0:0:0:0:
96,192,5774,1,0,0:0:0:0:
96,144,5858,1,0,0:0:0:0:
256,144,6025,1,0,0:0:0:0:
256,192,6109,1,0,0:0:0:0:
256,336,6277,1,0,0:0:0:0:
224,336,6361,1,0,0:0:0:0:
112,336,6528,1,0,0:0:0:0:
416,192,6863,6,0,L|384:208,2,35
256,192,7115,2,0,L|224:176,2,35
96,192,7366,2,0,L|128:208,2,35
224,192,7617,2,0,L|272:176,2,35
256,64,7953,1,0,0:0:0:0:
131,192,8204,6,0,L|96:176,2,35
288,192,8455,2,0,L|240:224,2,35
416,192,8707,2,0,L|368:160,2,35
256,192,8958,2,0,L|304:224,2,35
256,336,9293,1,0,0:0:0:0:
416,48,9545,5,0,0:0:0:0:
256,48,9796,1,0,0:0:0:0:
224,48,9880,1,0,0:0:0:0:
224,192,10047,1,0,0:0:0:0:
256,192,10131,1,0,0:0:0:0:
256,336,10299,1,0,0:0:0:0:
224,336,10383,1,0,0:0:0:0:
32,336,10550,1,0,0:0:0:0:
128,192,10885,5,0,0:0:0:0:
416,192,11137,1,0,0:0:0:0:
416,144,11221,1,0,0:0:0:0:
256,144,11388,1,0,0:0:0:0:
256,192,11472,1,0,0:0:0:0:
256,336,11640,1,0,0:0:0:0:
288,336,11724,1,0,0:0:0:0:
400,336,11891,1,0,0:0:0:0:
256,192,12226,6,0,P|320:96|416:48,1,195.999994018555
400,192,12897,1,0,0:0:0:0:
400,320,13064,1,0,0:0:0:0:
352,320,13148,1,0,0:0:0:0:
144,320,13316,1,0,0:0:0:0:
256,192,13567,6,0,P|192:96|96:48,1,195.999994018555
112,192,14238,1,0,0:0:0:0:
112,320,14405,1,0,0:0:0:0:
160,320,14489,1,0,0:0:0:0:
368,320,14657,1,0,0:0:0:0:
480,192,14908,6,0,P|448:96|352:32,1,195.999994018555
320,192,15411,1,0,0:0:0:0:
144,192,15578,2,0,P|160:288|256:352,1,195.999994018555
256,192,16081,1,0,0:0:0:0:
384,192,16249,2,0,P|320:80|240:48,1,195.999994018555
176,208,16752,1,0,0:0:0:0:
336,208,16919,2,0,P|448:160|448:80,1,195.999994018555
288,176,17422,1,0,0:0:0:0:
80,192,17590,6,0,P|128:192|192:160,1,97.9999970092774
416,192,17925,2,0,P|352:192|320:176,1,97.9999970092774
176,192,18260,2,0,L|240:272,1,97.9999970092774
320,176,18595,2,0,L|256:96,1,97.9999970092774
64,192,18930,2,0,P|96:144|144:128,1,97.9999970092774
320,128,19265,2,0,P|384:160|416:208,1,97.9999970092774
416,288,19601,2,0,L|320:272,1,97.9999970092774
160,240,19936,2,0,L|288:272,1,97.9999970092774
480,128,20271,5,0,0:0:0:0:
400,240,20439,1,0,0:0:0:0:
336,128,20606,1,0,0:0:0:0:
256,240,20774,1,0,0:0:0:0:
192,128,20941,2,0,L|96:112,1,97.9999970092774
96,192,21277,2,0,L|192:208,1,97.9999970092774
32,128,21612,5,0,0:0:0:0:
112,240,21780,1,0,0:0:0:0:
176,128,21947,1,0,0:0:0:0:
256,240,22115,1,0,0:0:0:0:
320,128,22282,2,0,L|416:112,1,97.9999970092774
416,192,22617,2,0,L|320:208,1,97.9999970092774
256,192,22953,12,0,26640,0:0:0:0:
96,80,26975,5,0,0:0:0:0:
400,80,27310,1,0,0:0:0:0:
256,320,27645,2,0,P|208:304|176:256,1,97.9999970092774
80,112,27981,1,0,0:0:0:0:
272,224,28314,6,0,B|2676:-85|4156:1641|4884:363271|4884:363271|-778:2381|-2258:1641|2337:69|2584:-794|240:192,1,728455
160,112,28564,2,0,P|208:80|224:80,1,70
400,80,28899,1,0,0:0:0:0:
400,240,29067,1,0,0:0:0:0:
256,256,29235,2,0,P|208:288|176:272,1,70
160,112,29570,1,0,0:0:0:0:
288,256,29737,1,0,0:0:0:0:
240,96,29905,2,0,P|272:64|320:32,1,70
448,48,30240,1,0,0:0:0:0:
448,192,30408,1,0,0:0:0:0:
352,192,30575,2,0,P|320:224|288:208,1,70
80,96,30911,1,0,0:0:0:0:
192,272,31078,1,0,0:0:0:0:
208,128,31246,2,0,P|256:96|272:96,1,70
448,112,31581,1,0,0:0:0:0:
336,288,31749,1,0,0:0:0:0:
256,192,31916,2,0,L|208:256,1,70
80,240,32251,1,0,0:0:0:0:
176,80,32419,1,0,0:0:0:0:
272,192,32587,2,0,P|288:240|304:256,1,70
432,112,32922,2,0,L|400:192,1,70
96,112,33257,2,0,L|144:192,1,70
32,144,33676,6,0,B|445:816|5040:144|4722:-4546|4722:-4546|9413:144|9413:144|5026:4660|5026:4660|5040:144|549:-425|32:144|32:144,1,28525
352,112,33926,2,0,P|304:80|288:80,1,70
112,80,34261,1,0,0:0:0:0:
112,240,34429,1,0,0:0:0:0:
256,256,34597,2,0,P|304:288|336:272,1,70
352,112,34932,1,0,0:0:0:0:
224,256,35099,1,0,0:0:0:0:
272,96,35267,2,0,P|240:64|192:32,1,70
64,48,35602,1,0,0:0:0:0:
64,192,35770,1,0,0:0:0:0:
160,192,35937,2,0,P|192:224|224:208,1,70
432,96,36273,1,0,0:0:0:0:
320,272,36440,1,0,0:0:0:0:
304,128,36608,2,0,P|256:96|240:96,1,70
64,112,36943,1,0,0:0:0:0:
176,288,37111,1,0,0:0:0:0:
240,192,37278,2,0,P|224:240|208:256,1,70
80,112,37613,2,0,L|112:192,1,70
416,112,37948,2,0,L|368:192,1,70
240,336,38284,2,0,B|272:304|208:272|288:208|176:128|272:96,1,245
128,192,39038,6,0,B|560:128|-2559:9483|12106:-6412|-37016:-884|9441:12551|21356:7630|18469:-4009|208:448|128:192,1,30695
256,64,39372,2,0,P|224:80|176:128,1,105
368,192,39707,2,0,P|416:160|416:128,1,70
320,64,40042,2,0,P|320:144|288:160,1,105
160,160,40378,2,0,P|112:160|96:176,1,70
128,304,40713,2,0,P|192:336|240:320,1,105
416,288,41048,2,0,P|400:320|368:320,1,70
240,240,41383,2,0,L|128:192,1,105
320,176,41718,2,0,L|368:96,1,70
368,256,42054,2,0,L|304:352,1,105
224,224,42389,2,0,L|160:176,1,70
112,80,42724,6,0,L|176:48,1,70
240,128,43059,2,0,L|288:192,1,70
336,272,43394,2,0,L|256:336,1,70
112,256,43730,2,0,L|192:208,1,70
256,80,44065,2,0,L|320:160,1,70
480,192,44400,6,0,B|-16701:192|17661:192|-16701:-5535|11934:-5535|-10974:5919|6207:5919|-5247:-11262|-5247:11646|6207:-11262|6207:11646|-5001:-5216|480:192,1,16765
256,64,44734,2,0,P|288:80|336:128,1,105
144,192,45068,2,0,P|96:160|96:128,1,70
192,64,45403,2,0,P|192:144|224:160,1,105
352,160,45739,2,0,P|400:160|416:176,1,70
384,304,46074,2,0,P|320:336|272:320,1,105
96,288,46409,2,0,P|112:320|144:320,1,70
272,240,46744,2,0,L|384:192,1,105
192,176,47079,2,0,L|144:96,1,70
144,256,47415,2,0,L|208:352,1,105
288,224,47750,2,0,L|352:176,1,70
400,80,48085,6,0,L|336:48,1,70
272,128,48420,2,0,L|224:192,1,70
176,272,48755,2,0,L|256:336,1,70
400,256,49091,2,0,L|320:208,1,70
256,80,49426,2,0,L|192:160,1,70
272,224,49761,6,0,B|2676:-85|4156:1641|4884:363271|4884:363271|-778:2381|-2258:1641|2337:69|2584:-794|240:192,1,728455
160,272,50096,2,0,P|208:304|224:304,1,70
400,304,50431,1,0,0:0:0:0:
400,144,50599,1,0,0:0:0:0:
256,128,50767,2,0,P|208:96|176:112,1,70
160,272,51102,1,0,0:0:0:0:
288,128,51269,1,0,0:0:0:0:
240,288,51437,2,0,P|272:320|320:352,1,70
448,336,51772,1,0,0:0:0:0:
448,192,51940,1,0,0:0:0:0:
352,192,52107,2,0,P|320:160|288:176,1,70
80,288,52443,1,0,0:0:0:0:
192,112,52610,1,0,0:0:0:0:
208,256,52778,2,0,P|256:288|272:288,1,70
448,272,53113,1,0,0:0:0:0:
336,96,53281,1,0,0:0:0:0:
256,192,53448,2,0,L|208:128,1,70
80,144,53783,1,0,0:0:0:0:
176,304,53951,1,0,0:0:0:0:
272,192,54119,2,0,P|288:144|304:128,1,70
432,272,54454,6,0,L|400:192,1,70
96,272,54789,2,0,L|144:192,1,70
32,144,55124,6,0,B|445:816|5040:144|4722:-4546|4722:-4546|9413:144|9413:144|5026:4660|5026:4660|5040:144|549:-425|32:144|32:144,1,28525
256,64,55458,2,0,P|224:80|176:128,1,105
368,192,55793,2,0,P|416:160|416:128,1,70
320,64,56128,2,0,P|320:144|288:160,1,105
160,160,56464,2,0,P|112:160|96:176,1,70
128,304,56799,2,0,P|192:336|240:320,1,105
416,288,57134,2,0,P|400:320|368:320,1,70
240,240,57469,2,0,L|128:192,1,105
320,176,57804,2,0,L|368:96,1,70
368,256,58140,2,0,L|304:352,1,105
224,224,58475,2,0,L|160:176,1,70
112,80,58810,6,0,L|176:48,1,70
240,128,59145,2,0,L|288:192,1,70
336,272,59480,2,0,L|256:336,1,70
112,256,59816,6,0,L|192:208,1,70
256,80,60151,2,0,L|320:160,1,70
480,112,60486,6,0,B|-3326:112|-3326:2015|-1423:2015|480:2015|2383:2015|4286:2015|4286:112|4286:-1791|2383:-1791|480:-1791|-1423:-1791|-3326:-1791|-1423:112|2383:112|6189:112|-5229:112|6189:-3694|-5229:-3694|6189:3918|-5099:4021|480:112,1,18620
272,272,60653,1,0,0:0:0:0:
64,192,61490,6,0,P|80:112|128:80,1,140
176,80,61992,1,0,0:0:0:0:
208,128,62160,2,0,P|240:192|320:208,1,140
304,256,62663,1,0,0:0:0:0:
304,304,62830,2,0,B|224:304|208:288|160:304,1,140
192,240,63333,1,0,0:0:0:0:
240,192,63501,2,0,P|320:192|336:144,1,140
288,96,64003,1,0,0:0:0:0:
224,80,64171,2,0,P|144:80|112:128,1,140
112,192,64674,1,0,0:0:0:0:
144,240,64841,2,0,L|224:272,1,70
288,112,65177,2,0,L|224:80,1,70
400,208,65512,2,0,L|368:272,1,70
80,160,65847,2,0,L|128:96,1,70
112,304,66182,1,0,0:0:0:0:
304,64,66517,1,0,0:0:0:0:
448,192,66853,6,0,P|432:272|384:304,1,140
336,304,67355,1,0,0:0:0:0:
304,256,67523,2,0,P|272:192|192:176,1,140
208,128,68026,1,0,0:0:0:0:
208,80,68193,2,0,B|288:80|304:96|352:80,1,140
320,144,68696,1,0,0:0:0:0:
272,192,68864,2,0,P|192:192|176:240,1,140
224,288,69366,1,0,0:0:0:0:
288,304,69534,2,0,P|368:304|400:256,1,140
400,192,70037,1,0,0:0:0:0:
368,144,70204,2,0,L|288:112,1,70
224,272,70540,2,0,L|288:304,1,70
112,176,70875,2,0,L|144:112,1,70
432,224,71210,2,0,L|384:288,1,70
400,80,71545,1,0,0:0:0:0:
208,320,71880,1,0,0:0:0:0:
256,192,72216,12,0,76238,0:0:0:0:
240,160,76741,6,0,B|-2164:469|-3644:-1257|-4372:-362887|-4372:-362887|1290:-1997|2770:-1257|-1825:315|-2072:1178|272:192,1,728455
160,272,76991,2,0,P|208:304|224:304,1,70
400,304,77326,1,0,0:0:0:0:
400,144,77494,1,0,0:0:0:0:
256,128,77662,2,0,P|208:96|176:112,1,70
160,272,77997,1,0,0:0:0:0:
288,128,78164,1,0,0:0:0:0:
240,288,78332,2,0,P|272:320|320:352,1,70
448,336,78667,1,0,0:0:0:0:
448,192,78835,1,0,0:0:0:0:
352,192,79002,2,0,P|320:160|288:176,1,70
80,288,79338,1,0,0:0:0:0:
192,112,79505,1,0,0:0:0:0:
208,256,79673,2,0,P|256:288|272:288,1,70
448,272,80008,1,0,0:0:0:0:
336,96,80176,1,0,0:0:0:0:
256,192,80343,2,0,L|208:128,1,70
80,144,80678,1,0,0:0:0:0:
176,304,80846,1,0,0:0:0:0:
272,192,81014,2,0,P|288:144|304:128,1,70
432,272,81349,2,0,L|400:192,1,70
96,272,81684,6,0,L|144:192,1,70
480,240,82103,6,0,B|67:-432|-4528:240|-4210:4930|-4210:4930|-8901:240|-8901:240|-4514:-4276|-4514:-4276|-4528:240|-37:809|480:240|480:240,1,28525
160,272,82353,2,0,P|208:304|224:304,1,70
400,304,82688,1,0,0:0:0:0:
400,144,82856,1,0,0:0:0:0:
256,128,83024,2,0,P|208:96|176:112,1,70
160,272,83359,1,0,0:0:0:0:
288,128,83526,1,0,0:0:0:0:
240,288,83694,2,0,P|272:320|320:352,1,70
448,336,84029,1,0,0:0:0:0:
448,192,84197,1,0,0:0:0:0:
352,192,84364,2,0,P|320:160|288:176,1,70
80,288,84700,1,0,0:0:0:0:
192,112,84867,1,0,0:0:0:0:
208,256,85035,2,0,P|256:288|272:288,1,70
448,272,85370,1,0,0:0:0:0:
336,96,85538,1,0,0:0:0:0:
272,192,85705,2,0,P|288:144|304:128,1,70
432,272,86040,2,0,L|400:192,1,70
96,272,86375,2,0,L|144:192,1,70
272,48,86711,2,0,B|240:80|304:112|224:176|336:256|240:288,1,245
368,224,87465,6,0,B|-64:288|3055:-9067|-11610:6828|37512:1300|-8945:-12135|-20860:-7214|-17973:4425|288:-32|368:224,1,30695
224,160,87799,2,0,L|160:208,1,70
224,160,88134,2,0,L|160:208,1,70
112,304,88469,2,0,L|176:336,1,70
240,256,88804,2,0,L|288:192,1,70
336,112,89139,2,0,L|256:48,1,70
112,128,89475,2,0,L|192:176,1,70
256,304,89810,2,0,L|320:224,1,70
336,128,90145,2,0,P|304:96|272:80,1,70
224,160,90481,2,0,L|160:208,1,70
112,304,90816,2,0,L|176:336,1,70
240,256,91151,2,0,L|288:192,1,70
336,112,91486,2,0,L|256:48,1,70
112,128,91822,6,0,L|192:176,1,70
256,304,92157,2,0,L|320:224,1,70
336,128,92492,2,0,P|304:96|272:80,1,70
32,192,92827,6,0,B|17213:192|-17149:192|17213:5919|-11422:5919|11486:-5535|-5695:-5535|5759:11646|5759:-11262|-5695:11646|-5695:-11262|5513:5600|32:192,1,16765
208,256,93161,1,0,0:0:0:0:
256,320,93245,2,0,P|288:304|336:256,1,105
144,192,93580,2,0,P|96:224|96:256,1,70
192,320,93915,2,0,P|192:240|224:224,1,105
352,224,94251,2,0,P|400:224|416:208,1,70
384,80,94586,2,0,P|320:48|272:64,1,105
96,96,94921,2,0,P|112:64|144:64,1,70
272,144,95256,2,0,L|384:192,1,105
192,208,95591,2,0,L|144:288,1,70
144,128,95927,2,0,L|208:32,1,105
288,160,96262,2,0,L|352:208,1,70
400,304,96597,6,0,L|336:336,1,70
272,256,96932,2,0,L|224:192,1,70
176,112,97267,2,0,L|256:48,1,70
400,128,97603,2,0,L|320:176,1,70
256,304,97938,2,0,L|192:224,1,70
256,192,104223,5,0,0:0:0:0:
96,192,104573,6,0,L|128:208,2,35
256,192,104825,2,0,L|288:176,2,35
416,192,105076,2,0,L|384:208,2,35
288,192,105327,2,0,L|240:176,2,35
256,64,105662,1,0,0:0:0:0:
381,192,105914,6,0,L|416:176,2,35
224,192,106165,2,0,L|272:224,2,35
96,192,106417,2,0,L|144:160,2,35
256,192,106668,2,0,L|208:224,2,35
256,336,107003,1,0,0:0:0:0:
96,48,107255,5,0,0:0:0:0:
256,48,107506,1,0,0:0:0:0:
288,48,107590,1,0,0:0:0:0:
288,192,107757,1,0,0:0:0:0:
256,192,107841,1,0,0:0:0:0:
256,336,108009,1,0,0:0:0:0:
288,336,108093,1,0,0:0:0:0:
480,336,108260,1,0,0:0:0:0:
384,192,108595,5,0,0:0:0:0:
96,192,108847,1,0,0:0:0:0:
96,144,108931,1,0,0:0:0:0:
256,144,109098,1,0,0:0:0:0:
256,192,109182,1,0,0:0:0:0:
256,336,109350,1,0,0:0:0:0:
224,336,109434,1,0,0:0:0:0:
112,336,109601,1,0,0:0:0:0:
416,192,109936,6,0,L|384:208,2,35
256,192,110188,2,0,L|224:176,2,35
96,192,110439,2,0,L|128:208,2,35
224,192,110690,2,0,L|272:176,2,35
256,64,111025,1,0,0:0:0:0:
131,192,111277,6,0,L|96:176,2,35
288,192,111528,2,0,L|240:224,2,35
416,192,111780,2,0,L|368:160,2,35
256,192,112031,2,0,L|304:224,2,35
256,336,112366,1,0,0:0:0:0:
416,48,112618,5,0,0:0:0:0:
256,48,112869,1,0,0:0:0:0:
224,48,112953,1,0,0:0:0:0:
224,192,113120,1,0,0:0:0:0:
256,192,113204,1,0,0:0:0:0:
256,336,113372,1,0,0:0:0:0:
224,336,113456,1,0,0:0:0:0:
32,336,113623,1,0,0:0:0:0:
128,192,113958,5,0,0:0:0:0:
416,192,114210,1,0,0:0:0:0:
416,144,114294,1,0,0:0:0:0:
256,144,114461,1,0,0:0:0:0:
256,192,114545,1,0,0:0:0:0:
256,336,114713,1,0,0:0:0:0:
288,336,114797,1,0,0:0:0:0:
400,336,114964,1,0,0:0:0:0:
256,192,115299,6,0,P|320:96|416:48,1,195.999994018555
400,192,115970,1,0,0:0:0:0:
400,320,116137,1,0,0:0:0:0:
352,320,116221,1,0,0:0:0:0:
144,320,116389,1,0,0:0:0:0:
256,192,116640,6,0,P|192:96|96:48,1,195.999994018555
112,192,117311,1,0,0:0:0:0:
112,320,117478,1,0,0:0:0:0:
160,320,117562,1,0,0:0:0:0:
368,320,117730,1,0,0:0:0:0:
480,192,117981,6,0,P|448:96|352:32,1,195.999994018555
320,192,118484,1,0,0:0:0:0:
144,192,118651,2,0,P|160:288|256:352,1,195.999994018555
256,192,119154,1,0,0:0:0:0:
384,192,119322,2,0,P|320:80|240:48,1,195.999994018555
176,208,119825,1,0,0:0:0:0:
336,208,119992,2,0,P|448:160|448:80,1,195.999994018555
288,176,120495,1,0,0:0:0:0:
80,192,120663,6,0,P|128:192|192:160,1,97.9999970092774
416,192,120998,2,0,P|352:192|320:176,1,97.9999970092774
176,192,121333,2,0,L|240:272,1,97.9999970092774
320,176,121668,2,0,L|256:96,1,97.9999970092774
64,192,122003,2,0,P|96:144|144:128,1,97.9999970092774
320,128,122338,2,0,P|384:160|416:208,1,97.9999970092774
416,288,122674,2,0,L|320:272,1,97.9999970092774
160,240,123009,2,0,L|288:272,1,97.9999970092774
480,128,123344,5,0,0:0:0:0:
400,240,123512,1,0,0:0:0:0:
336,128,123679,1,0,0:0:0:0:
256,240,123847,1,0,0:0:0:0:
192,128,124014,2,0,L|96:112,1,97.9999970092774
96,192,124349,2,0,L|192:208,1,97.9999970092774
32,128,124685,5,0,0:0:0:0:
112,240,124853,1,0,0:0:0:0:
176,128,125020,1,0,0:0:0:0:
256,240,125188,1,0,0:0:0:0:
320,128,125355,2,0,L|416:112,1,97.9999970092774
416,192,125690,2,0,L|320:208,1,97.9999970092774
256,192,126025,12,0,129712,0:0:0:0:
256,192,130047,5,0,0:0:0:0:
