osu file format v14

[General]
AudioFilename: audio.mp3
AudioLeadIn: 0
PreviewTime: 73650
Countdown: 0
SampleSet: Normal
StackLeniency: 0.7
Mode: 1
LetterboxInBreaks: 0
WidescreenStoryboard: 1

[Editor]
Bookmarks: 29797,52385,77797,100385
DistanceSpacing: 0.9
BeatDivisor: 4
GridSize: 32
TimelineZoom: 2.1

[Metadata]
Title:Y
TitleUnicode:Y
Artist:NIWASHI
ArtistUnicode:庭師
Creator:Izzeee
Version:OnY
Source:
Tags:Chatter electronic instrumental fa o!tfac #2 o!tfac#2 osu!taiko featured artist cup: 2nd second edition
BeatmapID:3722650
BeatmapSetID:1814682

[Difficulty]
HPDrainRate:6.5
CircleSize:2
OverallDifficulty:6
ApproachRate:10
SliderMultiplier:1.4
SliderTickRate:1

[Events]
//Background and Video events
0,0,"ybg.jpg",0,0
//Break Periods
2,73761,76817
//Storyboard Layer 0 (Background)
//Storyboard Layer 1 (Fail)
//Storyboard Layer 2 (Pass)
//Storyboard Layer 3 (Foreground)
//Storyboard Layer 4 (Overlay)
//Storyboard Sound Samples

[TimingPoints]
1562,352.941176470588,4,1,0,45,1,0
1562,-90.9090909090909,4,1,0,45,0,0
8620,-86.9565217391304,4,1,0,45,0,0
9150,-90.90909,4,1,0,45,0,0
9238,-90.59316,4,1,0,45,0,0
9326,-90.27942,4,1,0,45,0,0
9414,-89.96784,4,1,0,45,0,0
9503,-89.65491,4,1,0,45,0,0
9679,-89.04243,4,1,0,45,0,0
9856,-88.43485,4,1,0,45,0,0
9944,-88.13585,4,1,0,45,0,0
10032,-87.838875,4,1,0,45,0,0
10209,-87.24755,4,1,0,45,0,0
10297,-86.95652,4,1,0,45,0,0
10561,-86.09495,4,1,0,45,0,0
10738,-85.5268,4,1,0,45,0,0
10826,-85.247116,4,1,0,45,0,0
10914,-84.96926,4,1,0,45,0,0
11003,-84.69008,4,1,0,45,0,0
11091,-84.415825,4,1,0,45,0,0
11356,-83.600586,4,1,0,45,0,0
11444,-83.33333,4,1,0,45,0,0
11797,-83.33333,4,1,0,45,0,0
11885,-83.33333,4,1,0,47,0,0
11973,-83.33333,4,1,0,49,0,0
12061,-83.33333,4,1,0,51,0,0
12150,-83.33333,4,1,0,53,0,0
12238,-83.33333,4,1,0,55,0,0
12326,-83.33333,4,1,0,57,0,0
12414,-83.33333,4,1,0,59,0,0
12503,-83.33333,4,1,0,61,0,0
12591,-83.33333,4,1,0,63,0,0
12679,-83.3333333333333,4,1,0,65,0,0
29797,-92.3361034164359,4,1,0,65,0,0
38267,-92.3360997229917,4,1,0,65,0,0
38385,-91.6588781163435,4,1,0,65,0,0
38503,-90.986620498615,4,1,0,65,0,0
38620,-90.324944598338,4,1,0,65,0,0
38738,-89.6624792243767,4,1,0,65,0,0
38856,-89.0048614958449,4,1,0,65,0,0
38973,-88.3575872576177,4,1,0,65,0,0
39091,-87.7095540166205,4,1,0,65,0,0
39209,-87.0662645429363,4,1,0,65,0,0
39326,-86.4330886426593,4,1,0,65,0,0
39444,-85.7991620498615,4,1,0,65,0,0
39561,-85.1752077562327,4,1,0,65,0,0
39679,-84.5505083102493,4,1,0,65,0,0
39797,-83.9303878116344,4,1,0,65,0,0
39856,-83.6220360110803,4,1,0,65,0,0
39914,-83.3200138504155,4,1,0,65,0,0
40032,-82.7089293628809,4,1,0,65,0,0
40150,-82.1023185595568,4,1,0,65,0,0
40209,-81.800688365651,4,1,0,65,0,0
40267,-81.5052493074792,4,1,0,65,0,0
40385,-80.9074515235457,4,1,0,65,0,0
40503,-80.3140650969529,4,1,0,65,0,0
40620,-79.7299861495845,4,1,0,65,0,0
40738,-79.1452313019391,4,1,0,65,0,0
41091,-92.3361034164359,4,1,0,65,0,0
46209,-92.3360997229917,4,1,0,65,0,0
46268,-92.3360041551247,4,1,0,65,0,0
46327,-92.3352908587258,4,1,0,65,0,0
46386,-92.333379501385,4,1,0,65,0,0
46562,-92.3145290858726,4,1,0,65,0,0
46621,-92.3018199445983,4,1,0,65,0,0
46680,-92.2848891966759,4,1,0,65,0,0
46739,-92.2631578947369,4,1,0,65,0,0
46856,-92.2034833795014,4,1,0,65,0,0
46973,-92.1179501385042,4,1,0,65,0,0
47091,-92.000891966759,4,1,0,65,0,0
47209,-91.8483573407202,4,1,0,65,0,0
47326,-91.657756232687,4,1,0,65,0,0
47444,-91.4216343490305,4,1,0,65,0,0
47561,-91.140027700831,4,1,0,65,0,0
47679,-90.8043905817175,4,1,0,65,0,0
47797,-90.4134349030471,4,1,0,65,0,0
47826,-90.2528531855956,4,1,0,65,0,0
47914,-89.9681163434903,4,1,0,65,0,0
47944,-89.7851939058172,4,1,0,65,0,0
48032,-89.4580609418283,4,1,0,65,0,0
48061,-89.2517174515235,4,1,0,65,0,0
48150,-88.8845013850416,4,1,0,65,0,0
48267,-88.251256232687,4,1,0,65,0,0
48326,-87.9071149584488,4,1,0,65,0,0
48385,-87.5461398891967,4,1,0,65,0,0
48503,-86.7734155124654,4,1,0,65,0,0
48620,-85.9401468144044,4,1,0,65,0,0
48679,-85.4946620498615,4,1,0,65,0,0
48738,-85.0323019390582,4,1,0,65,0,0
48856,-84.0575041551247,4,1,0,65,0,0
48914,-83.5542077562327,4,1,0,65,0,0
48973,-83.0261565096953,4,1,0,65,0,0
49032,-82.4821509695291,4,1,0,65,0,0
49091,-81.9224570637119,4,1,0,65,0,0
49150,-81.3473961218836,4,1,0,65,0,0
49209,-80.7572991689751,4,1,0,65,0,0
49326,-79.5441551246537,4,1,0,65,0,0
49444,-78.265540166205,4,1,0,65,0,0
49561,-76.9467548476454,4,1,0,65,0,0
51326,-76.9467548476454,4,1,0,65,0,0
51385,-78.0336149584488,4,1,0,65,0,0
51444,-79.1516343490305,4,1,0,65,0,0
51503,-80.3021509695291,4,1,0,65,0,0
51591,-82.081703601108,4,1,0,65,0,0
51679,-83.9419113573407,4,1,0,65,0,0
51767,-85.8883891966759,4,1,0,65,0,0
51856,-87.9510055401662,4,1,0,65,0,0
51944,-90.0902146814404,4,1,0,65,0,0
52032,-92.3360997229917,4,1,0,65,0,0
52385,-105.263157894737,4,1,0,45,0,0
62796,-105.26316,4,1,0,45,0,0
62972,-102.22838,4,1,0,45,0,0
63237,-97.8232,4,1,0,45,0,0
63502,-93.60784,4,1,0,45,0,0
63678,-90.90909,4,1,0,45,0,0
69325,-90.903885,4,1,0,45,0,0
69590,-89.54551,4,1,0,48,0,0
69766,-88.66555,4,1,0,51,0,0
69855,-88.22712,4,1,0,52,0,0
70031,-87.37276,4,1,0,54,0,0
70296,-86.117134,4,1,0,57,0,0
70472,-85.30296,4,1,0,59,0,0
70560,-84.90162,4,1,0,61,0,0
70737,-84.10571,4,1,0,63,0,0
70913,-83.32895,4,1,0,65,0,0
72150,352.941176470588,4,1,0,65,1,0
72150,-133.333333333333,4,1,0,65,0,0
74973,-100,4,1,0,65,0,0
76385,-90.9090909090909,4,1,0,65,0,0
77797,-83.3333333333333,4,1,0,65,0,1
98973,-83.3333333333333,4,1,0,65,0,0
100385,-92.3361034164359,4,1,0,65,0,0
108856,-92.3360997229917,4,1,0,65,0,0
108974,-91.7227894736842,4,1,0,65,0,0
109092,-91.1175844875346,4,1,0,65,0,0
109209,-90.5253324099723,4,1,0,65,0,0
109327,-89.9357756232687,4,1,0,65,0,0
109445,-89.353836565097,4,1,0,65,0,0
109562,-88.7842243767313,4,1,0,65,0,0
109680,-88.2170457063712,4,1,0,65,0,0
109798,-87.6570775623269,4,1,0,65,0,0
109915,-87.1088227146814,4,1,0,65,0,0
110033,-86.5627936288089,4,1,0,65,0,0
110150,-86.0281024930748,4,1,0,65,0,0
110268,-85.4954916897507,4,1,0,65,0,0
110385,-84.9694390581717,4,1,0,65,0,0
110445,-84.7088296398892,4,1,0,65,0,0
110503,-84.4541897506925,4,1,0,65,0,0
110621,-83.9408310249307,4,1,0,65,0,0
110739,-83.4336703601108,4,1,0,65,0,0
110798,-83.1823961218837,4,1,0,65,0,0
110856,-82.9368282548476,4,1,0,65,0,0
110974,-82.4416939058172,4,1,0,65,0,0
111092,-81.9524404432133,4,1,0,65,0,0
111209,-81.4730332409972,4,1,0,65,0,0
111635,-92.3361044629116,4,1,0,65,0,0
116738,-100,4,1,0,65,0,0
117503,-98.9315405760643,4,1,0,65,0,0

[HitObjects]
256,192,1562,5,0,0:0:0:0:
256,192,1738,1,0,0:0:0:0:
256,192,1914,1,8,0:0:0:0:
256,192,2091,1,0,0:0:0:0:
256,192,2179,1,0,0:0:0:0:
256,192,2356,1,8,0:0:0:0:
256,192,2444,1,0,0:0:0:0:
256,192,2620,1,8,0:0:0:0:
256,192,2797,1,0,0:0:0:0:
256,192,2885,1,0,0:0:0:0:
256,192,2973,1,0,0:0:0:0:
256,192,3150,1,0,0:0:0:0:
256,192,3326,1,8,0:0:0:0:
256,192,3503,1,0,0:0:0:0:
256,192,3679,1,0,0:0:0:0:
256,192,3856,1,0,0:0:0:0:
256,192,3944,1,8,0:0:0:0:
256,192,4120,1,0,0:0:0:0:
256,192,4209,1,8,0:0:0:0:
256,192,4297,1,8,0:0:0:0:
256,192,4385,1,0,0:0:0:0:
256,192,4561,1,0,0:0:0:0:
256,192,4738,1,8,0:0:0:0:
256,192,4914,1,0,0:0:0:0:
256,192,5003,1,8,0:0:0:0:
256,192,5179,1,8,0:0:0:0:
256,192,5267,1,0,0:0:0:0:
256,192,5356,1,0,0:0:0:0:
256,192,5444,1,8,0:0:0:0:
256,192,5797,1,0,0:0:0:0:
256,192,5973,1,8,0:0:0:0:
256,192,6149,1,0,0:0:0:0:
256,192,6326,1,8,0:0:0:0:
256,192,6503,1,8,0:0:0:0:
256,192,6679,1,0,0:0:0:0:
256,192,6767,1,8,0:0:0:0:
256,192,6944,1,0,0:0:0:0:
256,192,7033,1,8,0:0:0:0:
256,192,7120,1,8,0:0:0:0:
256,192,7209,1,0,0:0:0:0:
256,192,7385,1,0,0:0:0:0:
256,192,7561,1,8,0:0:0:0:
256,192,7738,1,0,0:0:0:0:
256,192,7826,1,0,0:0:0:0:
256,192,8003,1,8,0:0:0:0:
256,192,8091,1,0,0:0:0:0:
256,192,8267,1,8,0:0:0:0:
256,192,8444,1,0,0:0:0:0:
256,192,8620,1,0,0:0:0:0:
256,192,8709,1,8,0:0:0:0:
256,192,8797,1,8,0:0:0:0:
256,192,8885,1,8,0:0:0:0:
256,192,8973,1,8,0:0:0:0:
256,192,9150,1,8,0:0:0:0:
256,192,9326,1,0,0:0:0:0:
256,192,9414,1,0,0:0:0:0:
256,192,9503,1,0,0:0:0:0:
256,192,9679,1,8,0:0:0:0:
256,192,9856,1,0,0:0:0:0:
256,192,9944,1,0,0:0:0:0:
256,192,10032,1,8,0:0:0:0:
256,192,10209,1,0,0:0:0:0:
256,192,10297,1,8,0:0:0:0:
256,192,10561,1,0,0:0:0:0:
256,192,10738,1,8,0:0:0:0:
256,192,10826,1,8,0:0:0:0:
256,192,10914,1,8,0:0:0:0:
256,192,11003,1,8,0:0:0:0:
256,192,11091,1,8,0:0:0:0:
256,192,11356,1,0,0:0:0:0:
256,192,11444,1,8,0:0:0:0:
256,192,11797,12,8,12503,0:0:0:0:
256,192,12856,5,4,0:0:0:0:
256,192,14973,5,12,0:0:0:0:
256,192,15238,1,4,0:0:0:0:
256,192,15503,1,12,0:0:0:0:
256,192,17444,1,8,0:0:0:0:
256,192,17620,1,0,0:0:0:0:
256,192,17709,1,8,0:0:0:0:
256,192,17885,1,8,0:0:0:0:
256,192,17973,1,8,0:0:0:0:
256,192,18061,1,0,0:0:0:0:
256,192,18238,1,0,0:0:0:0:
256,192,18326,1,8,0:0:0:0:
256,192,18414,1,8,0:0:0:0:
256,192,18503,1,4,0:0:0:0:
256,192,20444,1,4,0:0:0:0:
256,192,21326,1,4,0:0:0:0:
256,192,21503,1,4,0:0:0:0:
256,192,21679,1,4,0:0:0:0:
256,192,21856,1,12,0:0:0:0:
256,192,22032,1,12,0:0:0:0:
256,192,22209,1,4,0:0:0:0:
256,192,22385,1,12,0:0:0:0:
256,192,22561,1,4,0:0:0:0:
256,192,24150,1,4,0:0:0:0:
256,192,24679,1,4,0:0:0:0:
256,192,25032,1,4,0:0:0:0:
256,192,25561,1,4,0:0:0:0:
256,192,25826,1,4,0:0:0:0:
256,192,26091,1,4,0:0:0:0:
256,192,26356,1,4,0:0:0:0:
256,192,26973,1,4,0:0:0:0:
256,192,27238,1,4,0:0:0:0:
256,192,27503,1,4,0:0:0:0:
256,192,27767,1,4,0:0:0:0:
256,192,28032,1,4,0:0:0:0:
256,192,28209,1,4,0:0:0:0:
256,192,29797,1,12,0:0:0:0:
256,192,30061,1,0,0:0:0:0:
256,192,30150,1,8,0:0:0:0:
256,192,30326,1,0,0:0:0:0:
256,192,30503,1,8,0:0:0:0:
256,192,30591,1,8,0:0:0:0:
256,192,30679,1,8,0:0:0:0:
256,192,30767,1,8,0:0:0:0:
256,192,30856,1,0,0:0:0:0:
256,192,31032,1,0,0:0:0:0:
256,192,31209,1,8,0:0:0:0:
256,192,31297,1,8,0:0:0:0:
256,192,31473,1,8,0:0:0:0:
256,192,31561,1,8,0:0:0:0:
256,192,31738,1,0,0:0:0:0:
256,192,31914,1,0,0:0:0:0:
256,192,32267,1,0,0:0:0:0:
256,192,32620,1,12,0:0:0:0:
256,192,32885,1,0,0:0:0:0:
256,192,32973,1,8,0:0:0:0:
256,192,33150,1,0,0:0:0:0:
256,192,33326,1,8,0:0:0:0:
256,192,33414,1,8,0:0:0:0:
256,192,33503,1,8,0:0:0:0:
256,192,33591,1,8,0:0:0:0:
256,192,33679,1,0,0:0:0:0:
256,192,33856,1,0,0:0:0:0:
256,192,34032,1,8,0:0:0:0:
256,192,34120,1,0,0:0:0:0:
256,192,34297,1,8,0:0:0:0:
256,192,34385,1,0,0:0:0:0:
256,192,34561,1,8,0:0:0:0:
256,192,34738,1,0,0:0:0:0:
256,192,34914,1,12,0:0:0:0:
256,192,35267,1,4,0:0:0:0:
256,192,35444,1,12,0:0:0:0:
256,192,35708,1,0,0:0:0:0:
256,192,35797,1,8,0:0:0:0:
256,192,35973,1,0,0:0:0:0:
256,192,36150,1,8,0:0:0:0:
256,192,36238,1,8,0:0:0:0:
256,192,36326,1,8,0:0:0:0:
256,192,36414,1,8,0:0:0:0:
256,192,36503,1,0,0:0:0:0:
256,192,36679,1,0,0:0:0:0:
256,192,36856,1,8,0:0:0:0:
256,192,36944,1,8,0:0:0:0:
256,192,37120,1,8,0:0:0:0:
256,192,37208,1,8,0:0:0:0:
256,192,37385,1,0,0:0:0:0:
256,192,37561,1,0,0:0:0:0:
256,192,37650,1,0,0:0:0:0:
256,192,37738,1,0,0:0:0:0:
256,192,37914,1,0,0:0:0:0:
256,192,38003,1,0,0:0:0:0:
256,192,38091,1,0,0:0:0:0:
256,192,38267,1,0,0:0:0:0:
256,192,38385,1,0,0:0:0:0:
256,192,38503,1,0,0:0:0:0:
256,192,38620,1,8,0:0:0:0:
256,192,38856,1,8,0:0:0:0:
256,192,38973,1,8,0:0:0:0:
256,192,39091,1,0,0:0:0:0:
256,192,39209,1,0,0:0:0:0:
256,192,39326,1,8,0:0:0:0:
256,192,39561,1,0,0:0:0:0:
256,192,39679,1,8,0:0:0:0:
256,192,39797,1,0,0:0:0:0:
256,192,39914,1,0,0:0:0:0:
256,192,40032,1,8,0:0:0:0:
256,192,40267,1,0,0:0:0:0:
256,192,40385,1,8,0:0:0:0:
256,192,40503,1,8,0:0:0:0:
256,192,40620,1,8,0:0:0:0:
256,192,40738,1,0,0:0:0:0:
256,192,41091,1,12,0:0:0:0:
256,192,41356,1,0,0:0:0:0:
256,192,41445,1,8,0:0:0:0:
256,192,41621,1,0,0:0:0:0:
256,192,41798,1,8,0:0:0:0:
256,192,41886,1,8,0:0:0:0:
256,192,41974,1,8,0:0:0:0:
256,192,42062,1,8,0:0:0:0:
256,192,42151,1,0,0:0:0:0:
256,192,42327,1,0,0:0:0:0:
256,192,42504,1,8,0:0:0:0:
256,192,42592,1,8,0:0:0:0:
256,192,42768,1,8,0:0:0:0:
256,192,42856,1,8,0:0:0:0:
256,192,43033,1,0,0:0:0:0:
256,192,43209,1,0,0:0:0:0:
256,192,43562,1,0,0:0:0:0:
256,192,43915,1,12,0:0:0:0:
256,192,44180,1,0,0:0:0:0:
256,192,44268,1,8,0:0:0:0:
256,192,44445,1,0,0:0:0:0:
256,192,44621,1,8,0:0:0:0:
256,192,44709,1,8,0:0:0:0:
256,192,44798,1,8,0:0:0:0:
256,192,44886,1,8,0:0:0:0:
256,192,44974,1,0,0:0:0:0:
256,192,45151,1,0,0:0:0:0:
256,192,45327,1,8,0:0:0:0:
256,192,45415,1,0,0:0:0:0:
256,192,45592,1,8,0:0:0:0:
256,192,45680,1,0,0:0:0:0:
256,192,45856,1,8,0:0:0:0:
256,192,46033,1,0,0:0:0:0:
256,192,46209,1,12,0:0:0:0:
256,192,46562,1,4,0:0:0:0:
256,192,46739,1,12,0:0:0:0:
256,192,46973,1,8,0:0:0:0:
256,192,47209,1,0,0:0:0:0:
256,192,47326,1,0,0:0:0:0:
256,192,47444,1,8,0:0:0:0:
256,192,47679,1,0,0:0:0:0:
256,192,47797,1,8,0:0:0:0:
256,192,47914,1,8,0:0:0:0:
256,192,48032,1,8,0:0:0:0:
256,192,48150,1,8,0:0:0:0:
256,192,48385,1,0,0:0:0:0:
256,192,48503,1,8,0:0:0:0:
256,192,48738,1,0,0:0:0:0:
256,192,48856,1,8,0:0:0:0:
256,192,48973,1,0,0:0:0:0:
256,192,49091,1,8,0:0:0:0:
256,192,49326,1,8,0:0:0:0:
256,192,49444,1,0,0:0:0:0:
256,192,49561,1,8,0:0:0:0:
256,192,49738,1,0,0:0:0:0:
256,192,49826,1,0,0:0:0:0:
256,192,50003,1,0,0:0:0:0:
256,192,50091,1,0,0:0:0:0:
256,192,50267,1,8,0:0:0:0:
256,192,50444,1,8,0:0:0:0:
256,192,50532,1,8,0:0:0:0:
256,192,50620,1,0,0:0:0:0:
256,192,50709,1,0,0:0:0:0:
256,192,50797,1,8,0:0:0:0:
256,192,50973,1,0,0:0:0:0:
256,192,51150,1,0,0:0:0:0:
256,192,51326,1,8,0:0:0:0:
256,192,51414,1,8,0:0:0:0:
256,192,51503,1,0,0:0:0:0:
256,192,51591,1,0,0:0:0:0:
256,192,51679,1,8,0:0:0:0:
256,192,51856,1,0,0:0:0:0:
256,192,51944,1,0,0:0:0:0:
256,192,52032,1,8,0:0:0:0:
256,192,52385,1,4,0:0:0:0:
256,192,52738,1,0,0:0:0:0:
256,192,53091,1,8,0:0:0:0:
256,192,53444,1,8,0:0:0:0:
256,192,53620,1,0,0:0:0:0:
256,192,53709,1,0,0:0:0:0:
256,192,53797,1,8,0:0:0:0:
256,192,53973,1,0,0:0:0:0:
256,192,54150,1,0,0:0:0:0:
256,192,54503,1,8,0:0:0:0:
256,192,54679,1,8,0:0:0:0:
256,192,54856,1,0,0:0:0:0:
256,192,55032,1,8,0:0:0:0:
256,192,55209,1,0,0:0:0:0:
256,192,55561,1,0,0:0:0:0:
256,192,55914,1,8,0:0:0:0:
256,192,56267,1,8,0:0:0:0:
256,192,56444,1,8,0:0:0:0:
256,192,56532,1,8,0:0:0:0:
256,192,56620,1,8,0:0:0:0:
256,192,56797,1,0,0:0:0:0:
256,192,56973,1,0,0:0:0:0:
256,192,57238,1,8,0:0:0:0:
256,192,57414,1,0,0:0:0:0:
256,192,57503,1,0,0:0:0:0:
256,192,57679,1,8,0:0:0:0:
256,192,57856,1,8,0:0:0:0:
256,192,57944,1,8,0:0:0:0:
256,192,58032,1,0,0:0:0:0:
256,192,58297,1,0,0:0:0:0:
256,192,58561,1,0,0:0:0:0:
256,192,58738,1,8,0:0:0:0:
256,192,59267,1,0,0:0:0:0:
256,192,59444,1,8,0:0:0:0:
256,192,59679,1,0,0:0:0:0:
256,192,59914,1,8,0:0:0:0:
256,192,60150,1,0,0:0:0:0:
256,192,60679,1,0,0:0:0:0:
256,192,60856,1,8,0:0:0:0:
256,192,61385,1,0,0:0:0:0:
256,192,61561,1,8,0:0:0:0:
256,192,61738,1,8,0:0:0:0:
256,192,61914,1,0,0:0:0:0:
256,192,62091,1,8,0:0:0:0:
256,192,62267,1,8,0:0:0:0:
256,192,62532,1,0,0:0:0:0:
256,192,62797,1,0,0:0:0:0:
256,192,62973,1,8,0:0:0:0:
256,192,63238,1,0,0:0:0:0:
256,192,63503,1,8,0:0:0:0:
256,192,63679,1,4,0:0:0:0:
256,192,64032,1,0,0:0:0:0:
256,192,64385,1,8,0:0:0:0:
256,192,64738,1,8,0:0:0:0:
256,192,64914,1,8,0:0:0:0:
256,192,65003,1,0,0:0:0:0:
256,192,65091,1,8,0:0:0:0:
256,192,65444,1,0,0:0:0:0:
256,192,65797,1,8,0:0:0:0:
256,192,65973,1,8,0:0:0:0:
256,192,66150,1,0,0:0:0:0:
256,192,66326,1,8,0:0:0:0:
256,192,66503,1,0,0:0:0:0:
256,192,66856,1,0,0:0:0:0:
256,192,67209,1,8,0:0:0:0:
256,192,67385,1,0,0:0:0:0:
256,192,67473,1,0,0:0:0:0:
256,192,67561,1,8,0:0:0:0:
256,192,67738,1,0,0:0:0:0:
256,192,67914,1,8,0:0:0:0:
256,192,68003,1,8,0:0:0:0:
256,192,68267,1,0,0:0:0:0:
256,192,68620,1,8,0:0:0:0:
256,192,68797,1,0,0:0:0:0:
256,192,68885,1,0,0:0:0:0:
256,192,68973,1,8,0:0:0:0:
256,192,69150,1,8,0:0:0:0:
256,192,69238,1,0,0:0:0:0:
256,192,69326,1,8,0:0:0:0:
256,192,69591,1,8,0:0:0:0:
256,192,69856,1,0,0:0:0:0:
256,192,70032,1,8,0:0:0:0:
256,192,70297,1,0,0:0:0:0:
256,192,70561,1,0,0:0:0:0:
256,192,70738,1,8,0:0:0:0:
256,192,70914,12,0,72061,0:0:0:0:
256,192,72150,12,0,73561,0:0:0:0:
256,192,77267,5,8,0:0:0:0:
256,192,77356,1,8,0:0:0:0:
256,192,77444,1,0,0:0:0:0:
256,192,77620,1,0,0:0:0:0:
256,192,77797,1,8,0:0:0:0:
256,192,77973,1,8,0:0:0:0:
256,192,78061,1,0,0:0:0:0:
256,192,78150,1,0,0:0:0:0:
256,192,78238,1,0,0:0:0:0:
256,192,78326,1,8,0:0:0:0:
256,192,78503,1,0,0:0:0:0:
256,192,78679,1,8,0:0:0:0:
256,192,78767,1,8,0:0:0:0:
256,192,78856,1,0,0:0:0:0:
256,192,79209,1,0,0:0:0:0:
256,192,79385,1,8,0:0:0:0:
256,192,79473,1,8,0:0:0:0:
256,192,79561,1,0,0:0:0:0:
256,192,79650,1,8,0:0:0:0:
256,192,79738,1,0,0:0:0:0:
256,192,79914,1,0,0:0:0:0:
256,192,80091,1,8,0:0:0:0:
256,192,80179,1,0,0:0:0:0:
256,192,80356,1,0,0:0:0:0:
256,192,80444,1,0,0:0:0:0:
256,192,80532,1,8,0:0:0:0:
256,192,80620,1,8,0:0:0:0:
256,192,80797,1,8,0:0:0:0:
256,192,80885,1,8,0:0:0:0:
256,192,81061,1,8,0:0:0:0:
256,192,81150,1,8,0:0:0:0:
256,192,81326,1,0,0:0:0:0:
256,192,81503,1,8,0:0:0:0:
256,192,81591,1,8,0:0:0:0:
256,192,81679,1,8,0:0:0:0:
256,192,82032,1,0,0:0:0:0:
256,192,82209,1,8,0:0:0:0:
256,192,82385,1,0,0:0:0:0:
256,192,82561,1,8,0:0:0:0:
256,192,82650,1,0,0:0:0:0:
256,192,82738,1,8,0:0:0:0:
256,192,82826,1,8,0:0:0:0:
256,192,82914,1,0,0:0:0:0:
256,192,83091,1,8,0:0:0:0:
256,192,83267,1,8,0:0:0:0:
256,192,83444,1,0,0:0:0:0:
256,192,83532,1,0,0:0:0:0:
256,192,83709,1,0,0:0:0:0:
256,192,83973,1,0,0:0:0:0:
256,192,84149,1,8,0:0:0:0:
256,192,84238,1,8,0:0:0:0:
256,192,84414,1,8,0:0:0:0:
256,192,84679,1,0,0:0:0:0:
256,192,84767,1,0,0:0:0:0:
256,192,84856,1,8,0:0:0:0:
256,192,85032,1,8,0:0:0:0:
256,192,85209,1,0,0:0:0:0:
256,192,85385,1,0,0:0:0:0:
256,192,85561,1,8,0:0:0:0:
256,192,85738,1,0,0:0:0:0:
256,192,85826,1,0,0:0:0:0:
256,192,85914,1,8,0:0:0:0:
256,192,86091,1,8,0:0:0:0:
256,192,86267,1,8,0:0:0:0:
256,192,86356,1,8,0:0:0:0:
256,192,86444,1,8,0:0:0:0:
256,192,86533,1,8,0:0:0:0:
256,192,86620,1,0,0:0:0:0:
256,192,86797,1,8,0:0:0:0:
256,192,86886,1,8,0:0:0:0:
256,192,86974,1,0,0:0:0:0:
256,192,87061,1,0,0:0:0:0:
256,192,87150,1,0,0:0:0:0:
256,192,87326,1,0,0:0:0:0:
256,192,87503,1,8,0:0:0:0:
256,192,87679,1,0,0:0:0:0:
256,192,87856,1,8,0:0:0:0:
256,192,87944,1,8,0:0:0:0:
256,192,88032,1,0,0:0:0:0:
256,192,88120,1,0,0:0:0:0:
256,192,88209,1,8,0:0:0:0:
256,192,88561,1,0,0:0:0:0:
256,192,88650,1,0,0:0:0:0:
256,192,88738,1,8,0:0:0:0:
256,192,88914,1,8,0:0:0:0:
256,192,89003,1,8,0:0:0:0:
256,192,89091,1,0,0:0:0:0:
256,192,89267,1,0,0:0:0:0:
256,192,89355,1,0,0:0:0:0:
256,192,89444,1,8,0:0:0:0:
256,192,89532,1,0,0:0:0:0:
256,192,89620,1,8,0:0:0:0:
256,192,89797,1,0,0:0:0:0:
256,192,89973,1,8,0:0:0:0:
256,192,90061,1,8,0:0:0:0:
256,192,90150,1,0,0:0:0:0:
256,192,90503,1,0,0:0:0:0:
256,192,90679,1,8,0:0:0:0:
256,192,90767,1,8,0:0:0:0:
256,192,90855,1,0,0:0:0:0:
256,192,90944,1,8,0:0:0:0:
256,192,91032,1,0,0:0:0:0:
256,192,91385,1,0,0:0:0:0:
256,192,91738,1,0,0:0:0:0:
256,192,91826,1,8,0:0:0:0:
256,192,91914,1,8,0:0:0:0:
256,192,92091,1,8,0:0:0:0:
256,192,92179,1,8,0:0:0:0:
256,192,92267,1,0,0:0:0:0:
256,192,92355,1,0,0:0:0:0:
256,192,92444,1,8,0:0:0:0:
256,192,92620,1,0,0:0:0:0:
256,192,92797,1,8,0:0:0:0:
256,192,92885,1,8,0:0:0:0:
256,192,92973,1,8,0:0:0:0:
256,192,93150,1,0,0:0:0:0:
256,192,93326,1,0,0:0:0:0:
256,192,93503,1,8,0:0:0:0:
256,192,93679,1,0,0:0:0:0:
256,192,93855,1,8,0:0:0:0:
256,192,94032,1,8,0:0:0:0:
256,192,94120,1,8,0:0:0:0:
256,192,94208,1,0,0:0:0:0:
256,192,94385,1,8,0:0:0:0:
256,192,94561,1,8,0:0:0:0:
256,192,94650,1,0,0:0:0:0:
256,192,94738,1,8,0:0:0:0:
256,192,95091,1,8,0:0:0:0:
256,192,95267,1,0,0:0:0:0:
256,192,95356,1,8,0:0:0:0:
256,192,95532,1,0,0:0:0:0:
256,192,95620,1,8,0:0:0:0:
256,192,95796,1,0,0:0:0:0:
256,192,95885,1,8,0:0:0:0:
256,192,96061,1,0,0:0:0:0:
256,192,96150,1,8,0:0:0:0:
256,192,96326,1,8,0:0:0:0:
256,192,96503,1,0,0:0:0:0:
256,192,96679,1,8,0:0:0:0:
256,192,96767,1,0,0:0:0:0:
256,192,96855,1,0,0:0:0:0:
256,192,97032,1,0,0:0:0:0:
256,192,97120,1,8,0:0:0:0:
256,192,97297,1,8,0:0:0:0:
256,192,97385,1,8,0:0:0:0:
256,192,97561,1,4,0:0:0:0:
256,192,97914,1,0,0:0:0:0:
256,192,98091,1,0,0:0:0:0:
256,192,98267,1,8,0:0:0:0:
256,192,98444,1,0,0:0:0:0:
256,192,98532,1,8,0:0:0:0:
256,192,98709,1,0,0:0:0:0:
256,192,98797,1,8,0:0:0:0:
256,192,100385,1,12,0:0:0:0:
256,192,100649,1,0,0:0:0:0:
256,192,100738,1,8,0:0:0:0:
256,192,100914,1,0,0:0:0:0:
256,192,101091,1,8,0:0:0:0:
256,192,101179,1,8,0:0:0:0:
256,192,101267,1,8,0:0:0:0:
256,192,101355,1,8,0:0:0:0:
256,192,101444,1,0,0:0:0:0:
256,192,101620,1,0,0:0:0:0:
256,192,101797,1,8,0:0:0:0:
256,192,101885,1,8,0:0:0:0:
256,192,102061,1,8,0:0:0:0:
256,192,102149,1,8,0:0:0:0:
256,192,102326,1,0,0:0:0:0:
256,192,102502,1,0,0:0:0:0:
256,192,102855,1,8,0:0:0:0:
256,192,103208,1,12,0:0:0:0:
256,192,103473,1,0,0:0:0:0:
256,192,103561,1,8,0:0:0:0:
256,192,103738,1,0,0:0:0:0:
256,192,103914,1,8,0:0:0:0:
256,192,104003,1,8,0:0:0:0:
256,192,104091,1,8,0:0:0:0:
256,192,104179,1,8,0:0:0:0:
256,192,104267,1,0,0:0:0:0:
256,192,104444,1,0,0:0:0:0:
256,192,104620,1,8,0:0:0:0:
256,192,104708,1,0,0:0:0:0:
256,192,104885,1,8,0:0:0:0:
256,192,104973,1,0,0:0:0:0:
256,192,105149,1,8,0:0:0:0:
256,192,105326,1,0,0:0:0:0:
256,192,105502,1,12,0:0:0:0:
256,192,105855,1,4,0:0:0:0:
256,192,106032,1,12,0:0:0:0:
256,192,106297,1,0,0:0:0:0:
256,192,106386,1,8,0:0:0:0:
256,192,106562,1,0,0:0:0:0:
256,192,106739,1,8,0:0:0:0:
256,192,106827,1,8,0:0:0:0:
256,192,106915,1,8,0:0:0:0:
256,192,107003,1,8,0:0:0:0:
256,192,107092,1,0,0:0:0:0:
256,192,107268,1,0,0:0:0:0:
256,192,107445,1,8,0:0:0:0:
256,192,107533,1,8,0:0:0:0:
256,192,107709,1,8,0:0:0:0:
256,192,107797,1,8,0:0:0:0:
256,192,107974,1,0,0:0:0:0:
256,192,108150,1,8,0:0:0:0:
256,192,108239,1,8,0:0:0:0:
256,192,108327,1,8,0:0:0:0:
256,192,108503,1,8,0:0:0:0:
256,192,108592,1,8,0:0:0:0:
256,192,108680,1,8,0:0:0:0:
256,192,108768,1,8,0:0:0:0:
256,192,108856,1,8,0:0:0:0:
256,192,109092,1,8,0:0:0:0:
256,192,109209,1,0,0:0:0:0:
256,192,109327,1,0,0:0:0:0:
256,192,109562,1,8,0:0:0:0:
256,192,109798,1,8,0:0:0:0:
256,192,109915,1,0,0:0:0:0:
256,192,110033,1,8,0:0:0:0:
256,192,110268,1,8,0:0:0:0:
256,192,110385,1,0,0:0:0:0:
256,192,110503,1,0,0:0:0:0:
256,192,110621,1,8,0:0:0:0:
256,192,110739,1,0,0:0:0:0:
256,192,110856,1,0,0:0:0:0:
256,192,110974,1,8,0:0:0:0:
256,192,111209,1,8,0:0:0:0:
256,192,112032,1,0,0:0:0:0:
256,192,112209,1,8,0:0:0:0:
256,192,112385,1,8,0:0:0:0:
256,192,112473,1,8,0:0:0:0:
256,192,112561,1,8,0:0:0:0:
256,192,112914,1,0,0:0:0:0:
256,192,113091,1,8,0:0:0:0:
256,192,113179,1,0,0:0:0:0:
256,192,113267,1,8,0:0:0:0:
256,192,113444,1,0,0:0:0:0:
256,192,113532,1,8,0:0:0:0:
256,192,113620,1,0,0:0:0:0:
256,192,113797,1,0,0:0:0:0:
256,192,114150,1,8,0:0:0:0:
256,192,114503,1,0,0:0:0:0:
256,192,114679,1,0,0:0:0:0:
256,192,114767,1,8,0:0:0:0:
256,192,115032,1,8,0:0:0:0:
256,192,115208,1,0,0:0:0:0:
256,192,115385,1,8,0:0:0:0:
256,192,115473,1,0,0:0:0:0:
256,192,115650,1,0,0:0:0:0:
256,192,115738,1,8,0:0:0:0:
256,192,115914,1,8,0:0:0:0:
256,192,116003,1,8,0:0:0:0:
256,192,116091,1,0,0:0:0:0:
256,192,116267,1,8,0:0:0:0:
256,192,116356,1,8,0:0:0:0:
256,192,116444,1,8,0:0:0:0:
256,192,116738,1,8,0:0:0:0:
256,192,116856,1,8,0:0:0:0:
256,192,117091,1,8,0:0:0:0:
256,192,117209,1,8,0:0:0:0:
256,192,117326,1,8,0:0:0:0:
256,192,117503,1,0,0:0:0:0:
256,192,117591,1,8,0:0:0:0:
256,192,117679,1,0,0:0:0:0:
256,192,117856,1,8,0:0:0:0:
256,192,118032,1,8,0:0:0:0:
256,192,118120,1,8,0:0:0:0:
256,192,118209,1,8,0:0:0:0:
256,192,118297,1,8,0:0:0:0:
256,192,118385,1,0,0:0:0:0:
256,192,118561,1,0,0:0:0:0:
256,192,118738,1,0,0:0:0:0:
256,192,118914,1,0,0:0:0:0:
256,192,119091,1,8,0:0:0:0:
256,192,119179,1,8,0:0:0:0:
256,192,119267,1,0,0:0:0:0:
256,192,119356,1,0,0:0:0:0:
256,192,119444,1,8,0:0:0:0:
256,192,119620,1,0,0:0:0:0:
256,192,119709,1,0,0:0:0:0:
256,192,119797,1,8,0:0:0:0:
256,192,120150,1,4,0:0:0:0:
