osu file format v14

[General]
AudioFilename: audio.mp3
AudioLeadIn: 0
PreviewTime: 73650
Countdown: 0
SampleSet: Normal
StackLeniency: 0.7
Mode: 1
LetterboxInBreaks: 0
WidescreenStoryboard: 1

[Editor]
Bookmarks: 29797,52385,77797,100385
DistanceSpacing: 0.9
BeatDivisor: 6
GridSize: 32
TimelineZoom: 1.7

[Metadata]
Title:Y
TitleUnicode:Y
Artist:NIWASHI
ArtistUnicode:庭師
Creator:Izzeee
Version:MuzukashYY
Source:
Tags:Chatter electronic instrumental fa o!tfac #2 o!tfac#2 osu!taiko featured artist cup: 2nd second edition
BeatmapID:3722649
BeatmapSetID:1814682

[Difficulty]
HPDrainRate:7
CircleSize:2
OverallDifficulty:5
ApproachRate:10
SliderMultiplier:1.4
SliderTickRate:1

[Events]
//Background and Video events
0,0,"ybg.jpg",0,0
//Break Periods
2,73761,76817
//Storyboard Layer 0 (Background)
//Storyboard Layer 1 (Fail)
//Storyboard Layer 2 (Pass)
//Storyboard Layer 3 (Foreground)
//Storyboard Layer 4 (Overlay)
//Storyboard Sound Samples

[TimingPoints]
1562,352.941176470588,4,1,0,45,1,0
11797,-100,4,1,0,45,0,0
11885,-100,4,1,0,47,0,0
11973,-100,4,1,0,49,0,0
12061,-100,4,1,0,51,0,0
12150,-100,4,1,0,53,0,0
12238,-100,4,1,0,55,0,0
12326,-100,4,1,0,57,0,0
12414,-100,4,1,0,59,0,0
12503,-100,4,1,0,61,0,0
12591,-100,4,1,0,63,0,0
12679,-100,4,1,0,65,0,0
17091,-100,4,1,0,10,0,0
17267,-100,4,1,0,17,0,0
17326,-100,4,1,0,19,0,0
17385,-100,4,1,0,21,0,0
17444,-100,4,1,0,24,0,0
17620,-100,4,1,0,31,0,0
17709,-100,4,1,0,34,0,0
17797,-100,4,1,0,38,0,0
17973,-100,4,1,0,44,0,0
18061,-100,4,1,0,48,0,0
18238,-100,4,1,0,55,0,0
18326,-100,4,1,0,58,0,0
18385,-100,4,1,0,60,0,0
18444,-100,4,1,0,63,0,0
18503,-100,4,1,0,65,0,0
52385,-100,4,1,0,45,0,0
69325,-100,4,1,0,45,0,0
69590,-100,4,1,0,48,0,0
69766,-100,4,1,0,51,0,0
69855,-100,4,1,0,52,0,0
70031,-100,4,1,0,54,0,0
70296,-100,4,1,0,57,0,0
70472,-100,4,1,0,59,0,0
70560,-100,4,1,0,61,0,0
70737,-100,4,1,0,63,0,0
70913,-100,4,1,0,65,0,0
72150,352.941176470588,4,1,0,65,1,0
77797,-100,4,1,0,65,0,1
98973,-100,4,1,0,65,0,0

[HitObjects]
256,192,1562,5,0,0:0:0:0:
256,192,1738,1,0,0:0:0:0:
256,192,1914,1,8,0:0:0:0:
256,192,2091,1,0,0:0:0:0:
256,192,2179,1,0,0:0:0:0:
256,192,2356,1,8,0:0:0:0:
256,192,2444,1,8,0:0:0:0:
256,192,2620,1,8,0:0:0:0:
256,192,2885,1,0,0:0:0:0:
256,192,2973,1,0,0:0:0:0:
256,192,3150,1,0,0:0:0:0:
256,192,3326,1,8,0:0:0:0:
256,192,3503,1,0,0:0:0:0:
256,192,3679,1,0,0:0:0:0:
256,192,3856,1,8,0:0:0:0:
256,192,3944,1,8,0:0:0:0:
256,192,4120,1,8,0:0:0:0:
256,192,4209,1,8,0:0:0:0:
256,192,4385,1,0,0:0:0:0:
256,192,4914,1,8,0:0:0:0:
256,192,5003,1,8,0:0:0:0:
256,192,5179,1,0,0:0:0:0:
256,192,5267,1,0,0:0:0:0:
256,192,5444,1,8,0:0:0:0:
256,192,5797,1,0,0:0:0:0:
256,192,5973,1,8,0:0:0:0:
256,192,6149,1,0,0:0:0:0:
256,192,6326,1,8,0:0:0:0:
256,192,6503,1,0,0:0:0:0:
256,192,6679,1,8,0:0:0:0:
256,192,6767,1,8,0:0:0:0:
256,192,7032,1,0,0:0:0:0:
256,192,7120,1,0,0:0:0:0:
256,192,7209,1,0,0:0:0:0:
256,192,7738,1,0,0:0:0:0:
256,192,7826,1,0,0:0:0:0:
256,192,8003,1,0,0:0:0:0:
256,192,8091,1,0,0:0:0:0:
256,192,8267,1,8,0:0:0:0:
256,192,8444,1,0,0:0:0:0:
256,192,8620,1,8,0:0:0:0:
256,192,8709,1,8,0:0:0:0:
256,192,8797,1,8,0:0:0:0:
256,192,8973,1,8,0:0:0:0:
256,192,9238,1,0,0:0:0:0:
256,192,9414,1,8,0:0:0:0:
256,192,9503,1,8,0:0:0:0:
256,192,9679,1,8,0:0:0:0:
256,192,9856,1,0,0:0:0:0:
256,192,9944,1,0,0:0:0:0:
256,192,10032,1,0,0:0:0:0:
256,192,10385,1,8,0:0:0:0:
256,192,10561,1,0,0:0:0:0:
256,192,10738,1,8,0:0:0:0:
256,192,10826,1,8,0:0:0:0:
256,192,10914,1,8,0:0:0:0:
256,192,11091,1,8,0:0:0:0:
256,192,11356,1,8,0:0:0:0:
256,192,11444,1,8,0:0:0:0:
256,192,11797,12,0,12503,0:0:0:0:
256,192,12856,5,4,0:0:0:0:
256,192,14973,5,12,0:0:0:0:
256,192,15238,1,4,0:0:0:0:
256,192,15503,1,12,0:0:0:0:
256,192,18503,1,4,0:0:0:0:
256,192,20444,1,4,0:0:0:0:
256,192,21326,1,0,0:0:0:0:
256,192,21503,1,0,0:0:0:0:
256,192,21679,1,0,0:0:0:0:
256,192,21856,1,8,0:0:0:0:
256,192,22032,1,8,0:0:0:0:
256,192,22209,1,0,0:0:0:0:
256,192,22385,1,8,0:0:0:0:
256,192,22561,1,0,0:0:0:0:
256,192,24150,1,4,0:0:0:0:
256,192,25032,1,4,0:0:0:0:
256,192,25826,1,4,0:0:0:0:
256,192,26356,1,4,0:0:0:0:
256,192,27238,1,4,0:0:0:0:
256,192,27767,1,4,0:0:0:0:
256,192,28032,1,4,0:0:0:0:
256,192,28209,1,4,0:0:0:0:
256,192,29797,1,12,0:0:0:0:
256,192,30150,1,8,0:0:0:0:
256,192,30326,1,0,0:0:0:0:
256,192,30503,1,8,0:0:0:0:
256,192,30591,1,8,0:0:0:0:
256,192,30679,1,8,0:0:0:0:
256,192,30856,1,0,0:0:0:0:
256,192,31032,1,0,0:0:0:0:
256,192,31209,1,8,0:0:0:0:
256,192,31297,1,8,0:0:0:0:
256,192,31473,1,8,0:0:0:0:
256,192,31561,1,8,0:0:0:0:
256,192,31738,1,8,0:0:0:0:
256,192,31914,1,0,0:0:0:0:
256,192,32267,1,8,0:0:0:0:
256,192,32620,1,12,0:0:0:0:
256,192,32973,1,8,0:0:0:0:
256,192,33150,1,0,0:0:0:0:
256,192,33326,1,8,0:0:0:0:
256,192,33414,1,8,0:0:0:0:
256,192,33503,1,8,0:0:0:0:
256,192,33679,1,0,0:0:0:0:
256,192,33856,1,8,0:0:0:0:
256,192,34032,1,0,0:0:0:0:
256,192,34120,1,0,0:0:0:0:
256,192,34297,1,0,0:0:0:0:
256,192,34385,1,0,0:0:0:0:
256,192,34561,1,8,0:0:0:0:
256,192,34738,1,0,0:0:0:0:
256,192,34914,1,12,0:0:0:0:
256,192,35267,1,12,0:0:0:0:
256,192,35797,1,8,0:0:0:0:
256,192,35973,1,0,0:0:0:0:
256,192,36150,1,8,0:0:0:0:
256,192,36238,1,8,0:0:0:0:
256,192,36326,1,8,0:0:0:0:
256,192,36503,1,0,0:0:0:0:
256,192,36679,1,0,0:0:0:0:
256,192,36856,1,8,0:0:0:0:
256,192,36944,1,8,0:0:0:0:
256,192,37120,1,8,0:0:0:0:
256,192,37208,1,8,0:0:0:0:
256,192,37385,1,0,0:0:0:0:
256,192,37561,1,8,0:0:0:0:
256,192,37650,1,8,0:0:0:0:
256,192,37738,1,8,0:0:0:0:
256,192,37914,1,8,0:0:0:0:
256,192,38003,1,8,0:0:0:0:
256,192,38091,1,8,0:0:0:0:
256,192,38267,1,0,0:0:0:0:
256,192,38620,1,8,0:0:0:0:
256,192,38973,1,0,0:0:0:0:
256,192,39091,1,0,0:0:0:0:
256,192,39209,1,0,0:0:0:0:
256,192,39326,1,0,0:0:0:0:
256,192,39561,1,0,0:0:0:0:
256,192,39679,1,0,0:0:0:0:
256,192,39914,1,8,0:0:0:0:
256,192,40032,1,8,0:0:0:0:
256,192,40385,1,8,0:0:0:0:
256,192,40503,1,8,0:0:0:0:
256,192,40620,1,8,0:0:0:0:
256,192,40738,1,8,0:0:0:0:
256,192,41444,1,8,0:0:0:0:
256,192,41620,1,0,0:0:0:0:
256,192,41797,1,8,0:0:0:0:
256,192,41885,1,8,0:0:0:0:
256,192,41973,1,8,0:0:0:0:
256,192,42150,1,0,0:0:0:0:
256,192,42326,1,0,0:0:0:0:
256,192,42503,1,8,0:0:0:0:
256,192,42591,1,8,0:0:0:0:
256,192,42767,1,8,0:0:0:0:
256,192,42855,1,8,0:0:0:0:
256,192,43032,1,8,0:0:0:0:
256,192,43208,1,0,0:0:0:0:
256,192,43561,1,8,0:0:0:0:
256,192,43914,1,12,0:0:0:0:
256,192,44267,1,8,0:0:0:0:
256,192,44444,1,0,0:0:0:0:
256,192,44620,1,8,0:0:0:0:
256,192,44708,1,8,0:0:0:0:
256,192,44797,1,8,0:0:0:0:
256,192,44973,1,0,0:0:0:0:
256,192,45150,1,8,0:0:0:0:
256,192,45326,1,0,0:0:0:0:
256,192,45414,1,0,0:0:0:0:
256,192,45591,1,0,0:0:0:0:
256,192,45679,1,0,0:0:0:0:
256,192,45855,1,8,0:0:0:0:
256,192,46032,1,0,0:0:0:0:
256,192,46208,1,12,0:0:0:0:
256,192,46561,1,0,0:0:0:0:
256,192,46738,1,8,0:0:0:0:
256,192,47091,1,0,0:0:0:0:
256,192,47209,1,0,0:0:0:0:
256,192,47327,1,0,0:0:0:0:
256,192,47444,1,0,0:0:0:0:
256,192,47797,1,8,0:0:0:0:
256,192,47914,1,8,0:0:0:0:
256,192,48032,1,8,0:0:0:0:
256,192,48150,1,8,0:0:0:0:
256,192,48503,1,8,0:0:0:0:
256,192,48856,1,0,0:0:0:0:
256,192,48974,1,0,0:0:0:0:
256,192,49091,1,0,0:0:0:0:
256,192,49209,1,0,0:0:0:0:
256,192,49561,1,8,0:0:0:0:
256,192,50267,1,8,0:0:0:0:
256,192,50532,1,0,0:0:0:0:
256,192,50797,1,8,0:0:0:0:
256,192,50973,1,0,0:0:0:0:
256,192,51150,1,0,0:0:0:0:
256,192,51326,1,8,0:0:0:0:
256,192,51503,1,0,0:0:0:0:
256,192,51679,1,8,0:0:0:0:
256,192,51767,1,8,0:0:0:0:
256,192,51856,1,8,0:0:0:0:
256,192,52032,1,8,0:0:0:0:
256,192,52385,1,4,0:0:0:0:
256,192,52738,1,0,0:0:0:0:
256,192,53091,1,8,0:0:0:0:
256,192,53444,1,8,0:0:0:0:
256,192,53709,1,8,0:0:0:0:
256,192,53797,1,8,0:0:0:0:
256,192,54679,1,8,0:0:0:0:
256,192,54856,1,0,0:0:0:0:
256,192,55032,1,8,0:0:0:0:
256,192,55209,1,0,0:0:0:0:
256,192,55561,1,0,0:0:0:0:
256,192,55914,1,8,0:0:0:0:
256,192,56267,1,8,0:0:0:0:
256,192,56532,1,8,0:0:0:0:
256,192,56620,1,8,0:0:0:0:
256,192,57503,1,0,0:0:0:0:
256,192,57679,1,8,0:0:0:0:
256,192,57856,1,8,0:0:0:0:
256,192,57944,1,8,0:0:0:0:
256,192,58032,1,8,0:0:0:0:
256,192,58297,1,0,0:0:0:0:
256,192,58561,1,0,0:0:0:0:
256,192,58738,1,8,0:0:0:0:
256,192,59267,1,0,0:0:0:0:
256,192,59444,1,8,0:0:0:0:
256,192,59679,1,8,0:0:0:0:
256,192,59914,1,8,0:0:0:0:
256,192,60150,1,0,0:0:0:0:
256,192,60679,1,0,0:0:0:0:
256,192,60856,1,8,0:0:0:0:
256,192,61738,1,8,0:0:0:0:
256,192,61914,1,0,0:0:0:0:
256,192,62091,1,8,0:0:0:0:
256,192,62267,1,0,0:0:0:0:
256,192,62532,1,8,0:0:0:0:
256,192,62797,1,0,0:0:0:0:
256,192,62973,1,8,0:0:0:0:
256,192,63238,1,0,0:0:0:0:
256,192,63503,1,8,0:0:0:0:
256,192,63679,1,4,0:0:0:0:
256,192,64032,1,0,0:0:0:0:
256,192,64385,1,8,0:0:0:0:
256,192,64738,1,8,0:0:0:0:
256,192,65003,1,8,0:0:0:0:
256,192,65091,1,8,0:0:0:0:
256,192,65444,1,0,0:0:0:0:
256,192,65797,1,8,0:0:0:0:
256,192,65973,1,8,0:0:0:0:
256,192,66150,1,0,0:0:0:0:
256,192,66326,1,0,0:0:0:0:
256,192,66503,1,8,0:0:0:0:
256,192,66856,1,0,0:0:0:0:
256,192,67209,1,8,0:0:0:0:
256,192,67561,1,8,0:0:0:0:
256,192,67738,1,0,0:0:0:0:
256,192,67914,1,8,0:0:0:0:
256,192,68267,1,0,0:0:0:0:
256,192,68444,1,0,0:0:0:0:
256,192,68620,1,8,0:0:0:0:
256,192,68973,1,0,0:0:0:0:
256,192,69326,1,8,0:0:0:0:
256,192,69591,1,0,0:0:0:0:
256,192,69856,1,0,0:0:0:0:
256,192,70032,1,8,0:0:0:0:
256,192,70297,1,0,0:0:0:0:
256,192,70561,1,0,0:0:0:0:
256,192,70738,1,8,0:0:0:0:
256,192,70914,12,0,73561,0:0:0:0:
256,192,77267,5,0,0:0:0:0:
256,192,77356,1,0,0:0:0:0:
256,192,77444,1,0,0:0:0:0:
256,192,77620,1,0,0:0:0:0:
256,192,77797,1,8,0:0:0:0:
256,192,77973,1,0,0:0:0:0:
256,192,78061,1,0,0:0:0:0:
256,192,78326,1,8,0:0:0:0:
256,192,78679,1,8,0:0:0:0:
256,192,78767,1,8,0:0:0:0:
256,192,78856,1,8,0:0:0:0:
256,192,79209,1,8,0:0:0:0:
256,192,79385,1,0,0:0:0:0:
256,192,79473,1,0,0:0:0:0:
256,192,79561,1,0,0:0:0:0:
256,192,79738,1,0,0:0:0:0:
256,192,80091,1,0,0:0:0:0:
256,192,80267,1,8,0:0:0:0:
256,192,80444,1,8,0:0:0:0:
256,192,80532,1,8,0:0:0:0:
256,192,80620,1,8,0:0:0:0:
256,192,80797,1,0,0:0:0:0:
256,192,80885,1,0,0:0:0:0:
256,192,81061,1,8,0:0:0:0:
256,192,81150,1,8,0:0:0:0:
256,192,81326,1,0,0:0:0:0:
256,192,81503,1,8,0:0:0:0:
256,192,81591,1,8,0:0:0:0:
256,192,81679,1,8,0:0:0:0:
256,192,82209,1,8,0:0:0:0:
256,192,82385,1,0,0:0:0:0:
256,192,82561,1,0,0:0:0:0:
256,192,82650,1,0,0:0:0:0:
256,192,82738,1,0,0:0:0:0:
256,192,82914,1,8,0:0:0:0:
256,192,83091,1,0,0:0:0:0:
256,192,83267,1,8,0:0:0:0:
256,192,83444,1,4,0:0:0:0:
256,192,83709,1,0,0:0:0:0:
256,192,83973,1,0,0:0:0:0:
256,192,84149,1,8,0:0:0:0:
256,192,84238,1,8,0:0:0:0:
256,192,84414,1,8,0:0:0:0:
256,192,84679,1,8,0:0:0:0:
256,192,84767,1,8,0:0:0:0:
256,192,84856,1,8,0:0:0:0:
256,192,85209,1,0,0:0:0:0:
256,192,85385,1,0,0:0:0:0:
256,192,85561,1,8,0:0:0:0:
256,192,85738,1,0,0:0:0:0:
256,192,85826,1,0,0:0:0:0:
256,192,85914,1,0,0:0:0:0:
256,192,86091,1,0,0:0:0:0:
256,192,86267,1,8,0:0:0:0:
256,192,86356,1,8,0:0:0:0:
256,192,86620,1,0,0:0:0:0:
256,192,86797,1,8,0:0:0:0:
256,192,86886,1,8,0:0:0:0:
256,192,87150,1,0,0:0:0:0:
256,192,87326,1,8,0:0:0:0:
256,192,87503,1,8,0:0:0:0:
256,192,87856,1,0,0:0:0:0:
256,192,88032,1,8,0:0:0:0:
256,192,88120,1,8,0:0:0:0:
256,192,88209,1,8,0:0:0:0:
256,192,88738,1,0,0:0:0:0:
256,192,89091,1,4,0:0:0:0:
256,192,89267,1,8,0:0:0:0:
256,192,89356,1,8,0:0:0:0:
256,192,89620,1,8,0:0:0:0:
256,192,89973,1,8,0:0:0:0:
256,192,90061,1,8,0:0:0:0:
256,192,90150,1,8,0:0:0:0:
256,192,90503,1,8,0:0:0:0:
256,192,90679,1,8,0:0:0:0:
256,192,90767,1,8,0:0:0:0:
256,192,90856,1,8,0:0:0:0:
256,192,91032,1,0,0:0:0:0:
256,192,91120,1,0,0:0:0:0:
256,192,91385,1,0,0:0:0:0:
256,192,91914,1,8,0:0:0:0:
256,192,92091,1,0,0:0:0:0:
256,192,92179,1,0,0:0:0:0:
256,192,92355,1,8,0:0:0:0:
256,192,92444,1,8,0:0:0:0:
256,192,92797,1,0,0:0:0:0:
256,192,92885,1,0,0:0:0:0:
256,192,92973,1,0,0:0:0:0:
256,192,93326,1,0,0:0:0:0:
256,192,93503,1,8,0:0:0:0:
256,192,93679,1,0,0:0:0:0:
256,192,93855,1,8,0:0:0:0:
256,192,94032,1,8,0:0:0:0:
256,192,94208,1,0,0:0:0:0:
256,192,94385,1,8,0:0:0:0:
256,192,94561,1,8,0:0:0:0:
256,192,94738,1,4,0:0:0:0:
256,192,95091,1,8,0:0:0:0:
256,192,95356,1,0,0:0:0:0:
256,192,95620,1,8,0:0:0:0:
256,192,95885,1,0,0:0:0:0:
256,192,96150,1,8,0:0:0:0:
256,192,96326,1,8,0:0:0:0:
256,192,96503,1,0,0:0:0:0:
256,192,96679,1,8,0:0:0:0:
256,192,96767,1,8,0:0:0:0:
256,192,97032,1,0,0:0:0:0:
256,192,97120,1,0,0:0:0:0:
256,192,97297,1,8,0:0:0:0:
256,192,97385,1,8,0:0:0:0:
256,192,97561,1,0,0:0:0:0:
256,192,97914,1,0,0:0:0:0:
256,192,98267,1,8,0:0:0:0:
256,192,98532,1,8,0:0:0:0:
256,192,98797,1,8,0:0:0:0:
256,192,100385,1,12,0:0:0:0:
256,192,100738,1,8,0:0:0:0:
256,192,100914,1,0,0:0:0:0:
256,192,101091,1,8,0:0:0:0:
256,192,101179,1,8,0:0:0:0:
256,192,101267,1,8,0:0:0:0:
256,192,101444,1,0,0:0:0:0:
256,192,101620,1,0,0:0:0:0:
256,192,101797,1,8,0:0:0:0:
256,192,101885,1,8,0:0:0:0:
256,192,102061,1,8,0:0:0:0:
256,192,102149,1,8,0:0:0:0:
256,192,102326,1,8,0:0:0:0:
256,192,102502,1,0,0:0:0:0:
256,192,102855,1,8,0:0:0:0:
256,192,103208,1,12,0:0:0:0:
256,192,103561,1,8,0:0:0:0:
256,192,103738,1,0,0:0:0:0:
256,192,103914,1,8,0:0:0:0:
256,192,104002,1,8,0:0:0:0:
256,192,104091,1,8,0:0:0:0:
256,192,104267,1,0,0:0:0:0:
256,192,104444,1,8,0:0:0:0:
256,192,104620,1,0,0:0:0:0:
256,192,104708,1,0,0:0:0:0:
256,192,104885,1,0,0:0:0:0:
256,192,104973,1,0,0:0:0:0:
256,192,105149,1,8,0:0:0:0:
256,192,105326,1,0,0:0:0:0:
256,192,105502,1,12,0:0:0:0:
256,192,105855,1,12,0:0:0:0:
256,192,106385,1,8,0:0:0:0:
256,192,106561,1,0,0:0:0:0:
256,192,106738,1,8,0:0:0:0:
256,192,106826,1,8,0:0:0:0:
256,192,106914,1,8,0:0:0:0:
256,192,107091,1,0,0:0:0:0:
256,192,107267,1,8,0:0:0:0:
256,192,107444,1,0,0:0:0:0:
256,192,107532,1,0,0:0:0:0:
256,192,107708,1,0,0:0:0:0:
256,192,107797,1,0,0:0:0:0:
256,192,107973,1,8,0:0:0:0:
256,192,108149,1,0,0:0:0:0:
256,192,108238,1,0,0:0:0:0:
256,192,108326,1,0,0:0:0:0:
256,192,108502,1,8,0:0:0:0:
256,192,108679,1,0,0:0:0:0:
256,192,108856,1,8,0:0:0:0:
256,192,109209,1,0,0:0:0:0:
256,192,109562,1,8,0:0:0:0:
256,192,109914,1,0,0:0:0:0:
256,192,110032,1,0,0:0:0:0:
256,192,110150,1,0,0:0:0:0:
256,192,110268,1,0,0:0:0:0:
256,192,110621,1,0,0:0:0:0:
256,192,110973,1,8,0:0:0:0:
256,192,111091,1,8,0:0:0:0:
256,192,111209,1,8,0:0:0:0:
256,192,112032,5,0,0:0:0:0:
256,192,112209,1,8,0:0:0:0:
256,192,112385,1,8,0:0:0:0:
256,192,112473,1,8,0:0:0:0:
256,192,112561,1,8,0:0:0:0:
256,192,112914,1,0,0:0:0:0:
256,192,113091,1,8,0:0:0:0:
256,192,113179,1,8,0:0:0:0:
256,192,113267,1,8,0:0:0:0:
256,192,113444,1,8,0:0:0:0:
256,192,113620,1,0,0:0:0:0:
256,192,113797,1,0,0:0:0:0:
256,192,114150,1,0,0:0:0:0:
256,192,114503,1,0,0:0:0:0:
256,192,115032,1,8,0:0:0:0:
256,192,115208,1,0,0:0:0:0:
256,192,115385,1,8,0:0:0:0:
256,192,115473,1,8,0:0:0:0:
256,192,115738,1,0,0:0:0:0:
256,192,115914,1,0,0:0:0:0:
256,192,116003,1,0,0:0:0:0:
256,192,116091,1,0,0:0:0:0:
256,192,116267,1,8,0:0:0:0:
256,192,116356,1,8,0:0:0:0:
256,192,116444,1,8,0:0:0:0:
256,192,116738,1,8,0:0:0:0:
256,192,116856,1,8,0:0:0:0:
256,192,117091,1,8,0:0:0:0:
256,192,117209,1,8,0:0:0:0:
256,192,117326,1,8,0:0:0:0:
256,192,117679,1,0,0:0:0:0:
256,192,117856,1,0,0:0:0:0:
256,192,118032,1,8,0:0:0:0:
256,192,118120,1,8,0:0:0:0:
256,192,118209,1,8,0:0:0:0:
256,192,118385,1,0,0:0:0:0:
256,192,118561,1,8,0:0:0:0:
256,192,118738,1,0,0:0:0:0:
256,192,118914,1,8,0:0:0:0:
256,192,119091,1,0,0:0:0:0:
256,192,119267,1,0,0:0:0:0:
256,192,119444,1,8,0:0:0:0:
256,192,119532,1,8,0:0:0:0:
256,192,119709,1,8,0:0:0:0:
256,192,119797,1,8,0:0:0:0:
256,192,120150,1,4,0:0:0:0:
