osu file format v14

[General]
AudioFilename: audio.mp3
AudioLeadIn: 0
PreviewTime: 73650
Countdown: 0
SampleSet: Normal
StackLeniency: 0.7
Mode: 1
LetterboxInBreaks: 0
WidescreenStoryboard: 1

[Editor]
Bookmarks: 29797,52385,77797,100385
DistanceSpacing: 0.9
BeatDivisor: 4
GridSize: 32
TimelineZoom: 1.7

[Metadata]
Title:Y
TitleUnicode:Y
Artist:NIWASHI
ArtistUnicode:庭師
Creator:Izzeee
Version:KYntYn
Source:
Tags:Chatter electronic instrumental fa o!tfac #2 o!tfac#2 osu!taiko featured artist cup: 2nd second edition
BeatmapID:3722648
BeatmapSetID:1814682

[Difficulty]
HPDrainRate:8.5
CircleSize:2
OverallDifficulty:3
ApproachRate:10
SliderMultiplier:1.4
SliderTickRate:1

[Events]
//Background and Video events
0,0,"ybg.jpg",0,0
//Break Periods
2,73762,77347
//Storyboard Layer 0 (Background)
//Storyboard Layer 1 (Fail)
//Storyboard Layer 2 (Pass)
//Storyboard Layer 3 (Foreground)
//Storyboard Layer 4 (Overlay)
//Storyboard Sound Samples

[TimingPoints]
1562,352.941176470588,4,1,0,45,1,0
11797,-100,4,1,0,45,0,0
11885,-100,4,1,0,47,0,0
11973,-100,4,1,0,49,0,0
12061,-100,4,1,0,51,0,0
12150,-100,4,1,0,53,0,0
12238,-100,4,1,0,55,0,0
12326,-100,4,1,0,57,0,0
12414,-100,4,1,0,59,0,0
12503,-100,4,1,0,61,0,0
12591,-100,4,1,0,63,0,0
12679,-100,4,1,0,65,0,0
17091,-100,4,1,0,10,0,0
17267,-100,4,1,0,17,0,0
17326,-100,4,1,0,19,0,0
17385,-100,4,1,0,21,0,0
17444,-100,4,1,0,24,0,0
17620,-100,4,1,0,31,0,0
17709,-100,4,1,0,34,0,0
17797,-100,4,1,0,38,0,0
17973,-100,4,1,0,44,0,0
18061,-100,4,1,0,48,0,0
18238,-100,4,1,0,55,0,0
18326,-100,4,1,0,58,0,0
18385,-100,4,1,0,60,0,0
18444,-100,4,1,0,63,0,0
18503,-100,4,1,0,65,0,0
52385,-100,4,1,0,45,0,0
69325,-100,4,1,0,45,0,0
69590,-100,4,1,0,48,0,0
69766,-100,4,1,0,51,0,0
69855,-100,4,1,0,52,0,0
70031,-100,4,1,0,54,0,0
70296,-100,4,1,0,57,0,0
70472,-100,4,1,0,59,0,0
70560,-100,4,1,0,61,0,0
70737,-100,4,1,0,63,0,0
70913,-100,4,1,0,65,0,0
72150,352.941176470588,4,1,0,65,1,0
77797,-100,4,1,0,65,0,1
98973,-100,4,1,0,65,0,0

[HitObjects]
256,192,1562,5,0,0:0:0:0:
256,192,1826,1,0,0:0:0:0:
256,192,3856,1,8,0:0:0:0:
256,192,4120,1,8,0:0:0:0:
256,192,4385,1,0,0:0:0:0:
256,192,4650,1,0,0:0:0:0:
256,192,7209,1,8,0:0:0:0:
256,192,7473,1,8,0:0:0:0:
256,192,9150,1,8,0:0:0:0:
256,192,9414,1,8,0:0:0:0:
256,192,10032,1,8,0:0:0:0:
256,192,10297,1,8,0:0:0:0:
256,192,11444,1,0,0:0:0:0:
256,192,11797,12,0,12503,0:0:0:0:
256,192,12856,5,4,0:0:0:0:
256,192,14973,5,12,0:0:0:0:
256,192,15503,1,12,0:0:0:0:
256,192,18503,1,4,0:0:0:0:
256,192,20444,1,4,0:0:0:0:
256,192,21326,1,0,0:0:0:0:
256,192,21679,1,0,0:0:0:0:
256,192,22032,1,8,0:0:0:0:
256,192,22385,1,8,0:0:0:0:
256,192,24150,1,0,0:0:0:0:
256,192,25032,1,0,0:0:0:0:
256,192,25826,1,0,0:0:0:0:
256,192,26356,1,0,0:0:0:0:
256,192,27238,1,0,0:0:0:0:
256,192,27767,1,0,0:0:0:0:
256,192,28209,1,0,0:0:0:0:
256,192,29797,1,12,0:0:0:0:
256,192,30503,1,8,0:0:0:0:
256,192,31209,1,0,0:0:0:0:
256,192,31561,1,8,0:0:0:0:
256,192,31914,1,4,0:0:0:0:
256,192,32620,1,8,0:0:0:0:
256,192,33326,1,8,0:0:0:0:
256,192,34032,1,0,0:0:0:0:
256,192,35444,1,8,0:0:0:0:
256,192,36150,1,8,0:0:0:0:
256,192,36503,1,0,0:0:0:0:
256,192,36856,1,0,0:0:0:0:
256,192,37209,1,8,0:0:0:0:
256,192,37561,1,8,0:0:0:0:
256,192,38267,1,0,0:0:0:0:
256,192,38620,1,8,0:0:0:0:
256,192,38973,1,0,0:0:0:0:
256,192,39679,1,0,0:0:0:0:
256,192,40032,1,8,0:0:0:0:
256,192,40385,1,8,0:0:0:0:
256,192,41444,1,8,0:0:0:0:
256,192,41797,1,8,0:0:0:0:
256,192,42503,1,8,0:0:0:0:
256,192,42856,1,8,0:0:0:0:
256,192,43208,1,0,0:0:0:0:
256,192,43914,1,8,0:0:0:0:
256,192,44620,1,8,0:0:0:0:
256,192,44973,1,0,0:0:0:0:
256,192,45326,1,0,0:0:0:0:
256,192,45679,1,8,0:0:0:0:
256,192,46032,1,0,0:0:0:0:
256,192,46738,1,8,0:0:0:0:
256,192,47444,1,8,0:0:0:0:
256,192,48150,1,0,0:0:0:0:
256,192,48503,1,0,0:0:0:0:
256,192,48856,1,0,0:0:0:0:
256,192,50267,1,8,0:0:0:0:
256,192,50973,1,0,0:0:0:0:
256,192,51326,1,8,0:0:0:0:
256,192,51679,1,8,0:0:0:0:
256,192,52032,1,8,0:0:0:0:
256,192,52385,1,0,0:0:0:0:
256,192,53091,1,8,0:0:0:0:
256,192,53444,1,0,0:0:0:0:
256,192,53797,1,8,0:0:0:0:
256,192,54856,1,0,0:0:0:0:
256,192,55209,1,0,0:0:0:0:
256,192,55914,1,8,0:0:0:0:
256,192,56267,1,8,0:0:0:0:
256,192,56620,1,8,0:0:0:0:
256,192,58032,1,0,0:0:0:0:
256,192,58738,1,8,0:0:0:0:
256,192,59444,1,8,0:0:0:0:
256,192,60150,1,0,0:0:0:0:
256,192,60856,1,8,0:0:0:0:
256,192,61914,1,0,0:0:0:0:
256,192,62267,1,8,0:0:0:0:
256,192,62973,1,8,0:0:0:0:
256,192,63326,1,0,0:0:0:0:
256,192,63679,1,4,0:0:0:0:
256,192,64385,1,8,0:0:0:0:
256,192,64738,1,0,0:0:0:0:
256,192,65091,1,8,0:0:0:0:
256,192,66150,1,0,0:0:0:0:
256,192,66503,1,0,0:0:0:0:
256,192,66856,1,8,0:0:0:0:
256,192,67209,1,0,0:0:0:0:
256,192,67914,1,8,0:0:0:0:
256,192,68973,1,0,0:0:0:0:
256,192,69326,1,8,0:0:0:0:
256,192,70032,1,8,0:0:0:0:
256,192,70738,1,8,0:0:0:0:
256,192,71091,12,0,73562,0:0:0:0:
256,192,77797,5,8,0:0:0:0:
256,192,78326,1,8,0:0:0:0:
256,192,78856,1,0,0:0:0:0:
256,192,79209,1,8,0:0:0:0:
256,192,79738,1,0,0:0:0:0:
256,192,80091,1,0,0:0:0:0:
256,192,80620,1,8,0:0:0:0:
256,192,81150,1,8,0:0:0:0:
256,192,81679,1,8,0:0:0:0:
256,192,82738,1,0,0:0:0:0:
256,192,83091,1,0,0:0:0:0:
256,192,83444,1,12,0:0:0:0:
256,192,84149,1,0,0:0:0:0:
256,192,84856,1,0,0:0:0:0:
256,192,85561,1,8,0:0:0:0:
256,192,85914,1,0,0:0:0:0:
256,192,86267,1,8,0:0:0:0:
256,192,86797,1,8,0:0:0:0:
256,192,87503,1,0,0:0:0:0:
256,192,88209,1,4,0:0:0:0:
256,192,89091,1,8,0:0:0:0:
256,192,89620,1,0,0:0:0:0:
256,192,90150,1,8,0:0:0:0:
256,192,90503,1,8,0:0:0:0:
256,192,91032,1,0,0:0:0:0:
256,192,91385,1,8,0:0:0:0:
256,192,91914,1,8,0:0:0:0:
256,192,92444,1,8,0:0:0:0:
256,192,92973,1,0,0:0:0:0:
256,192,94032,1,0,0:0:0:0:
256,192,94385,1,8,0:0:0:0:
256,192,94738,1,0,0:0:0:0:
256,192,96150,1,8,0:0:0:0:
256,192,96503,1,0,0:0:0:0:
256,192,96856,1,8,0:0:0:0:
256,192,97209,1,8,0:0:0:0:
256,192,97561,1,0,0:0:0:0:
256,192,98797,1,8,0:0:0:0:
256,192,100385,1,12,0:0:0:0:
256,192,100738,1,0,0:0:0:0:
256,192,101091,1,8,0:0:0:0:
256,192,101797,1,8,0:0:0:0:
256,192,102150,1,8,0:0:0:0:
256,192,102502,1,0,0:0:0:0:
256,192,103208,1,8,0:0:0:0:
256,192,103914,1,8,0:0:0:0:
256,192,104267,1,0,0:0:0:0:
256,192,104620,1,0,0:0:0:0:
256,192,106032,1,8,0:0:0:0:
256,192,106385,1,0,0:0:0:0:
256,192,106738,1,8,0:0:0:0:
256,192,107444,1,0,0:0:0:0:
256,192,107797,1,0,0:0:0:0:
256,192,108150,1,8,0:0:0:0:
256,192,108502,1,8,0:0:0:0:
256,192,108856,1,0,0:0:0:0:
256,192,109562,1,8,0:0:0:0:
256,192,110267,1,8,0:0:0:0:
256,192,110621,1,8,0:0:0:0:
256,192,110973,1,8,0:0:0:0:
256,192,112032,5,0,0:0:0:0:
256,192,112385,1,8,0:0:0:0:
256,192,113091,1,8,0:0:0:0:
256,192,113444,1,8,0:0:0:0:
256,192,113797,1,0,0:0:0:0:
256,192,114503,1,8,0:0:0:0:
256,192,115209,1,8,0:0:0:0:
256,192,115914,1,0,0:0:0:0:
256,192,116267,1,8,0:0:0:0:
256,192,117326,1,8,0:0:0:0:
256,192,117679,1,0,0:0:0:0:
256,192,118032,1,8,0:0:0:0:
256,192,118385,1,0,0:0:0:0:
256,192,118738,1,0,0:0:0:0:
256,192,119444,1,8,0:0:0:0:
256,192,119797,1,8,0:0:0:0:
256,192,120150,1,4,0:0:0:0:
