osu file format v14

[General]
AudioFilename: audio.mp3
AudioLeadIn: 0
PreviewTime: 66120
Countdown: 0
SampleSet: Soft
StackLeniency: 0.7
Mode: 0
LetterboxInBreaks: 0
WidescreenStoryboard: 1

[Editor]
Bookmarks: 1536
DistanceSpacing: 0.8
BeatDivisor: 8
GridSize: 32
TimelineZoom: 2.4

[Metadata]
Title:Tokyo Voynich Hotel
TitleUnicode:Tokyo Voynich Hotel
Artist:NIWASHI
ArtistUnicode:NIWASHI
Creator:oatm
Version:Extreme (Old)
Source:
Tags:
BeatmapID:3649265
BeatmapSetID:1754106

[Difficulty]
HPDrainRate:5
CircleSize:4
OverallDifficulty:9.5
ApproachRate:9.7
SliderMultiplier:1.4
SliderTickRate:1

[Events]
//Background and Video events
0,0,"windows_50x70_15aug_test.jpg",0,0
//Break Periods
2,22429,30068
//Storyboard Layer 0 (Background)
//Storyboard Layer 1 (Fail)
//Storyboard Layer 2 (Pass)
//Storyboard Layer 3 (Foreground)
//Storyboard Layer 4 (Overlay)
//Storyboard Sound Samples

[TimingPoints]
564,277.777777777778,4,2,1,60,1,0
702,-66.6666666666667,4,2,1,60,0,0
1120,-66.6666666666667,4,2,1,60,0,0
1258,-66.6666666666667,4,2,1,60,0,0
1397,-66.6666666666667,4,2,1,60,0,0
1536,-333.333333333333,4,2,1,60,0,0
1952,-55.5555555555556,4,2,1,60,0,0
2091,-55.5555555555556,4,2,1,60,0,0
2231,-55.5555555555556,4,2,1,60,0,0
2369,-333.333333333333,4,2,1,60,0,0
2995,-200,4,2,1,60,0,0
3272,-200,4,2,1,60,0,0
3550,-200,4,2,1,60,0,0
3758,-200,4,2,1,60,0,0
4036,-200,4,2,1,60,0,0
4452,277.777777777778,4,2,1,60,1,0
4452,-100,4,2,1,60,0,0
4869,-66.6666666666667,4,2,1,60,0,0
5285,-66.6666666666667,4,2,1,60,0,0
5702,-50,4,2,1,60,0,0
5980,-66.6666666666667,4,2,1,60,0,0
7646,-66.6666666666667,4,2,1,60,0,0
8886,-133.333333333333,4,2,1,60,0,0
9174,-50,4,2,1,60,0,0
9313,-57.1428571428571,4,2,1,60,0,0
9590,-62.5,4,2,1,60,0,0
10424,-43.4782608695652,4,2,1,60,0,0
10979,-62.5,4,2,1,60,0,0
12646,-100,4,2,1,60,0,0
12924,-50,4,2,1,60,0,0
13201,-66.6666666666667,4,2,1,60,0,0
13341,-66.6666666666667,4,2,1,60,0,0
13757,-50,4,2,1,60,0,0
14035,-66.6666666666667,4,2,1,60,0,0
15563,-66.6666666666667,4,2,1,60,0,0
15840,-100,4,2,1,60,0,0
16535,-66.6666666666667,4,2,1,60,0,0
17785,-100,4,2,1,60,0,0
18063,-66.6666666666667,4,2,1,60,0,0
18757,-333.333333333333,4,2,1,60,0,0
19035,-66.6666666666667,4,2,1,60,0,0
24452,-400,4,2,1,60,0,0
30563,-66.6666666666667,4,2,1,60,0,0
31119,-66.6666666666667,4,2,1,60,0,1
31535,-66.6666666666667,4,2,1,60,0,1
31813,-66.6666666666667,4,2,1,60,0,1
33201,-100,4,2,1,60,0,1
33480,-50,4,2,1,60,0,1
34730,-50,4,2,1,60,0,1
35563,-50,4,2,1,60,0,1
35841,-66.6666666666667,4,2,1,60,0,1
35980,-50,4,2,1,60,0,1
36257,-50,4,2,1,60,0,1
36813,-50,4,2,1,60,0,1
37646,-66.6666666666667,4,2,1,60,0,1
39313,-100,4,2,1,60,0,1
39591,-100,4,2,1,60,0,1
39799,-100,4,2,1,60,0,1
40005,-100,4,2,1,60,0,1
40285,-50,4,2,1,60,0,1
41674,-66.6666666666667,4,2,1,60,0,1
42230,-333.333333333333,4,2,1,60,0,1
43202,-66.6666666666667,4,2,1,60,0,1
45146,-33.3333333333333,4,2,1,60,0,1
45979,-66.6666666666667,4,2,1,60,0,1
46535,-40,4,2,1,60,0,1
48896,-100,4,2,1,60,0,0
58063,-66.6666666666667,4,2,1,60,0,0
58410,-57.1428571428571,4,2,1,60,0,0
58619,-50,4,2,1,60,0,0
58896,-66.6666666666667,4,2,1,60,0,0
61674,-100,4,2,1,60,0,0
62229,-58.8235294117647,4,2,1,60,0,0
63063,-100,4,2,1,60,0,0
64035,-58.8235294117647,4,2,1,60,0,0
64174,-50,4,2,1,60,0,0
65007,-47.6190476190476,4,2,1,60,0,0
66674,-100,4,2,1,60,0,1
67090,-66.6666666666667,4,2,1,60,0,1
67648,-100,4,2,1,60,0,1
68202,-50,4,2,1,60,0,1
68479,-33.3333333333333,4,2,1,60,0,1
69452,-66.6666666666667,4,2,1,60,0,1
71118,-40,4,2,1,60,0,1
71813,-66.6666666666667,4,2,1,60,0,1
72507,-44.4444444444445,4,2,1,60,0,1
72785,-66.6666666666667,4,2,1,60,0,1
73201,-44.4444444444445,4,2,1,60,0,1
74313,-40,4,2,1,60,0,1
74868,-66.6666666666667,4,2,1,60,0,1
75841,-40,4,2,1,60,0,1
77507,-66.6666666666667,4,2,1,60,0,1
79452,-66.6666666666667,4,2,1,60,0,1
80007,-50,4,2,1,60,0,1
80563,-66.6666666666667,4,2,1,60,0,1
81396,-66.6666666666667,4,2,1,60,0,1
81813,-66.6666666666667,4,2,1,60,0,1
82090,-40,4,2,1,60,0,1
82369,-100,4,2,1,60,0,1
82646,-50,4,2,1,60,0,1
82924,-100,4,2,1,60,0,1
83202,-66.6666666666667,4,2,1,60,0,1
84868,-66.6666666666667,4,2,1,5,0,1
84938,-66.6666666666667,4,2,1,15,0,1
85007,-66.6666666666667,4,2,1,25,0,1
85077,-66.6666666666667,4,2,1,35,0,1
85146,-66.6666666666667,4,2,1,45,0,1
85215,-66.6666666666667,4,2,1,55,0,1
85285,-66.6666666666667,4,2,1,65,0,1
85563,-200,4,2,1,60,0,0
90007,-100,4,2,1,60,0,0
92229,-200,4,2,1,60,0,0
92785,-66.6666666666667,4,2,1,60,0,0
93896,-200,4,2,1,60,0,0
98896,-133.333333333333,4,2,1,60,0,0
100007,-100,4,2,1,60,0,0
101118,-1000,4,2,1,60,0,0
102229,-33.3333333333333,4,2,1,60,0,0
102646,-40,4,2,1,60,0,0
103340,-66.6666666666667,4,2,1,60,0,0
111674,-100,4,2,1,60,0,0
114452,-66.6666666666667,4,2,1,60,0,0
117785,-100,4,2,1,60,0,0
118896,-33.3333333333333,4,2,1,60,0,0
119313,-66.6666666666667,4,2,1,60,0,0
119869,-57.1428571428571,4,2,1,60,0,0
120146,-100,4,2,1,60,0,0
120424,-33.3333333333333,4,2,1,60,0,0
120702,-40,4,2,1,60,0,0
122646,-33.3333333333333,4,2,1,60,0,0
122924,-33.3333333333333,4,2,1,60,0,0
123340,-66.6666666666667,4,2,1,60,0,0
128619,-66.6666666666667,4,2,1,60,0,1
129313,-40,4,2,1,60,0,1
130702,-66.6666666666667,4,2,1,60,0,1
132230,-50,4,2,1,60,0,1
132785,-66.6666666666667,4,2,1,60,0,1
133340,-100,4,2,1,60,0,1
133618,-40,4,2,1,60,0,1
133896,-33.3333333333333,4,2,1,60,0,1
135702,-66.6666666666667,4,2,1,60,0,1
136674,-50,4,2,1,60,0,1
137507,-50,4,2,1,60,0,1
138618,-100,4,2,1,60,0,1
139382,-66.6666666666667,4,2,1,60,0,1
140563,-50,4,2,1,60,0,1
141118,-40,4,2,1,60,0,1
141813,-66.6666666666667,4,2,1,60,0,1
142091,-66.6666666666667,4,2,1,60,0,1
142369,-50,4,2,1,60,0,1
143202,-66.6666666666667,4,2,1,60,0,1
143757,-50,4,2,1,60,0,1
144313,-40,4,2,1,60,0,1
144868,-33.3333333333333,4,2,1,60,0,0
145563,-50,4,2,1,60,0,0
145980,-50,4,2,1,60,0,0
147646,-1000,4,2,1,60,0,0
149729,-66.6666666666667,4,2,1,60,0,0
150007,-66.6666666666667,4,2,1,60,0,0
150423,-200,4,2,1,60,0,0
150840,-50,4,2,1,60,0,0
151257,-200,4,2,1,60,0,0

[Colours]
Combo1 : 191,128,255
Combo2 : 0,64,128
Combo3 : 136,196,255
Combo4 : 249,81,0
Combo5 : 255,206,157
Combo6 : 255,0,0
Combo7 : 128,0,255

[HitObjects]
167,320,564,5,0,1:0:0:0:
24,188,702,1,8,1:0:0:0:
48,153,772,1,8,1:0:0:0:
88,141,841,1,8,1:0:0:0:
128,154,911,1,8,1:0:0:0:
162,177,980,1,8,1:0:0:0:
202,188,1050,1,8,1:0:0:0:
235,163,1119,6,0,L|272:99,1,52.5000020027161,0|0,1:0|2:0,2:0:0:0:
348,56,1258,2,0,L|311:120,1,52.5000020027161,0|0,2:0|2:0,2:0:0:0:
316,204,1397,2,0,L|350:140,1,52.5000020027161,8|0,1:0|2:0,2:0:0:0:
275,16,1536,2,0,L|284:41,1,20.9999993591309,4|0,1:1|0:0,0:0:0:0:
358,261,1814,1,8,1:1:0:0:
12,241,1952,86,0,L|52:308,1,62.9999980773926,0|0,1:0|2:0,2:0:0:0:
133,366,2091,2,0,L|95:295,1,62.9999980773926,0|0,1:0|2:0,2:0:0:0:
92,201,2230,2,0,L|132:267,1,62.9999980773926,8|0,1:0|2:0,2:0:0:0:
22,382,2369,2,0,L|41:361,1,20.9999993591309,4|0,1:0|2:0,2:0:0:0:
191,176,2647,1,8,1:0:0:0:
175,335,2786,69,0,0:0:0:0:
204,310,3040,1,0,0:0:0:0:
234,285,3295,1,0,0:0:0:0:
264,260,3550,1,0,0:0:0:0:
294,236,3804,1,0,0:0:0:0:
324,212,4059,1,0,0:0:0:0:
407,142,4314,1,8,0:0:0:0:
491,104,4452,38,0,P|497:128|484:181,1,70,4|0,0:0|2:0,0:0:0:0:
408,326,4730,2,0,P|385:366|385:383,1,35,0|0,1:1|2:0,2:0:0:0:
211,383,4868,2,0,P|256:345|258:295,1,105.000004005432,8|0,1:1|2:0,0:0:0:0:
174,148,5147,2,0,P|184:205|226:232,1,105.000004005432,0|8,1:0|0:1,3:0:0:0:
396,229,5425,2,0,P|340:209|296:232,1,105.000004005432,0|0,0:0|1:0,0:0:0:0:
178,301,5702,86,0,P|109:306|61:260,1,140,0|0,0:0|1:0,0:0:0:0:
28,81,5980,2,0,P|75:85|113:126,1,105.000004005432,8|0,1:0|0:0,0:0:0:0:
223,222,6258,1,0,1:0:0:0:
362,151,6397,1,8,1:0:0:0:
395,0,6536,1,8,0:1:0:0:
395,0,6605,1,8,0:1:0:0:
395,0,6674,6,0,P|419:23|469:102,1,105.000004005432,4|0,0:0|0:0,0:0:0:0:
440,288,6952,1,0,1:1:0:0:
321,217,7091,1,8,0:1:0:0:
320,371,7230,1,0,1:2:0:0:
321,217,7369,1,0,1:1:0:0:
187,303,7508,1,8,0:1:0:0:
321,217,7647,2,0,P|314:137|260:114,1,105.000004005432,0|0,0:0|1:1,0:0:0:0:
172,42,7924,85,0,0:0:0:0:
71,177,8064,1,0,1:0:0:0:
63,1,8202,2,0,P|99:67|123:134,1,105.000004005432,8|0,1:0|1:0,0:0:0:0:
159,348,8480,2,0,P|144:324|138:297,1,52.5000020027161,8|0,1:0|0:0,0:0:0:0:
204,120,8619,1,8,3:0:0:0:
248,134,8689,1,4,3:0:0:0:
273,172,8758,1,4,3:0:0:0:
272,218,8827,1,4,3:0:0:0:
251,253,8896,6,0,P|238:271|213:293,1,52.5000020027161,4|0,0:0|0:0,0:0:0:0:
407,360,9174,2,0,P|431:329|467:306,1,70,0|0,1:1|0:0,0:0:0:0:
477,85,9313,2,0,P|445:138|390:174,1,122.500001168251,8|0,1:0|0:0,0:0:0:0:
67,190,9590,2,0,P|47:131|92:74,1,112,0|8,1:0|1:0,0:0:0:0:
270,212,9868,2,0,P|228:258|156:247,1,112,0|0,0:0|1:0,0:0:0:0:
191,25,10146,86,0,P|251:37|278:105,1,112,0|0,1:0|1:0,0:0:0:0:
512,72,10424,2,0,P|441:100|386:196,1,161.000003070831,8|0,1:0|0:0,0:0:0:0:
210,340,10702,1,0,1:0:0:0:
57,255,10842,1,8,1:0:0:0:
41,353,10980,2,0,L|169:283,1,112,12|0,1:1|0:0,0:0:0:0:
322,206,11257,5,0,1:0:0:0:
475,120,11397,1,8,1:0:0:0:
491,220,11535,2,0,L|362:150,1,112,12|0,1:0|0:0,0:0:0:0:
89,54,11813,1,0,1:0:0:0:
236,157,11953,1,8,1:0:0:0:
184,4,12091,2,0,L|154:146,1,112,12|0,1:0|0:0,0:0:0:0:
239,330,12368,85,8,1:0:0:0:
227,301,12438,1,8,1:0:0:0:
196,280,12507,1,8,1:0:0:0:
158,274,12577,1,8,1:0:0:0:
131,280,12646,2,0,P|104:297|86:360,1,70,2|0,1:2|0:0,0:0:0:0:
0,207,12924,2,0,L|148:135,1,140,4|0,1:1|0:0,0:0:0:0:
327,188,13202,1,8,1:0:0:0:
348,223,13271,1,4,3:0:0:0:
388,233,13340,6,0,P|445:218|468:174,1,105.000004005432,12|0,0:0|0:0,0:0:0:0:
356,0,13618,2,0,P|303:17|279:18,1,52.5000020027161,0|0,1:1|0:0,0:0:0:0:
124,26,13757,2,0,P|222:60|251:103,1,140,8|0,1:0|0:0,0:0:0:0:
344,136,14035,2,0,P|280:171|257:239,1,105.000004005432,0|8,1:0|1:0,0:0:0:0:
96,197,14313,2,0,P|158:234|228:220,1,105.000004005432,0|0,0:0|1:0,0:0:0:0:
281,384,14590,86,0,P|287:332|268:284,1,105.000004005432,0|0,1:0|1:0,0:0:0:0:
186,161,14868,2,0,L|82:83,1,105.000004005432,8|0,1:1|0:0,0:0:0:0:
261,26,15146,1,0,1:1:0:0:
420,59,15285,1,8,1:1:0:0:
512,218,15424,1,8,1:0:0:0:
512,218,15493,1,8,1:0:0:0:
512,218,15563,6,0,P|481:248|486:348,1,105.000004005432,4|0,0:0|0:0,0:0:0:0:
352,383,15840,2,0,L|347:341,1,35,0|0,1:1|0:0,0:0:0:0:
400,232,15979,2,0,L|353:225,1,35,8|0,1:1|0:0,0:0:0:0:
255,268,16118,2,0,L|246:220,1,35
307,110,16257,2,0,L|258:105,1,35,8|0,1:0|0:0,0:0:0:0:
169,144,16396,2,0,L|163:95,1,35,8|0,1:0|0:0,0:0:0:0:
80,10,16535,2,0,P|95:67|62:133,1,105.000004005432,0|0,1:0|1:0,0:0:0:0:
0,291,16813,85,0,1:0:0:0:
124,358,16952,1,0,1:0:0:0:
242,272,17090,2,0,P|276:237|339:235,1,105.000004005432,12|0,1:1|0:0,0:0:0:0:
480,261,17299,1,8,1:0:0:0:
511,289,17368,1,4,1:3:0:0:
512,337,17438,1,8,1:1:0:0:
490,363,17507,2,0,P|456:347|414:303,1,52.5000020027161,0|0,1:0|0:0,0:0:0:0:
330,232,17646,1,8,1:0:0:0:
306,193,17715,1,8,1:0:0:0:
275,164,17785,6,0,P|230:138|183:132,1,70,4|0,0:0|0:0,0:0:0:0:
91,21,18063,2,0,P|75:48|31:73,1,52.5000020027161,8|0,1:1|0:0,0:0:0:0:
49,237,18202,2,0,P|88:185|148:149,1,105.000004005432,4|0,1:1|1:0,0:0:0:0:
284,113,18479,1,4,1:0:0:0:
512,177,18757,2,0,L|494:187,1,20.9999993591309,4|0,0:0|0:0,0:0:0:0:
369,29,19035,86,0,P|407:51|416:82,1,52.5000020027161
392,183,19174,1,0,1:1:0:0:
289,261,19313,2,0,P|244:266|169:208,1,105.000004005432,8|0,1:0|0:0,0:0:0:0:
131,126,19590,54,0,P|132:91|145:68,3,35.0000013351441,0|0|0|8,0:1|0:0|0:0|1:1,0:0:0:0:
247,47,19868,38,0,L|193:172,1,105.000004005432,4|0,1:1|0:0,0:0:0:0:
182,384,20146,1,8,1:0:0:0:
155,365,20215,1,8,1:0:0:0:
146,335,20285,1,8,1:0:0:0:
155,309,20354,1,8,1:0:0:0:
179,288,20424,2,0,P|240:256|306:267,1,105.000004005432,4|0,1:0|0:0,0:0:0:0:
2,205,20702,6,0,L|54:171,1,52.5000020027161,8|0,3:0|0:0,0:0:0:0:
116,91,20840,2,0,L|168:97,1,52.5000020027161,4|0,3:0|0:0,0:0:0:0:
279,56,20979,2,0,L|309:98,1,52.5000020027161,4|0,1:0|0:0,0:0:0:0:
415,77,21118,85,8,1:1:0:0:
457,86,21188,1,8,1:1:0:0:
483,118,21257,1,8,3:0:0:0:
497,157,21327,1,8,3:0:0:0:
488,197,21396,1,4,3:0:0:0:
460,228,21465,1,4,3:0:0:0:
411,242,21535,6,0,P|380:247|335:236,1,52.5000020027161,4|0,1:0|0:0,0:0:0:0:
230,146,21674,1,8,1:1:0:0:
210,109,21743,1,8,1:1:0:0:
168,97,21813,1,8,1:1:0:0:
134,122,21882,1,8,1:1:0:0:
133,165,21952,1,8,1:1:0:0:
164,191,22021,1,8,1:1:0:0:
164,232,22090,1,12,1:1:0:0:
133,262,22160,1,8,1:1:0:0:
90,262,22229,1,12,0:0:0:0:
79,165,30563,85,0,1:1:0:0:
119,88,30702,1,8,1:0:0:0:
146,103,30771,1,8,1:0:0:0:
161,130,30840,1,0,1:0:0:0:
159,215,30979,1,8,1:0:0:0:
155,246,31049,1,8,1:0:0:0:
164,288,31118,2,0,P|219:240|263:238,1,105.000004005432,4|0,0:0|1:0,1:0:0:0:
464,322,31396,6,0,P|487:328|538:362,1,52.5000020027161,8|0,1:1|0:0,0:0:0:0:
462,215,31535,2,0,P|412:210|360:152,1,105.000004005432
494,37,31813,2,0,L|441:137,1,105.000004005432,0|0,1:0|0:0,0:0:0:0:
297,373,32090,2,0,P|264:332|216:312,1,105.000004005432,8|0,1:0|0:0,0:0:0:0:
92,304,32368,86,0,P|33:271|33:262,1,52.5000020027161,0|0,1:0|0:0,0:0:0:0:
8,234,32507,1,8,1:0:0:0:
48,218,32577,1,0,1:1:0:0:
72,183,32646,1,0,1:0:0:0:
65,135,32715,1,0,1:0:0:0:
113,147,32785,1,0,1:0:0:0:
136,112,32854,1,0,1:0:0:0:
175,110,32924,1,0,1:0:0:0:
203,147,32993,1,0,1:0:0:0:
192,188,33063,2,0,P|261:213|273:207,1,52.5000020027161,8|0,1:0|0:0,0:0:0:0:
244,272,33202,2,0,P|295:253|311:253,1,70,4|0,1:1|0:0,0:0:0:0:
361,331,33479,1,0,1:0:0:0:
378,338,33526,21,0,1:0:0:0:
431,307,33618,1,8,1:0:0:0:
428,246,33711,1,0,1:0:0:0:
388,199,33803,1,0,1:0:0:0:
364,137,33896,1,0,1:0:0:0:
383,77,33989,1,0,1:0:0:0:
437,49,34081,1,0,1:0:0:0:
497,74,34174,1,0,1:0:0:0:
508,139,34266,21,0,1:0:0:0:
501,171,34313,1,8,1:0:0:0:
480,182,34359,1,0,1:0:0:0:
408,194,34452,85,0,1:0:0:0:
347,157,34544,5,0,1:0:0:0:
325,138,34590,1,0,1:0:0:0:
324,115,34637,1,0,1:0:0:0:
291,48,34729,54,0,P|223:17|176:35,1,70,8|0,1:0|0:0,0:0:0:0:
0,76,34868,1,4,1:0:0:0:
46,57,34938,1,0,1:0:0:0:
90,55,35007,1,8,1:0:0:0:
137,73,35077,1,8,1:0:0:0:
171,113,35146,1,0,1:0:0:0:
194,159,35215,2,0,P|196:208|160:248,1,70,0|8,0:0|1:0,0:0:0:0:
42,240,35354,1,0,1:0:0:0:
0,281,35424,1,8,1:0:0:0:
0,335,35493,1,0,1:0:0:0:
35,371,35563,86,0,L|199:329,1,140,4|0,1:0|0:0,0:0:0:0:
364,245,35840,2,0,P|420:226|459:264,1,70,8|0,1:0|0:0,0:0:0:0:
476,346,35979,2,0,P|437:367|341:355,1,105.000004005432,0|0,1:0|0:0,0:0:0:0:
180,370,36257,2,0,P|224:290|287:256,1,140,0|0,1:0|0:0,0:0:0:0:
322,88,36535,2,0,P|300:141|210:210,1,140,8|0,1:0|0:0,0:0:0:0:
28,213,36813,6,0,P|4:134|20:112,1,70,0|0,1:0|0:0,0:0:0:0:
0,153,36952,1,8,1:0:0:0:
12,32,37090,2,0,B|58:32|79:54|79:54|100:73|147:93|185:49,1,140,0|0,1:0|0:0,0:0:0:0:
484,249,37299,1,0,1:0:0:0:
484,249,37368,1,0,1:0:0:0:
405,120,37507,1,8,1:0:0:0:
330,230,37646,2,0,L|259:347,1,105.000004005432,12|0,1:0|0:0,0:0:0:0:
473,287,37924,85,0,1:0:0:0:
437,109,38063,1,8,1:0:0:0:
307,202,38202,2,0,L|191:295,1,105.000004005432,12|0,1:0|0:0,0:0:0:0:
445,322,38479,1,0,1:0:0:0:
476,113,38618,1,8,1:0:0:0:
297,163,38757,2,0,L|163:211,1,105.000004005432,12|0,1:0|0:0,0:0:0:0:
115,98,39035,6,0,P|184:83|198:72,1,52.5000020027161,0|0,1:0|0:0,0:0:0:0:
258,22,39174,2,0,P|233:15|207:17,1,52.5000020027161,8|0,1:0|0:0,0:0:0:0:
37,49,39313,85,4,1:0:0:0:
68,161,39590,5,4,1:0:0:0:
90,227,39799,85,4,1:0:0:0:
112,296,40007,6,0,L|134:364,1,70,4|0,1:0|0:0,0:0:0:0:
325,291,40285,2,0,P|352:312|361:345,1,70,8|0,1:1|0:0,0:0:0:0:
225,228,40424,2,0,P|217:113|255:83,1,140,0|0,1:1|0:0,0:0:0:0:
465,1,40702,1,0,1:1:0:0:
432,13,40771,1,0,1:1:0:0:
423,46,40840,1,8,1:1:0:0:
437,78,40910,1,0,1:1:0:0:
458,105,40979,1,0,1:1:0:0:
458,140,41049,1,0,1:1:0:0:
428,162,41118,86,0,P|446:215|505:241,1,70,0|0,1:0|0:0,0:0:0:0:
511,373,41257,1,0,1:1:0:0:
496,336,41327,1,0,1:1:0:0:
450,313,41396,1,8,1:1:0:0:
406,333,41465,1,0,1:1:0:0:
352,335,41535,1,0,1:1:0:0:
311,303,41604,1,0,1:1:0:0:
291,254,41674,2,0,P|276:232|266:192,1,52.5000020027161
176,194,41813,2,0,P|164:217|134:246,1,52.5000020027161
182,318,41952,2,0,P|208:316|248:327,1,52.5000020027161,8|0,1:1|0:0,0:0:0:0:
347,85,42090,2,0,P|271:85|233:138,1,105.000004005432,0|4,0:0|1:1,0:0:0:0:
21,188,42368,5,0,0:0:0:0:
184,248,42507,1,8,0:1:0:0:
152,78,42646,1,0,1:1:0:0:
120,170,42785,1,0,0:0:0:0:
267,131,42924,1,0,0:0:0:0:
403,169,43063,1,8,1:0:0:0:
512,121,43202,2,0,P|461:59|390:47,1,105.000004005432,12|0,0:1|0:0,0:0:0:0:
263,25,43479,86,0,P|228:83|221:112,1,52.5000020027161,0|0,1:0|0:0,0:0:0:0:
250,249,43618,2,0,P|236:226|220:207,1,52.5000020027161,8|0,1:0|0:0,0:0:0:0:
54,54,43757,2,0,P|85:100|132:141,1,105.000004005432,4|0,1:0|0:0,0:0:0:0:
348,198,44035,1,8,1:0:0:0:
383,181,44104,1,8,1:0:0:0:
423,191,44174,1,0,1:0:0:0:
507,382,44313,1,8,1:0:0:0:
507,382,44452,6,0,P|441:342|389:324,1,105.000004005432,4|0,1:1|0:0,0:0:0:0:
241,305,44729,2,0,P|212:346|182:368,1,52.5000020027161,8|0,1:1|0:0,0:0:0:0:
78,302,44868,2,0,P|118:248|185:223,1,105.000004005432,4|0,1:0|0:0,0:0:0:0:
387,68,45146,2,0,P|262:66|125:18,1,210.000008010865,4|0,1:0|0:0,0:0:0:0:
8,272,45424,2,0,P|87:185|176:131,1,210.000008010865,4|0,1:0|0:0,0:0:0:0:
397,137,45702,86,0,P|470:184|479:217,1,105.000004005432,0|0,1:0|0:0,0:0:0:0:
475,196,45840,1,8,1:1:0:0:
374,319,45979,2,0,P|321:293|298:223,1,105.000004005432,0|0,1:1|0:0,0:0:0:0:
297,95,46257,54,0,P|304:68|321:40,3,35.0000013351441,0|0|0|8,1:0|0:0|0:0|1:0,0:0:0:0:
252,9,46535,38,0,P|220:76|230:192,1,175,12|0,1:0|0:0,0:0:0:0:
274,293,46813,1,0,1:0:0:0:
394,323,46952,1,8,1:0:0:0:
512,258,47090,2,0,P|469:196|364:147,1,175,12|0,1:0|0:0,0:0:0:0:
223,174,47368,1,0,1:0:0:0:
94,240,47507,1,8,1:0:0:0:
0,365,47646,2,0,P|74:359|169:292,1,175,12|0,1:0|0:0,0:0:0:0:
223,174,47924,1,0,1:0:0:0:
192,36,48063,21,8,1:0:0:0:
145,1,48155,1,8,1:0:0:0:
87,9,48248,1,8,1:0:0:0:
64,62,48340,1,8,3:0:0:0:
80,118,48433,1,8,3:0:0:0:
135,136,48526,1,8,3:0:0:0:
187,112,48618,1,4,3:0:0:0:
238,139,48711,1,4,3:0:0:0:
247,196,48803,1,4,3:0:0:0:
227,237,48896,86,0,P|173:286|154:295,1,70,4|0,0:0|0:0,0:0:0:0:
87,253,49174,1,0,1:1:0:0:
30,331,49313,1,0,0:0:0:0:
87,384,49452,2,0,P|129:366|163:366,1,70,8|0,0:1|0:0,0:0:0:0:
262,323,49729,2,0,P|308:345|351:354,1,70
433,295,50007,86,0,P|451:241|425:216,1,70,0|0,1:0|0:0,0:0:0:0:
381,157,50285,1,0,1:1:0:0:
276,172,50424,1,0,1:0:0:0:
198,107,50563,1,8,1:0:0:0:
152,26,50702,1,0,1:0:0:0:
61,35,50840,1,0,1:0:0:0:
34,127,50979,1,0,0:0:0:0:
107,181,51118,6,0,B|175:199|152:103|255:142,1,140,0|0,1:0|0:0,0:0:0:0:
330,125,51535,1,0,0:0:0:0:
419,170,51674,1,8,1:0:0:0:
451,266,51813,1,0,0:0:0:0:
399,347,51952,1,0,0:0:0:0:
308,359,52090,1,0,0:0:0:0:
230,324,52229,86,0,P|197:299|182:258,1,70,0|0,1:0|0:0,0:0:0:0:
166,166,52507,1,0,1:0:0:0:
212,82,52646,1,0,1:0:0:0:
318,37,52785,2,0,P|377:61|389:91,1,70,8|0,1:0|1:0,0:0:0:0:
440,148,53063,1,0,1:0:0:0:
324,358,53340,6,0,P|275:297|257:292,1,70,0|0,1:0|0:0,0:0:0:0:
198,256,53618,1,0,0:0:0:0:
106,221,53757,1,0,0:0:0:0:
25,284,53896,2,0,P|29:319|58:349,1,70,8|0,1:0|0:0,0:0:0:0:
146,330,54174,1,0,0:0:0:0:
198,256,54313,1,0,0:0:0:0:
206,147,54452,86,0,P|250:183|250:201,1,70,0|0,1:0|0:0,0:0:0:0:
316,241,54729,2,0,P|320:276|342:303,1,70,0|0,1:0|1:0,0:0:0:0:
405,358,55007,2,0,P|426:331|434:297,1,70,8|0,1:0|1:0,0:0:0:0:
431,217,55285,2,0,P|429:182|442:150,1,70,0|0,1:1|0:0,0:0:0:0:
473,83,55563,5,0,1:0:0:0:
421,17,55702,1,8,1:0:0:0:
331,37,55840,1,0,1:0:0:0:
319,124,55979,1,0,1:0:0:0:
273,205,56118,1,8,1:0:0:0:
220,271,56257,2,0,P|172:295|133:292,1,70
113,159,56535,1,0,0:0:0:0:
113,159,56604,1,0,0:0:0:0:
113,159,56674,86,0,B|178:280|285:88|363:232,1,280,0|8,1:0|1:0,0:0:0:0:
391,336,57368,1,0,1:0:0:0:
391,336,57507,1,0,1:0:0:0:
455,236,57785,6,0,P|426:210|399:196,1,70
304,172,57993,1,0,1:0:0:0:
304,172,58063,2,0,P|373:120|427:132,1,105.000004005432,0|0,0:0|1:0,0:0:0:0:
425,28,58340,2,0,P|465:3|494:4,2,52.5000020027161,0|0|0,0:0|1:0|0:0,0:0:0:0:
312,19,58618,2,0,P|292:68|232:115,1,122.500001168251,4|0,0:0|0:0,0:0:0:0:
142,129,58896,86,0,P|71:134|34:175,1,105.000004005432,0|0,1:1|0:0,0:0:0:0:
0,264,59174,1,0,1:0:0:0:
70,350,59313,1,0,1:0:0:0:
180,356,59452,2,0,P|241:328|256:276,1,105.000004005432,8|0,1:0|1:0,0:0:0:0:
322,166,59729,2,0,P|261:194|246:246,1,105.000004005432,0|0,1:0|0:0,0:0:0:0:
347,346,60007,6,0,P|442:303|436:180,1,210.000008010865,0|0,1:0|0:0,0:0:0:0:
416,102,60424,1,0,1:0:0:0:
286,93,60563,1,8,1:0:0:0:
197,177,60702,1,0,0:0:0:0:
193,292,60840,1,0,1:0:0:0:
100,363,60979,1,0,0:0:0:0:
1,344,61118,86,0,B|34:299|-2:231|-2:231|-25:193|0:144,1,210.000008010865,0|0,1:0|1:0,0:0:0:0:
40,34,61535,1,0,1:0:0:0:
162,23,61674,2,0,P|200:67|201:152,1,140,8|0,1:0|1:0,0:0:0:0:
150,280,62229,6,0,B|204:298|204:298|248:244,1,119.000002269745,4|0,1:1|0:0,0:0:0:0:
279,140,62507,1,8,0:1:0:0:
410,317,62646,1,4,1:1:0:0:
485,198,62785,1,8,1:1:0:0:
490,151,62854,1,8,1:1:0:0:
467,109,62924,1,8,1:1:0:0:
412,92,62993,1,8,1:1:0:0:
371,109,63063,2,0,P|350:164|333:252,1,140,4|0,1:0|0:0,0:0:0:0:
274,352,63479,85,8,3:0:0:0:
177,354,63618,1,8,3:0:0:0:
142,260,63757,1,0,1:0:0:0:
187,180,63896,1,8,1:0:0:0:
191,72,64035,1,4,1:0:0:0:
104,31,64174,6,0,P|129:131|326:241,1,280,0|0,1:0|1:0,0:0:0:0:
264,235,64590,86,0,P|145:184|106:303,1,280,8|8,1:1|1:1,0:0:0:0:
103,297,65007,6,0,B|148:230|135:185|104:172|56:167|27:182|-16:238|-31:320|-32:372|36:395|116:387|151:318|154:240|154:240|165:105|239:70|274:59|323:63|368:91|384:149|326:169|256:172|184:197|198:303|297:307,1,1102.49996635437,12|0,1:1|0:0,0:0:0:0:
485,288,66118,85,8,1:1:0:0:
487,252,66188,1,0,1:0:0:0:
464,225,66257,1,0,1:0:0:0:
429,231,66327,1,0,1:0:0:0:
404,255,66396,1,0,1:0:0:0:
370,265,66465,1,0,1:0:0:0:
340,246,66535,1,0,1:0:0:0:
331,212,66604,1,0,1:0:0:0:
349,187,66674,6,0,P|375:155|377:138,1,35,12|0,2:0|0:0,0:0:0:0:
350,19,66813,2,0,P|364:57|378:67,1,35
487,116,66952,2,0,P|446:109|430:116,1,35,8|0,1:0|2:0,2:0:0:0:
281,120,67090,2,0,P|249:148|215:223,1,105.000004005432,0|0,0:0|1:0,0:0:0:0:
144,344,67368,1,0,1:1:0:0:
100,370,67438,1,0,1:0:0:0:
47,363,67507,2,0,P|48:292|66:278,1,52.5000020027161,8|0,1:0|0:0,0:0:0:0:
133,95,67646,2,0,P|140:41|86:10,1,105.000004005432,4|0,1:1|0:0,0:0:0:0:
0,113,67924,86,0,L|54:139,1,35,0|0,1:0|0:0,0:0:0:0:
235,225,68063,2,0,L|197:212,1,35,8|0,1:0|0:0,0:0:0:0:
0,264,68202,2,0,P|38:210|130:196,1,140,0|0,1:0|1:0,0:0:0:0:
266,345,68479,5,8,1:1:0:0:
317,363,68549,1,8,1:1:0:0:
354,344,68618,1,0,1:0:0:0:
378,309,68688,1,0,1:0:0:0:
380,265,68757,1,4,1:0:0:0:
363,224,68827,1,0,1:0:0:0:
323,201,68896,1,0,1:0:0:0:
302,161,68965,1,0,1:0:0:0:
318,111,69035,1,0,1:0:0:0:
360,101,69104,1,0,1:0:0:0:
394,120,69174,1,8,1:0:0:0:
427,151,69243,1,0,1:0:0:0:
474,149,69313,1,0,1:0:0:0:
504,118,69382,1,0,1:0:0:0:
509,79,69452,2,0,P|492:58|471:43,1,52.5000020027161
199,26,69590,86,0,P|182:95|161:114,1,52.5000020027161,0|0,1:1|0:0,0:0:0:0:
132,186,69729,2,0,P|149:117|170:98,1,52.5000020027161,8|0,1:0|0:0,0:0:0:0:
140,7,69868,6,0,P|160:74|152:102,1,52.5000020027161,4|0,1:1|0:0,0:0:0:0:
181,228,70007,2,0,P|160:160|168:132,1,52.5000020027161
78,36,70146,86,0,P|142:64|158:88,1,52.5000020027161,0|0,1:0|0:0,0:0:0:0:
247,194,70285,2,0,P|182:165|166:141,1,52.5000020027161,8|0,1:0|0:0,0:0:0:0:
34,121,70424,5,4,1:1:0:0:
34,121,70563,1,4,1:0:0:0:
0,231,70702,1,0,1:1:0:0:
17,271,70771,2,0,P|80:286|98:276,1,52.5000020027161,0|8,0:0|1:0,0:0:0:0:
152,364,70910,1,0,1:1:0:0:
180,332,70979,2,0,P|235:309|255:317,1,52.5000020027161
349,359,71118,86,0,P|439:317|536:298,1,175,4|0,1:0|0:0,0:0:0:0:
512,190,71396,6,0,P|424:188|329:153,1,175,12|0,1:1|0:0,0:0:0:0:
218,90,71674,1,0,1:1:0:0:
386,16,71813,1,0,1:1:0:0:
354,20,71882,2,0,P|343:51|377:103,1,52.5000020027161,0|8,1:1|1:0,0:0:0:0:
215,285,72021,1,0,1:0:0:0:
236,240,72090,2,0,P|222:190|190:162,1,52.5000020027161,0|0,1:1|0:0,0:0:0:0:
112,76,72229,86,0,P|84:57|32:44,1,52.5000020027161,0|0,1:1|0:0,0:0:0:0:
22,167,72368,1,0,1:1:0:0:
71,193,72438,1,0,1:0:0:0:
131,189,72507,2,0,P|206:162|293:142,1,157.500006008148,12|0,1:0|0:0,0:0:0:0:
474,132,72785,1,0,1:1:0:0:
504,152,72854,1,0,1:1:0:0:
512,202,72924,1,0,1:1:0:0:
490,231,72993,1,8,1:0:0:0:
453,239,73063,1,8,1:0:0:0:
420,222,73132,1,8,1:0:0:0:
381,189,73202,2,0,P|312:147|190:189,1,196.875007510186,4|0,1:0|0:0,0:0:0:0:
41,325,73479,6,0,P|95:292|124:258,1,78.7500030040742,0|0,1:0|0:0,0:0:0:0:
219,382,73618,2,0,P|219:323|202:276,1,78.7500030040742,8|0,1:0|0:0,0:0:0:0:
143,173,73757,2,0,P|118:79|171:35,1,157.500006008148,4|4,1:0|0:0,0:0:0:0:
327,21,74035,2,0,P|297:44|284:84,1,78.7500030040742,0|0,1:1|0:0,0:0:0:0:
405,143,74174,2,0,P|444:155|469:194,1,78.7500030040742,8|0,1:0|0:0,0:0:0:0:
512,343,74313,2,0,P|372:289|283:313,1,175,4|0,1:0|0:0,0:0:0:0:
109,284,74590,1,0,1:0:0:0:
127,384,74729,2,0,P|204:295|195:216,1,175,12|0,1:0|0:0,0:0:0:0:
427,202,74938,85,8,1:1:0:0:
397,257,75007,1,8,1:1:0:0:
333,263,75077,1,0,1:1:0:0:
286,220,75146,1,0,1:1:0:0:
294,157,75215,1,8,1:1:0:0:
340,113,75285,1,8,1:1:0:0:
341,51,75354,1,0,1:1:0:0:
289,13,75424,1,8,1:1:0:0:
228,6,75493,1,0,1:1:0:0:
177,10,75563,6,0,P|132:26|94:57,1,52.5000020027161,4|0,1:0|0:0,0:0:0:0:
22,97,75702,2,0,P|1:140|-4:188,1,52.5000020027161
5,276,75840,2,0,P|21:321|52:359,1,52.5000020027161,12|0,1:0|0:0,0:0:0:0:
105,380,75979,2,0,P|92:306|212:277,1,175,0|12,1:1|1:1,0:0:0:0:
393,246,76257,1,0,1:0:0:0:
393,246,76327,1,0,1:0:0:0:
393,246,76396,2,0,P|484:268|497:238,1,87.5,12|0,1:0|2:0,0:0:0:0:
512,169,76535,1,0,1:0:0:0:
480,142,76604,1,0,1:0:0:0:
442,135,76674,85,12,1:0:0:0:
325,128,76813,2,0,P|260:200|267:249,1,87.5,0|0,1:0|0:0,0:0:0:0:
122,189,76952,2,0,P|216:209|255:178,1,87.5,12|0,1:0|0:0,0:0:0:0:
277,335,77090,2,0,P|247:242|201:224,1,87.5,0|0,1:0|0:0,0:0:0:0:
208,126,77229,1,4,1:0:0:0:
208,126,77368,1,4,1:0:0:0:
22,61,77507,1,4,1:0:0:0:
53,63,77577,1,0,1:0:0:0:
75,84,77646,1,0,1:0:0:0:
83,114,77715,1,0,1:0:0:0:
69,152,77785,1,12,1:0:0:0:
51,177,77854,1,0,1:0:0:0:
55,208,77924,1,0,1:0:0:0:
79,227,77993,1,0,1:0:0:0:
110,230,78063,1,12,1:0:0:0:
139,220,78132,1,0,1:0:0:0:
151,190,78202,1,0,1:0:0:0:
150,158,78271,1,0,1:0:0:0:
167,125,78340,54,0,L|201:106,2,35.0000013351441,4|0|0,1:0|1:0|1:0,1:0:0:0:
236,183,78479,53,0,1:0:0:0:
268,209,78549,1,0,1:0:0:0:
269,250,78618,1,12,1:0:0:0:
233,272,78688,1,0,1:0:0:0:
213,309,78757,1,0,1:0:0:0:
229,348,78827,1,0,1:0:0:0:
268,350,78896,85,12,1:0:0:0:
306,365,78965,1,0,1:0:0:0:
304,322,79035,1,0,1:0:0:0:
342,338,79104,1,0,1:0:0:0:
324,299,79174,1,12,1:0:0:0:
200,23,79313,1,4,1:1:0:0:
458,68,79452,2,0,L|482:155,1,52.5000020027161,4|0,1:0|0:0,0:0:0:0:
466,284,79590,1,0,1:0:0:0:
468,246,79660,2,0,P|435:220|395:204,1,52.5000020027161,4|0,1:0|0:0,0:0:0:0:
288,103,79799,1,0,1:0:0:0:
280,138,79868,2,0,P|255:162|213:182,1,52.5000020027161,4|0,1:0|0:0,0:0:0:0:
127,28,80007,6,0,P|128:157|115:174,1,140,4|0,1:1|0:0,0:0:0:0:
29,353,80285,2,0,P|54:265|123:203,1,140,12|0,0:0|0:0,0:0:0:0:
239,171,80563,2,0,P|284:129|294:94,1,52.5000020027161,4|0,1:1|0:0,0:0:0:0:
340,0,80702,1,0,1:1:0:0:
302,15,80771,2,0,P|315:74|341:101,1,52.5000020027161,4|8,1:1|1:0,0:0:0:0:
435,191,80910,1,0,1:0:0:0:
414,150,80979,2,0,P|355:132|319:140,1,52.5000020027161,4|0,1:0|0:0,0:0:0:0:
221,69,81118,1,4,1:0:0:0:
51,37,81257,85,4,1:0:0:0:
27,184,81396,2,0,P|103:159|137:141,1,105.000004005432,12|0,1:0|0:0,0:0:0:0:
286,68,81674,1,0,1:1:0:0:
339,83,81743,1,0,1:1:0:0:
365,132,81813,1,0,1:1:0:0:
361,191,81882,1,8,1:1:0:0:
402,234,81952,1,8,1:1:0:0:
462,229,82021,1,0,1:1:0:0:
454,165,82090,2,0,L|333:309,1,175,4|0,1:1|0:0,0:0:0:0:
280,364,82368,5,0,1:1:0:0:
202,284,82507,1,8,1:0:0:0:
139,191,82646,2,0,L|47:58,1,140,0|0,1:0|0:0,0:0:0:0:
5,0,82924,1,0,1:0:0:0:
3,149,83063,1,0,1:0:0:0:
3,298,83202,2,0,L|124:200,1,105.000004005432,0|0,1:0|0:0,0:0:0:0:
243,102,83618,1,0,1:0:0:0:
243,102,83896,1,8,1:0:0:0:
467,85,84035,2,0,P|519:136|544:144,1,52.5000020027161,4|0,1:0|0:0,0:0:0:0:
462,315,84313,2,0,P|400:252|159:242,1,315.000012016297,4|0,1:0|0:0,0:0:0:0:
206,357,84868,85,8,1:0:0:0:
218,339,84938,1,8,1:0:0:0:
233,317,85007,1,8,1:0:0:0:
250,294,85077,1,8,1:0:0:0:
272,264,85146,1,8,1:0:0:0:
295,229,85215,1,8,1:0:0:0:
323,191,85285,1,8,1:0:0:0:
74,37,85563,5,0,0:0:0:0:
188,65,85979,1,0,0:0:0:0:
303,115,86396,2,0,P|374:173|342:285,1,210
19,274,87785,1,0,0:0:0:0:
105,162,88202,1,0,0:0:0:0:
234,94,88618,2,0,B|294:76|340:103|340:103|371:123|442:104,1,210
489,201,90007,54,0,L|424:239,4,56
398,303,90563,2,0,L|349:274,4,56
263,226,91118,5,0,0:0:0:0:
222,178,91229,1,0,0:0:0:0:
211,116,91340,1,0,0:0:0:0:
228,58,91452,1,0,0:0:0:0:
272,14,91563,1,0,0:0:0:0:
336,9,91674,85,0,0:0:0:0:
323,72,91785,1,0,0:0:0:0:
282,105,91896,1,0,0:0:0:0:
216,107,92007,1,0,0:0:0:0:
168,155,92118,1,0,0:0:0:0:
160,222,92229,1,0,1:1:0:0:
7,278,92785,54,0,P|43:199|52:193,5,70.0000026702882
5,127,93340,2,0,P|91:118|101:123,5,70.0000026702882
104,36,93896,2,0,P|143:42|175:72,1,70
239,161,94452,69,0,1:1:0:0:
210,267,94868,1,0,0:0:0:0:
307,357,95285,2,0,P|345:308|346:160,1,210
79,168,96674,5,0,0:0:0:0:
167,71,97090,1,0,0:0:0:0:
276,28,97507,2,0,P|324:17|493:42,1,210
66,335,98896,86,0,P|39:298|48:228,1,105.000004005432
112,110,99452,1,0,0:0:0:0:
333,249,100007,2,0,P|403:242|443:169,1,140
396,59,100563,1,0,0:0:0:0:
254,14,101118,2,0,L|255:43,1,28,0|0,1:0|0:0,0:0:0:0:
224,334,102229,2,0,L|85:282,1,105.000004005432,4|0,1:0|0:0,0:0:0:0:
110,256,102368,2,0,L|206:295,1,105.000004005432,4|0,1:0|0:0,0:0:0:0:
439,313,102646,2,0,P|396:222|283:189,1,175,4|0,0:1|0:0,0:0:0:0:
159,49,102924,2,0,P|202:140|319:172,1,175,4|8,0:1|1:1,0:0:0:0:
80,276,103340,22,0,P|53:303|43:340,2,70.0000026702882,0|0|0,1:1|0:0|0:0,0:0:0:0:
150,287,103618,2,0,P|180:263|200:227,2,70.0000026702882,0|0|0,1:0|0:0|0:0,0:0:0:0:
194,99,103896,2,0,P|199:137|220:172,2,70.0000026702882,0|0|0,1:0|0:0|0:0,0:0:0:0:
337,232,104174,2,0,P|301:217|260:218,2,70.0000026702882,0|0|0,1:0|0:0|0:0,0:0:0:0:
382,264,104452,5,0,1:0:0:0:
421,250,104544,1,0,0:0:0:0:
447,217,104637,1,0,0:0:0:0:
433,177,104729,1,0,1:0:0:0:
392,165,104822,1,0,0:0:0:0:
366,132,104914,1,0,0:0:0:0:
375,90,105007,1,0,1:0:0:0:
382,48,105100,1,0,0:0:0:0:
352,18,105192,1,0,0:0:0:0:
311,4,105285,1,0,1:0:0:0:
271,17,105377,1,0,0:0:0:0:
259,57,105470,1,0,0:0:0:0:
178,68,105563,86,0,P|197:101|231:124,2,70.0000026702882,0|0|0,1:0|0:0|0:0,0:0:0:0:
173,181,105840,2,0,P|209:193|250:190,2,70.0000026702882,0|0|0,1:0|0:0|0:0,0:0:0:0:
473,250,106118,2,0,P|434:249|400:226,2,70.0000026702882,0|0|0,1:0|0:0|0:0,0:0:0:0:
380,309,106396,2,0,P|350:283|333:246,2,70.0000026702882,0|0|0,1:0|0:0|0:0,0:0:0:0:
321,212,106674,5,0,1:0:0:0:
313,171,106766,1,0,0:0:0:0:
283,140,106859,1,0,0:0:0:0:
238,132,106952,1,0,1:0:0:0:
196,124,107044,1,0,0:0:0:0:
179,85,107137,1,0,0:0:0:0:
215,65,107229,1,0,1:0:0:0:
246,93,107322,1,0,0:0:0:0:
238,132,107414,1,0,0:0:0:0:
214,166,107507,1,0,1:0:0:0:
180,191,107600,1,0,0:0:0:0:
158,226,107692,1,0,0:0:0:0:
77,322,107785,85,0,1:0:0:0:
86,279,107877,1,0,0:0:0:0:
69,244,107970,1,0,0:0:0:0:
37,218,108063,2,0,P|25:152|30:144,3,52.5000020027161,0|0|0|0,1:0|0:0|0:0|0:0,0:0:0:0:
16,74,108340,5,0,1:0:0:0:
49,104,108433,1,0,0:0:0:0:
95,100,108526,1,0,0:0:0:0:
123,73,108618,2,0,P|129:49|151:20,3,52.5000020027161,0|0|0|0,1:0|0:0|0:0|0:0,0:0:0:0:
215,66,108896,85,0,1:0:0:0:
196,115,108989,1,0,0:0:0:0:
213,165,109081,1,0,0:0:0:0:
260,196,109174,2,0,P|279:238|272:278,3,52.5000020027161,0|0|0|0,1:0|0:0|0:0|0:0,0:0:0:0:
314,379,109452,5,0,1:0:0:0:
319,322,109544,1,0,0:0:0:0:
364,276,109637,1,0,0:0:0:0:
421,264,109729,2,0,P|468:225|470:210,3,52.5000020027161,0|0|0|0,1:0|0:0|0:0|0:0,0:0:0:0:
437,145,110007,85,0,1:0:0:0:
380,134,110100,1,0,0:0:0:0:
351,94,110192,1,0,0:0:0:0:
328,40,110285,2,0,P|253:22|243:27,3,52.5000020027161,0|0|0|0,1:0|0:0|0:0|0:0,0:0:0:0:
167,28,110563,6,0,P|191:59|205:87,5,70.0000026702882,0|0|0|0|0|0,1:0|0:0|0:0|1:0|0:0|0:0,0:0:0:0:
198,130,111118,1,0,1:0:0:0:
192,181,111211,1,0,0:0:0:0:
225,220,111303,1,0,0:0:0:0:
272,225,111396,1,0,1:0:0:0:
311,266,111489,1,0,0:0:0:0:
310,318,111581,1,0,0:0:0:0:
262,340,111674,2,0,P|224:325|174:340,1,70,0|0,1:1|0:0,0:0:0:0:
0,381,111952,69,0,0:0:0:0:
26,372,112021,1,0,0:0:0:0:
42,350,112090,1,0,0:0:0:0:
44,326,112160,1,0,0:0:0:0:
30,300,112229,6,0,P|5:259|5:232,2,46.6666666666667,0|0|0,1:0|0:0|0:0,0:0:0:0:
103,235,112507,2,0,P|127:193|127:165,2,46.6666666666667,8|0|0,1:0|0:0|0:0,0:0:0:0:
16,173,112785,2,0,P|0:125|4:101,2,46.6666666666667,0|0|0,1:0|0:0|0:0,0:0:0:0:
104,109,113063,2,0,P|125:64|122:39,2,46.6666666666667,8|0|0,1:0|0:0|0:0,0:0:0:0:
163,10,113340,5,0,1:0:0:0:
204,40,113433,1,0,0:0:0:0:
228,85,113526,1,0,0:0:0:0:
204,130,113618,1,8,1:0:0:0:
194,180,113711,1,0,0:0:0:0:
213,226,113803,1,0,0:0:0:0:
262,240,113896,1,0,1:0:0:0:
309,219,113989,1,0,0:0:0:0:
326,170,114081,1,0,0:0:0:0:
302,123,114174,1,8,1:0:0:0:
331,81,114266,1,0,0:0:0:0:
386,79,114359,1,0,0:0:0:0:
433,123,114452,86,0,P|413:156|379:179,2,70.0000026702882,0|0|0,1:0|0:0|0:0,0:0:0:0:
438,236,114729,2,0,P|401:248|354:242,2,70.0000026702882,8|0|0,1:0|0:0|0:0,0:0:0:0:
400,323,115007,2,0,P|361:322|323:305,2,70.0000026702882,0|0|0,1:0|0:0|0:0,0:0:0:0:
304,383,115284,2,0,P|274:357|257:320,2,70.0000026702882,8|0|0,1:0|0:0|0:0,0:0:0:0:
240,275,115563,1,0,1:0:0:0:
210,227,115655,1,0,0:0:0:0:
222,172,115748,1,0,0:0:0:0:
256,127,115840,1,8,1:0:0:0:
238,73,115933,1,0,0:0:0:0:
184,55,116026,1,0,0:0:0:0:
129,64,116118,1,0,1:0:0:0:
103,108,116211,21,0,0:0:0:0:
115,118,116257,1,0,0:0:0:0:
122,142,116327,37,12,1:3:0:0:
118,164,116396,1,8,1:0:0:0:
102,224,116489,37,0,0:0:0:0:
48,243,116581,1,0,0:0:0:0:
13,197,116674,2,4,P|36:146|35:92,1,105.000004005432,4|0,1:0|0:0,1:0:0:0:
392,23,116952,70,0,L|454:42,1,52.5000020027161,8|0,1:0|0:0,0:0:0:0:
461,115,117090,2,0,L|501:166,1,52.5000020027161
463,230,117229,86,0,L|474:295,1,52.5000020027161,0|0,1:0|0:0,0:0:0:0:
397,325,117368,2,0,L|378:381,1,52.5000020027161
288,362,117507,6,0,L|235:387,1,52.5000020027161,8|0,1:0|0:0,0:0:0:0:
177,329,117646,2,0,L|126:315,1,52.5000020027161
131,155,117785,86,0,L|186:177,1,35,0|0,1:0|0:0,0:0:0:0:
294,205,117924,2,0,L|244:192,1,35,8|0,1:0|0:0,0:0:0:0:
146,101,118063,6,0,L|184:153,1,35,0|0,1:0|0:0,0:0:0:0:
278,258,118202,2,0,L|236:212,1,35,8|0,1:0|0:0,0:0:0:0:
204,61,118340,86,0,L|209:127,1,35,0|0,1:0|0:0,0:0:0:0:
234,297,118479,2,0,L|221:232,1,35,8|0,1:0|0:0,0:0:0:0:
281,60,118618,6,0,L|255:116,1,35,0|0,1:1|1:0,0:0:0:0:
161,304,118757,2,0,L|187:244,1,35,8|0,1:0|0:0,0:0:0:0:
330,160,118896,86,4,P|375:133|427:124,1,105.000004005432,4|0,1:0|0:0,0:0:0:0:
427,124,119035,2,0,P|375:133|330:160,1,105.000004005432,4|0,1:0|0:0,0:0:0:0:
107,199,119174,1,8,1:1:0:0:
107,199,119243,1,8,1:1:0:0:
107,199,119313,2,4,P|154:226|201:285,1,105.000004005432,4|0,1:1|0:1,1:1:0:0:
228,383,119590,2,0,P|180:355|133:296,1,105.000004005432,4|8,1:1|1:0,0:0:0:0:
150,135,119868,2,0,P|196:162|245:219,1,105.000004005432,4|0,1:0|0:0,0:0:0:0:
472,355,120146,2,0,L|442:301,1,35,4|0,1:0|0:0,0:0:0:0:
334,113,120285,2,0,L|352:157,1,35,12|0,1:0|0:0,0:0:0:0:
380,348,120424,2,0,P|397:231|426:140,1,210.000008010865,4|0,1:0|0:0,0:0:0:0:
300,31,120702,2,0,P|226:84|114:139,1,175,4|0,1:0|0:0,0:0:0:0:
2,145,120979,5,8,1:1:0:0:
2,145,121049,1,8,1:1:0:0:
2,145,121118,2,0,P|58:225|66:250,1,87.5,4|0,1:0|0:0,0:0:0:0:
53,214,121257,2,0,P|30:176|1:144,1,87.5,4|0,1:0|0:0,0:0:0:0:
114,45,121396,1,8,1:0:0:0:
114,45,121465,1,8,1:0:0:0:
114,45,121535,86,0,P|129:88|170:142,1,87.5,4|0,1:0|0:0,0:0:0:0:
233,278,121674,1,8,1:0:0:0:
233,278,121744,1,8,1:0:0:0:
233,278,121813,2,0,P|293:201|327:198,1,87.5,4|0,1:0|0:0,0:0:0:0:
438,215,121952,1,8,1:0:0:0:
438,215,122022,1,8,1:0:0:0:
438,215,122091,2,0,P|341:201|321:173,1,87.5,4|0,1:0|0:0,0:0:0:0:
275,71,122229,5,8,1:0:0:0:
275,71,122299,1,8,1:0:0:0:
275,71,122368,2,0,P|311:161|297:192,1,87.5,4|0,1:0|0:0,0:0:0:0:
337,341,122507,1,8,1:0:0:0:
337,341,122577,1,8,1:0:0:0:
337,341,122646,2,0,L|56:244,1,210.000008010865,4|0,1:0|0:0,0:0:0:0:
18,125,122924,2,0,L|237:202,1,210.000008010865,4|0,1:0|0:0,0:0:0:0:
438,215,123202,1,8,0:1:0:0:
438,215,123271,1,8,0:1:0:0:
438,215,123340,6,0,L|569:252,2,70.0000026702882,0|0|0,1:1|0:0|0:0,0:0:0:0:
294,180,123618,2,0,L|163:143,2,70.0000026702882,8|0|0,1:0|0:0|0:0,0:0:0:0:
146,335,123896,2,0,L|19:386,2,70.0000026702882,0|0|0,1:0|0:0|0:0,0:0:0:0:
281,273,124174,2,0,L|407:221,2,70.0000026702882,8|0|0,1:0|0:0|0:0,0:0:0:0:
189,268,124452,5,8,1:1:0:0:
152,248,124544,1,0,1:0:0:0:
140,207,124637,1,0,0:0:0:0:
168,176,124729,1,8,1:0:0:0:
210,176,124822,1,0,1:0:0:0:
245,154,124914,1,0,0:0:0:0:
229,107,125007,1,8,1:0:0:0:
180,99,125100,1,0,1:0:0:0:
164,52,125192,1,0,0:0:0:0:
194,13,125285,1,8,1:0:0:0:
242,19,125377,1,0,1:0:0:0:
278,51,125470,1,0,0:0:0:0:
385,41,125563,86,0,P|373:130|363:140,2,70.0000026702882,8|0|0,1:0|0:0|0:0,0:0:0:0:
303,313,125840,2,0,P|315:224|325:214,2,70.0000026702882,8|0|0,1:1|0:0|0:1,0:0:0:0:
204,137,126118,2,0,P|293:149|303:159,2,70.0000026702882,8|0|0,1:0|0:0|0:0,0:0:0:0:
476,219,126395,2,0,P|387:207|377:197,2,70.0000026702882,8|0|8,1:0|0:0|0:0,0:0:0:0:
303,245,126674,37,4,1:0:0:0:
199,279,126859,1,4,1:0:0:0:
95,314,127067,1,4,1:0:0:0:
31,328,127229,1,4,1:0:0:0:
134,178,127507,21,8,1:0:0:0:
132,46,127646,1,8,1:0:0:0:
164,19,127715,1,8,1:0:0:0:
217,21,127785,2,0,P|256:63|288:77,1,52.5000020027161,4|0,1:1|0:0,0:0:0:0:
286,222,127924,2,0,P|302:155|298:132,1,52.5000020027161
388,77,128063,2,0,P|325:95|304:110,1,52.5000020027161,8|0,1:0|0:0,0:0:0:0:
227,141,128202,2,0,P|164:177|118:174,1,105.000004005432,0|0,0:0|1:0,0:0:0:0:
0,352,128479,1,0,1:0:0:0:
23,298,128549,1,0,1:0:0:0:
78,275,128618,2,0,P|106:279|133:304,1,52.5000020027161,8|0,1:0|0:0,0:0:0:0:
242,366,128757,2,0,P|310:355|328:317,1,105.000004005432,4|0,1:0|0:0,0:0:0:0:
341,37,129035,6,0,P|337:62|353:95,1,52.5000020027161,4|0,1:0|0:0,0:0:0:0:
421,300,129174,2,0,P|425:274|406:235,1,52.5000020027161,12|0,1:0|0:0,0:0:0:0:
437,102,129313,2,0,P|356:201|323:279,1,175,4|0,1:0|1:1,0:0:0:0:
297,378,129590,1,8,1:1:0:0:
253,369,129660,1,0,1:0:0:0:
221,339,129729,1,0,1:0:0:0:
208,296,129799,1,0,1:0:0:0:
214,256,129868,1,4,1:0:0:0:
235,217,129938,1,0,1:0:0:0:
269,190,130007,85,0,1:0:0:0:
297,156,130077,1,0,1:0:0:0:
311,114,130146,1,0,1:0:0:0:
292,74,130215,1,0,1:0:0:0:
259,44,130285,1,8,1:0:0:0:
216,34,130354,1,0,1:0:0:0:
177,44,130424,1,0,1:0:0:0:
149,77,130493,1,0,1:0:0:0:
151,120,130563,2,0,L|269:120,1,87.5,12|0,1:1|0:0,0:0:0:0:
437,384,130702,6,0,P|398:324|398:296,1,52.5000020027161,4|0,1:1|0:0,0:0:0:0:
365,225,130841,2,0,P|403:284|403:312,1,52.5000020027161,12|0,1:0|0:0,0:0:0:0:
491,353,130979,86,0,P|428:321|413:296,1,52.5000020027161,4|0,1:0|0:0,0:0:0:0:
301,233,131119,2,0,P|365:264|380:288,1,52.5000020027161,12|0,1:0|0:0,0:0:0:0:
512,288,131257,6,0,P|447:315|419:311,1,52.5000020027161,4|0,1:0|0:0,0:0:0:0:
281,304,131397,2,0,P|346:276|375:280,1,52.5000020027161,12|0,1:0|0:0,0:0:0:0:
460,215,131535,1,4,1:0:0:0:
460,215,131674,1,4,1:0:0:0:
492,62,131813,1,0,0:1:0:0:
470,96,131882,2,4,P|409:119|383:114,1,52.5000020027161,4|12,0:1|1:1,0:1:0:0:
314,81,132021,1,0,1:0:0:0:
274,61,132090,2,4,P|224:109|224:120,1,52.5000020027161,4|0,1:0|2:0,2:0:0:0:
109,268,132229,86,0,P|77:303|80:346,2,52.5000020027161,4|0|0,1:0|0:0|1:0,0:0:0:0:
179,166,132507,2,0,P|172:41|156:27,1,140,12|0,1:0|0:0,0:0:0:0:
0,18,132785,1,0,1:1:0:0:
9,136,132924,1,0,1:0:0:0:
35,171,132993,2,4,P|92:196|116:197,1,52.5000020027161,4|8,1:0|1:0,0:0:0:0:
334,97,133132,1,0,1:0:0:0:
286,106,133202,2,4,P|265:121|251:144,1,52.5000020027161,4|0,1:0|0:0,0:0:0:0:
235,273,133340,1,0,1:0:0:0:
488,384,133479,1,0,1:0:0:0:
477,334,133549,1,0,1:0:0:0:
452,299,133618,2,0,P|392:225|319:173,1,175,12|0,1:0|0:0,0:0:0:0:
143,99,133896,5,0,1:0:0:0:
105,117,133965,1,0,1:0:0:0:
85,154,134035,1,0,1:0:0:0:
98,193,134104,1,8,1:0:0:0:
132,210,134174,1,12,1:0:0:0:
170,200,134243,1,8,1:0:0:0:
194,165,134313,2,0,P|300:98|407:99,1,210.000008010865,12|0,0:1|0:0,0:0:0:0:
482,131,134590,85,0,1:1:0:0:
428,223,134729,1,8,1:0:0:0:
348,296,134868,2,0,P|263:343|142:375,1,210.000008010865,4|0,1:0|1:0,0:0:0:0:
39,330,135146,5,0,1:0:0:0:
0,226,135285,1,8,1:0:0:0:
16,116,135424,2,0,L|242:179,1,210.000008010865,4|0,1:0|0:0,0:0:0:0:
362,213,135702,86,0,L|280:190,2,52.5000020027161,0|0|8,1:0|0:0|1:0,0:0:0:0:
23,326,136049,1,8,1:1:0:0:
0,277,136118,1,8,1:1:0:0:
22,235,136188,1,0,1:1:0:0:
67,225,136257,1,0,1:1:0:0:
110,244,136327,1,8,1:1:0:0:
156,243,136396,1,8,1:1:0:0:
191,211,136465,1,0,1:1:0:0:
187,163,136535,1,8,1:1:0:0:
147,137,136604,1,0,1:1:0:0:
109,131,136674,6,0,P|47:166|41:188,1,70,4|0,1:0|0:0,0:0:0:0:
73,311,136813,2,0,P|140:325|166:315,1,70
247,261,136952,2,0,P|272:237|306:231,1,70,12|0,1:0|0:0,0:0:0:0:
423,246,137090,2,0,P|501:203|499:160,1,140,0|12,1:0|1:0,0:0:0:0:
486,57,137368,85,0,1:0:0:0:
436,41,137438,1,0,1:0:0:0:
384,62,137507,2,0,B|352:80|334:122,1,70,12|0,1:0|0:0,0:0:0:0:
228,175,137646,1,0,1:0:0:0:
175,166,137715,1,0,1:0:0:0:
132,131,137785,6,0,P|111:103|105:69,1,70,12|0,1:0|0:0,0:0:0:0:
74,373,137924,2,0,P|55:295|31:277,1,70,0|0,1:0|0:0,0:0:0:0:
0,154,138063,2,0,P|38:164|82:205,1,70,12|0,1:0|0:0,0:0:0:0:
147,262,138202,2,0,P|186:285|272:248,1,140,0|12,1:0|1:0,0:0:0:0:
269,254,138479,1,0,1:0:0:0:
333,363,138618,38,0,L|337:333,2,23.3333333333333,12|0|0,1:0|0:0|0:0,0:0:0:0:
384,349,138757,2,0,L|368:315,2,23.3333333333333,0|0|0,1:0|0:0|0:0,0:0:0:0:
431,313,138896,2,0,L|398:296,2,23.3333333333333,12|0|0,1:0|0:0|0:0,0:0:0:0:
452,252,139035,2,0,L|413:256,2,23.3333333333333,0|0|0,1:1|0:0|0:0,0:0:0:0:
446,182,139174,2,0,L|413:202,2,23.3333333333333,12|0|0,1:0|0:0|0:0,0:0:0:0:
413,126,139313,2,0,L|395:155,2,23.3333333333333,0|0|0,1:0|0:0|0:0,0:0:0:0:
376,85,139452,37,4,1:0:0:0:
331,62,139521,1,0,1:1:0:0:
284,69,139590,1,0,1:0:0:0:
258,109,139660,1,0,1:0:0:0:
267,154,139729,1,12,1:0:0:0:
251,199,139799,1,0,1:0:0:0:
206,214,139868,1,0,1:0:0:0:
161,197,139938,1,0,0:0:0:0:
144,153,140007,5,12,1:0:0:0:
174,116,140077,1,0,1:0:0:0:
168,64,140146,1,0,1:0:0:0:
122,51,140215,1,0,1:0:0:0:
94,89,140285,1,12,1:0:0:0:
90,135,140354,1,0,1:0:0:0:
42,141,140424,1,0,1:0:0:0:
8,108,140493,1,0,1:0:0:0:
8,69,140563,2,0,P|30:31|68:6,1,70,12|0,1:0|0:0,0:0:0:0:
249,15,140702,1,0,1:1:0:0:
279,58,140771,2,0,L|233:149,1,70,12|0,1:0|0:0,0:0:0:0:
98,268,140910,1,0,1:1:0:0:
137,238,140979,2,0,L|220:218,1,70,12|0,1:0|0:0,0:0:0:0:
367,105,141118,86,0,L|492:135,2,87.5,0|0|0,1:0|0:0|0:0,0:0:0:0:
425,32,141396,2,0,L|380:229,1,175,12|0,1:0|0:0,0:0:0:0:
416,353,141674,2,0,P|334:293|295:289,1,87.5,0|0,1:0|0:0,0:0:0:0:
177,251,141813,1,0,1:0:0:0:
173,300,141882,2,0,P|116:344|96:338,1,52.5000020027161,12|0,1:0|0:0,0:0:0:0:
17,373,142021,1,0,1:0:0:0:
21,324,142090,2,0,P|78:280|98:286,1,52.5000020027161,12|0,1:0|0:0,0:0:0:0:
183,157,142229,6,0,P|200:108|195:87,1,52.5000020027161,4|0,1:0|0:0,0:0:0:0:
79,32,142368,2,0,P|38:60|31:117,1,105.000004005432,4|12,1:0|1:0,0:0:0:0:
383,351,142785,2,0,P|310:380|290:407,1,70,4|0,1:0|0:0,0:0:0:0:
226,352,142924,1,0,1:0:0:0:
269,311,142993,1,8,1:0:0:0:
258,248,143063,1,8,1:0:0:0:
297,215,143132,1,0,1:0:0:0:
297,169,143202,2,0,P|333:143|399:113,1,105.000004005432,4|0,1:0|0:0,0:0:0:0:
444,64,143479,85,0,1:0:0:0:
268,62,143618,1,8,1:0:0:0:
224,214,143757,2,0,P|260:188|380:121,1,140,4|0,1:0|0:0,0:0:0:0:
268,62,144035,5,0,1:0:0:0:
104,97,144174,1,8,1:0:0:0:
170,278,144313,2,0,P|208:234|338:143,1,175,4|0,1:0|0:0,0:0:0:0:
104,97,144590,85,0,1:0:0:0:
5,227,144729,1,8,1:0:0:0:
94,367,144868,2,0,P|251:191|298:152,1,210.000008010865,4|0,1:0|0:0,0:0:0:0:
396,81,145146,5,4,1:0:0:0:
396,81,145424,1,4,1:0:0:0:
493,144,145563,2,0,P|432:215|354:257,1,140,0|0,1:0|0:0,0:0:0:0:
279,329,145840,2,0,P|235:377|227:413,1,70,0|0,1:0|0:0,0:0:0:0:
91,341,145979,2,0,P|150:259|155:199,1,140,8|0,1:0|0:0,0:0:0:0:
156,103,146257,2,0,P|88:45|24:51,1,140,0|8,1:0|1:0,0:0:0:0:
235,113,146535,2,0,P|319:83|346:24,1,140,0|0,0:0|1:0,0:0:0:0:
180,180,146813,86,0,P|163:267|200:320,1,140,0|0,0:0|1:0,0:0:0:0:
330,377,147090,2,0,B|326:342|353:314|353:314|396:280|392:225,1,140,0|0,1:0|0:0,0:0:0:0:
419,128,147368,1,0,1:0:0:0:
342,42,147507,1,0,1:0:0:0:
199,19,147646,2,0,L|205:39,1,21,4|0,0:0|1:0,0:0:0:0:
224,134,148340,1,0,1:0:0:0:
248,227,148618,1,0,1:0:0:0:
280,354,148896,5,0,0:0:0:0:
280,354,148966,1,0,0:0:0:0:
404,266,149174,5,0,1:0:0:0:
462,242,149266,1,0,1:0:0:0:
476,178,149359,1,0,1:0:0:0:
409,65,149452,69,8,1:0:0:0:
369,21,149521,1,8,1:0:0:0:
313,16,149590,1,8,1:0:0:0:
280,60,149660,1,8,1:0:0:0:
281,108,149729,2,0,P|231:173|163:144,1,157.500006008148,0|0,1:0|0:0,0:0:0:0:
18,221,150007,6,0,L|81:272,1,52.5000020027161,0|0,1:0|0:0,0:0:0:0:
180,300,150146,2,0,L|117:249,1,52.5000020027161
66,159,150285,2,0,L|129:210,1,52.5000020027161,8|0,1:0|0:0,0:0:0:0:
189,123,150424,2,0,L|165:156,1,35,4|0,1:0|0:0,0:0:0:0:
50,351,150702,1,8,1:0:0:0:
498,120,150840,2,0,L|430:177,1,70,0|0,1:0|0:0,0:0:0:0:
322,213,150979,2,0,L|388:158,1,70
440,50,151118,2,0,L|373:105,1,70,8|0,1:0|0:0,0:0:0:0:
500,263,151257,2,0,L|469:233,1,35,4|0,1:0|0:0,0:0:0:0:
295,64,151535,1,8,1:0:0:0:
53,349,151674,69,4,1:0:0:0:
86,331,151928,1,4,1:0:0:0:
121,314,152183,1,4,1:0:0:0:
155,296,152438,1,4,1:0:0:0:
190,279,152692,1,4,1:0:0:0:
225,262,152947,1,4,1:0:0:0:
326,212,153202,2,0,L|320:255,1,35,4|0,0:0|0:0,0:0:0:0:
