osu file format v14

[General]
AudioFilename: audio.mp3
AudioLeadIn: 0
PreviewTime: 66120
Countdown: 0
SampleSet: Soft
StackLeniency: 0.7
Mode: 0
LetterboxInBreaks: 0
WidescreenStoryboard: 1

[Editor]
Bookmarks: 1536,36813,130979
DistanceSpacing: 1
BeatDivisor: 4
GridSize: 32
TimelineZoom: 2.9

[Metadata]
Title:Tokyo Voynich Hotel
TitleUnicode:Tokyo Voynich Hotel
Artist:NIWASHI
ArtistUnicode:NIWASHI
Creator:oatm
Version:Extreme (New)
Source:
Tags:
BeatmapID:3739679
BeatmapSetID:1754106

[Difficulty]
HPDrainRate:5
CircleSize:4
OverallDifficulty:9.5
ApproachRate:9.6
SliderMultiplier:1.4
SliderTickRate:1

[Events]
//Background and Video events
0,0,"windows_50x70_15aug_test.jpg",0,0
//Break Periods
2,22429,28763
//Storyboard Layer 0 (Background)
//Storyboard Layer 1 (Fail)
//Storyboard Layer 2 (Pass)
//Storyboard Layer 3 (Foreground)
//Storyboard Layer 4 (Overlay)
//Storyboard Sound Samples

[TimingPoints]
564,277.777777777778,4,2,1,60,1,0
702,-66.6666666666667,4,2,1,60,0,0
1120,-66.6666666666667,4,2,1,60,0,0
1258,-66.6666666666667,4,2,1,60,0,0
1397,-66.6666666666667,4,2,1,60,0,0
1536,-333.333333333333,4,2,1,60,0,0
1952,-55.5555555555556,4,2,1,60,0,0
2091,-55.5555555555556,4,2,1,60,0,0
2231,-55.5555555555556,4,2,1,60,0,0
2369,-333.333333333333,4,2,1,60,0,0
2995,-200,4,2,1,60,0,0
3272,-200,4,2,1,60,0,0
3550,-200,4,2,1,60,0,0
3758,-200,4,2,1,60,0,0
4036,-200,4,2,1,60,0,0
4452,277.777777777778,4,2,1,60,1,0
4452,-50,4,2,1,60,0,0
4869,-66.6666666666667,4,2,1,60,0,0
5285,-66.6666666666667,4,2,1,60,0,0
5424,-50,4,2,1,60,0,0
5702,-50,4,2,1,60,0,0
5979,-44.4444444444445,4,2,1,60,0,0
6674,-50,4,2,1,60,0,0
7507,-33.3333333333333,4,2,1,60,0,0
7646,-40,4,2,1,60,0,0
8202,-57.1428571428571,4,2,1,60,0,0
8886,-100,4,2,1,60,0,0
9174,-50,4,2,1,60,0,0
9313,-57.1428571428571,4,2,1,60,0,0
9590,-62.5,4,2,1,60,0,0
9868,-50,4,2,1,60,0,0
10146,-62.5,4,2,1,60,0,0
10424,-43.4782608695652,4,2,1,60,0,0
10979,-40,4,2,1,60,0,0
11257,-50,4,2,1,60,0,0
11535,-40,4,2,1,60,0,0
12646,-100,4,2,1,60,0,0
12924,-40,4,2,1,60,0,0
13201,-66.6666666666667,4,2,1,60,0,0
13341,-66.6666666666667,4,2,1,60,0,0
13757,-50,4,2,1,60,0,0
14035,-40,4,2,1,60,0,0
14590,-50,4,2,1,60,0,0
14868,-40,4,2,1,60,0,0
15563,-50,4,2,1,60,0,0
15840,-66.6666666666667,4,2,1,60,0,0
16396,-33.3333333333333,4,2,1,60,0,0
16535,-50,4,2,1,60,0,0
16813,-40,4,2,1,60,0,0
17507,-50,4,2,1,60,0,0
18063,-50,4,2,1,60,0,0
18202,-33.3333333333333,4,2,1,60,0,0
18757,-66.6666666666667,4,2,1,60,0,0
19035,-66.6666666666667,4,2,1,60,0,0
19868,-50,4,2,1,60,0,0
20424,-66.6666666666667,4,2,1,60,0,0
20702,-40,4,2,1,60,0,0
20840,-50,4,2,1,60,0,0
24452,-400,4,2,1,60,0,0
30563,-66.6666666666667,4,2,1,60,0,0
31119,-66.6666666666667,4,2,1,60,0,1
31396,-50,4,2,1,60,0,1
31535,-40,4,2,1,60,0,1
31813,-66.6666666666667,4,2,1,60,0,1
33201,-100,4,2,1,60,0,1
33480,-50,4,2,1,60,0,1
34359,-100,4,2,1,60,0,1
34729,-50,4,2,1,60,0,1
35563,-50,4,2,1,60,0,1
35840,-33.3333333333333,4,2,1,60,0,1
35980,-50,4,2,1,60,0,1
36257,-50,4,2,1,60,0,1
36813,-50,4,2,1,60,0,1
37090,-40,4,2,1,60,0,1
37299,-33.3333333333333,4,2,1,60,0,1
37507,-50,4,2,1,60,0,1
37924,-43.4782608695652,4,2,1,60,0,1
39313,-100,4,2,1,60,0,1
39591,-100,4,2,1,60,0,1
39799,-100,4,2,1,60,0,1
40005,-100,4,2,1,60,0,1
40285,-50,4,2,1,60,0,1
40424,-40,4,2,1,60,0,1
41188,-50,4,2,1,60,0,1
41674,-66.6666666666667,4,2,1,60,0,1
42090,-50,4,2,1,60,0,1
43202,-40,4,2,1,60,0,1
43479,-50,4,2,1,60,0,1
43618,-33.3333333333333,4,2,1,60,0,1
43757,-40,4,2,1,60,0,1
44174,-66.6666666666667,4,2,1,60,0,1
44313,-33.3333333333333,4,2,1,60,0,1
44452,-40,4,2,1,60,0,1
44729,-33.3333333333333,4,2,1,60,0,1
45146,-33.3333333333333,4,2,1,60,0,1
45979,-40,4,2,1,60,0,1
46535,-40,4,2,1,60,0,1
46952,-33.3333333333333,4,2,1,60,0,1
47090,-40,4,2,1,60,0,1
47368,-50,4,2,1,60,0,1
47507,-40,4,2,1,60,0,1
48896,-133.333333333333,4,2,1,60,0,0
49174,-80,4,2,1,60,0,0
49452,-66.6666666666667,4,2,1,60,0,0
49729,-57.1428571428571,4,2,1,60,0,0
51535,-66.6666666666667,4,2,1,60,0,0
53340,-66.6666666666667,4,2,1,60,0,0
56257,-100,4,2,1,60,0,0
58618,-57.1428571428571,4,2,1,60,0,0
59729,-80,4,2,1,60,0,0
62229,-50,4,2,1,60,0,0
63063,-66.6666666666667,4,2,1,60,0,0
64035,-58.8235294117647,4,2,1,60,0,0
64174,-40,4,2,1,60,0,0
64590,-38.4615384615385,4,2,1,60,0,0
65007,-47.6190476190476,4,2,1,60,0,0
66674,-50,4,2,1,60,0,1
66952,-33.3333333333333,4,2,1,60,0,1
67090,-50,4,2,1,60,0,1
68202,-44.4444444444445,4,2,1,60,0,1
68479,-33.3333333333333,4,2,1,60,0,1
69452,-66.6666666666667,4,2,1,60,0,1
71118,-40,4,2,1,60,0,1
71813,-66.6666666666667,4,2,1,60,0,1
72507,-44.4444444444445,4,2,1,60,0,1
72785,-66.6666666666667,4,2,1,60,0,1
73201,-44.4444444444445,4,2,1,60,0,1
73757,-40,4,2,1,60,0,1
74035,-50,4,2,1,60,0,1
74313,-40,4,2,1,60,0,1
74868,-66.6666666666667,4,2,1,60,0,1
75563,-50,4,2,1,60,0,1
75840,-33.3333333333333,4,2,1,60,0,1
75979,-50,4,2,1,60,0,1
76396,-50,4,2,1,60,0,1
77507,-66.6666666666667,4,2,1,60,0,1
79452,-66.6666666666667,4,2,1,60,0,1
80007,-40,4,2,1,60,0,1
80563,-66.6666666666667,4,2,1,60,0,1
81396,-40,4,2,1,60,0,1
81813,-66.6666666666667,4,2,1,60,0,1
82090,-40,4,2,1,60,0,1
84313,-66.6666666666667,4,2,1,60,0,1
84868,-66.6666666666667,4,2,1,5,0,1
84938,-66.6666666666667,4,2,1,15,0,1
85007,-66.6666666666667,4,2,1,25,0,1
85077,-66.6666666666667,4,2,1,35,0,1
85146,-66.6666666666667,4,2,1,45,0,1
85215,-66.6666666666667,4,2,1,55,0,1
85285,-66.6666666666667,4,2,1,65,0,1
85563,-200,4,2,1,60,0,0
90007,-100,4,2,1,60,0,0
92229,-200,4,2,1,60,0,0
92785,-66.6666666666667,4,2,1,60,0,0
93896,-200,4,2,1,60,0,0
98896,-133.333333333333,4,2,1,60,0,0
100007,-100,4,2,1,60,0,0
101118,-1000,4,2,1,60,0,0
102229,-25,4,2,1,60,0,0
102646,-40,4,2,1,60,0,0
103340,-66.6666666666667,4,2,1,60,0,0
111674,-100,4,2,1,60,0,0
114452,-66.6666666666667,4,2,1,60,0,0
116674,-40,4,2,1,60,0,0
116952,-66.6666666666667,4,2,1,60,0,0
117785,-100,4,2,1,60,0,0
118896,-33.3333333333333,4,2,1,60,0,0
119313,-40,4,2,1,60,0,0
120424,-33.3333333333333,4,2,1,60,0,0
121118,-25,4,2,1,60,0,0
121535,-40,4,2,1,60,0,0
122646,-25,4,2,1,60,0,0
122924,-33.3333333333333,4,2,1,60,0,0
123340,-66.6666666666667,4,2,1,60,0,0
127785,-50,4,2,1,60,0,0
128063,-33.3333333333333,4,2,1,60,0,0
128202,-50,4,2,1,60,0,0
128618,-66.6666666666667,4,2,1,60,0,1
128757,-50,4,2,1,60,0,1
129035,-50,4,2,1,60,0,1
129313,-40,4,2,1,60,0,1
130563,-66.6666666666667,4,2,1,60,0,1
132229,-40,4,2,1,60,0,1
132785,-66.6666666666667,4,2,1,60,0,1
132924,-50,4,2,1,60,0,1
133618,-40,4,2,1,60,0,1
133896,-33.3333333333333,4,2,1,60,0,1
134590,-44.4444444444445,4,2,1,60,0,1
134868,-40,4,2,1,60,0,1
135146,-44.4444444444445,4,2,1,60,0,1
135424,-40,4,2,1,60,0,1
135702,-50,4,2,1,60,0,1
135840,-44.4444444444445,4,2,1,60,0,1
136674,-50,4,2,1,60,0,1
136952,-33.3333333333333,4,2,1,60,0,1
137090,-50,4,2,1,60,0,1
137229,-33.3333333333333,4,2,1,60,0,1
137507,-50,4,2,1,60,0,1
138618,-100,4,2,1,60,0,1
139382,-66.6666666666667,4,2,1,60,0,1
140563,-66.6666666666667,4,2,1,60,0,1
140771,-50,4,2,1,60,0,1
141118,-40,4,2,1,60,0,1
141674,-50,4,2,1,60,0,1
142369,-40,4,2,1,60,0,1
143202,-66.6666666666667,4,2,1,60,0,1
143757,-50,4,2,1,60,0,1
144313,-40,4,2,1,60,0,1
144868,-33.3333333333333,4,2,1,60,0,0
145563,-50,4,2,1,60,0,0
145980,-66.6666666666667,4,2,1,60,0,0
146535,-50,4,2,1,60,0,0
147646,-1000,4,2,1,60,0,0
149729,-66.6666666666667,4,2,1,60,0,0
150007,-66.6666666666667,4,2,1,60,0,0
150423,-200,4,2,1,60,0,0
150840,-50,4,2,1,60,0,0
151257,-200,4,2,1,60,0,0

[Colours]
Combo1 : 191,128,255
Combo2 : 0,64,128
Combo3 : 136,196,255
Combo4 : 249,81,0
Combo5 : 255,206,157
Combo6 : 255,0,0
Combo7 : 128,0,255

[HitObjects]
167,320,564,5,0,0:0:0:0:
22,188,702,1,0,0:1:0:0:
48,153,772,1,0,0:1:0:0:
88,141,841,1,0,0:1:0:0:
128,154,911,1,0,0:1:0:0:
160,181,980,1,0,0:1:0:0:
202,188,1050,1,0,0:1:0:0:
235,163,1119,6,0,L|272:99,1,52.5000020027161,0|0,0:0|0:0,0:0:0:0:
349,111,1258,2,0,L|385:175,1,52.5000020027161,0|0,0:0|0:0,0:0:0:0:
339,228,1397,2,0,L|265:227,1,52.5000020027161,0|0,0:0|0:0,0:0:0:0:
297,13,1536,2,0,L|300:41,1,20.9999993591309,0|0,0:1|0:0,0:0:0:0:
312,320,1814,1,0,0:1:0:0:
14,233,1952,86,0,L|54:300,1,62.9999980773926,0|0,0:0|0:0,0:0:0:0:
130,291,2091,2,0,L|168:222,1,62.9999980773926,0|0,0:0|0:0,0:0:0:0:
120,159,2230,2,0,L|41:160,1,62.9999980773926,0|0,0:0|0:0,0:0:0:0:
87,384,2369,2,0,L|87:357,1,20.9999993591309,0|0,0:0|0:0,0:0:0:0:
94,80,2647,1,0,0:0:0:0:
160,235,2786,69,0,0:0:0:0:
189,210,3040,1,0,0:0:0:0:
219,185,3295,1,0,0:0:0:0:
249,160,3550,1,0,0:0:0:0:
279,136,3804,1,0,0:0:0:0:
309,112,4059,1,0,0:0:0:0:
392,42,4314,1,0,0:0:0:0:
483,66,4452,38,0,B|478:98|478:98|510:165|510:165|501:221,1,140,0|0,0:0|0:0,0:0:0:0:
415,319,4730,2,0,B|411:354|411:354|433:387,1,70,0|0,0:1|0:0,0:0:0:0:
493,339,4868,2,0,P|466:262|395:238,1,140,0|0,0:0|0:0,0:0:0:0:
211,222,5146,1,0,0:0:0:0:
412,131,5285,2,0,P|353:181|335:184,1,52.5000020027161,0|0,0:0|0:0,0:0:0:0:
150,269,5424,2,0,P|137:203|192:148,1,140,0|0,0:0|0:0,0:0:0:0:
115,0,5702,86,0,P|128:66|73:121,1,140,0|0,0:0|0:0,0:0:0:0:
61,249,5979,2,0,P|122:182|204:145,1,157.500006008148,0|0,0:0|0:0,0:0:0:0:
377,169,6258,1,0,0:0:0:0:
256,222,6397,1,0,0:0:0:0:
390,0,6536,1,0,0:1:0:0:
390,0,6605,1,0,0:1:0:0:
390,0,6674,6,0,P|443:46|483:115,1,140,0|0,0:0|0:0,0:0:0:0:
349,284,6952,2,0,P|356:232|339:196,1,70,0|0,0:0|0:0,0:0:0:0:
293,130,7090,2,0,P|334:197|353:205,1,70,0|0,0:0|0:0,0:0:0:0:
485,231,7229,2,0,P|411:195|388:194,1,70,0|0,0:0|0:0,0:0:0:0:
195,188,7368,2,0,P|269:224|292:225,1,70,0|0,0:0|0:0,0:0:0:0:
447,297,7507,2,0,B|478:338|478:338|426:316,1,105.000004005432,0|0,0:0|0:0,0:0:0:0:
215,102,7646,2,0,P|273:55|371:100,1,175,0|0,0:0|0:0,0:0:0:0:
167,33,7924,85,0,0:0:0:0:
83,193,8064,1,0,0:0:0:0:
58,0,8202,2,0,P|93:65|115:137,1,122.500001168251,0|0,0:0|0:0,0:0:0:0:
27,323,8479,2,0,P|46:278|57:266,1,61.2500005841255,0|0,0:0|0:0,0:0:0:0:
253,233,8619,1,0,0:1:0:0:
275,243,8689,1,0,0:1:0:0:
294,262,8758,1,0,0:1:0:0:
301,283,8827,1,0,0:1:0:0:
298,304,8896,6,0,P|290:329|277:351,1,35,0|0,0:0|0:0,0:0:0:0:
406,331,9174,2,0,P|430:300|466:277,1,70,0|0,0:1|0:0,0:0:0:0:
512,101,9313,2,0,P|488:162|424:187,1,122.500001168251,0|0,0:0|0:0,0:0:0:0:
212,102,9590,1,0,0:0:0:0:
362,247,9729,2,0,P|306:193|301:172,1,56,0|0,0:0|0:0,0:0:0:0:
354,11,9868,2,0,P|419:44|431:112,1,140
219,234,10146,86,0,P|240:164|236:139,1,56
146,46,10285,1,0,0:0:0:0:
292,112,10424,2,0,P|187:115|144:172,1,161.000003070831,0|0,0:0|0:0,0:0:0:0:
124,384,10702,6,0,B|125:344|125:344|67:278,1,80.5000015354157,0|0,0:0|0:0,0:0:0:0:
64,189,10840,2,0,B|28:208|28:208|0:291,1,80.5000015354157,0|0,0:0|0:0,0:0:0:0:
21,362,10979,2,0,P|104:264|141:236,1,175,0|0,0:0|0:0,0:0:0:0:
386,313,11257,86,0,B|385:273|385:273|437:210,1,70,0|0,0:0|0:0,0:0:0:0:
446,128,11395,2,0,B|481:147|481:147|502:218,1,70,0|0,0:0|0:0,0:0:0:0:
473,279,11534,2,0,P|434:222|382:175,1,140,0|0,0:0|0:0,0:0:0:0:
209,65,11813,6,0,L|184:170,1,87.5,0|0,0:0|0:0,0:0:0:0:
92,170,11952,2,0,L|13:95,1,87.5,0|0,0:0|0:0,0:0:0:0:
59,32,12090,2,0,L|207:167,1,175,0|0,0:0|0:0,0:0:0:0:
270,266,12368,85,0,0:0:0:0:
281,299,12438,1,0,0:0:0:0:
273,332,12507,1,0,0:0:0:0:
251,360,12577,1,0,0:0:0:0:
212,368,12646,2,0,P|180:369|129:326,1,70,0|0,0:2|0:0,0:0:0:0:
5,307,12924,2,0,B|30:251|85:256|82:262|78:267|134:278|183:195,1,175,0|0,0:1|0:0,0:0:0:0:
360,185,13202,1,0,0:0:0:0:
376,212,13271,1,0,0:0:0:0:
388,233,13340,6,0,P|445:218|468:174,1,105.000004005432,0|0,0:0|0:0,0:0:0:0:
356,0,13618,2,0,P|303:17|279:18,1,52.5000020027161,0|0,0:1|0:0,0:0:0:0:
124,26,13757,2,0,P|222:60|238:113,1,140,0|0,0:0|0:0,0:0:0:0:
213,286,14035,2,0,P|249:309|318:319,1,87.5,0|0,0:0|0:0,0:0:0:0:
412,306,14174,2,0,B|452:323|452:323|463:369,1,87.5,0|0,0:0|0:0,0:0:0:0:
388,384,14313,2,0,B|327:362|313:318|345:308|338:233|267:223,1,175,0|0,0:0|0:0,0:0:0:0:
22,43,14590,86,0,P|74:116|89:175,1,140,0|0,0:0|0:0,0:0:0:0:
93,356,14868,2,0,P|4:319|18:244,1,175,0|0,0:0|0:0,0:0:0:0:
361,188,15146,2,0,B|393:154|393:154|394:104,1,87.5,0|0,0:0|0:0,0:0:0:0:
333,0,15285,2,0,B|301:34|301:34|300:84,1,87.5,0|0,0:0|0:0,0:0:0:0:
483,148,15424,1,0,0:0:0:0:
512,196,15493,1,0,0:0:0:0:
512,247,15563,6,0,P|501:288|415:348,1,140,0|0,0:0|0:0,0:0:0:0:
170,209,15840,2,0,P|223:229|234:240,1,52.5000020027161,0|0,0:0|0:0,0:0:0:0:
315,240,15979,2,0,P|247:250|234:246,1,52.5000020027161,0|0,0:0|0:0,0:0:0:0:
135,315,16118,2,0,P|192:283|203:282,1,52.5000020027161,0|0,0:0|0:0,0:0:0:0:
329,142,16257,2,0,P|272:174|261:175,1,52.5000020027161,0|0,0:0|0:0,0:0:0:0:
306,328,16396,2,0,B|332:375|332:375|258:333,1,105.000004005432,0|0,0:0|0:0,0:0:0:0:
98,242,16535,2,0,P|96:181|184:119,1,140,0|0,0:0|0:0,0:0:0:0:
361,15,16813,86,0,B|354:62|354:62|383:105,1,87.5,0|0,0:0|0:0,0:0:0:0:
449,190,16952,2,0,B|493:172|493:172|516:125,1,87.5,0|0,0:0|0:0,0:0:0:0:
476,64,17090,2,0,P|382:149|347:239,1,175,0|0,0:0|0:0,0:0:0:0:
473,273,17299,1,0,0:0:0:0:
501,319,17368,1,0,0:0:0:0:
474,366,17438,1,0,0:0:0:0:
421,378,17507,2,0,P|372:321|374:281,1,70,0|0,0:0|0:0,0:0:0:0:
235,249,17646,1,0,0:0:0:0:
195,216,17715,1,0,0:0:0:0:
144,239,17785,6,0,P|128:268|195:339,1,140
156,114,18063,86,0,P|131:62|98:36,1,70
4,181,18202,2,0,P|48:152|81:145,1,52.5000020027161,0|0,0:0|0:0,0:0:0:0:
263,111,18479,2,0,P|289:110|314:116,1,52.5000020027161,0|0,0:0|0:0,0:0:0:0:
509,194,18757,2,0,P|491:262|439:282,1,105.000004005432,0|0,0:0|0:0,0:0:0:0:
296,338,19035,6,0,P|269:292|286:258,1,52.5000020027161
436,210,19174,1,0,0:0:0:0:
365,26,19313,2,0,P|331:95|297:134,1,105.000004005432,0|0,0:0|0:0,0:0:0:0:
212,185,19590,37,0,0:0:0:0:
215,169,19637,1,0,0:0:0:0:
208,150,19683,1,0,0:0:0:0:
194,137,19729,1,0,0:0:0:0:
52,39,19868,38,0,P|86:108|120:147,1,105.000004005432
189,379,20146,1,0,0:0:0:0:
158,365,20215,1,0,0:0:0:0:
142,334,20285,1,0,0:0:0:0:
152,296,20354,1,0,0:0:0:0:
183,274,20424,2,0,L|271:335,1,105.000004005432,0|0,0:0|0:0,0:0:0:0:
336,208,20702,6,0,B|345:164|345:164|301:122,1,87.5
169,124,20840,2,0,P|210:171|235:180,1,70,0|0,0:0|0:0,0:0:0:0:
267,33,20979,2,0,P|248:81|284:151,1,70,0|0,0:0|0:0,0:0:0:0:
470,353,21118,85,0,0:1:0:0:
491,308,21188,1,0,0:1:0:0:
451,267,21257,1,0,0:0:0:0:
394,281,21327,1,0,0:0:0:0:
341,263,21396,1,0,0:0:0:0:
336,208,21465,1,0,0:0:0:0:
375,169,21535,2,0,P|413:160|462:178,1,70,0|0,0:0|0:0,0:0:0:0:
321,333,21674,5,0,0:0:0:0:
287,377,21743,1,0,0:0:0:0:
230,378,21813,1,0,0:0:0:0:
203,328,21882,1,0,0:0:0:0:
224,277,21952,1,0,0:0:0:0:
210,223,22021,1,0,0:0:0:0:
163,195,22090,1,0,0:0:0:0:
114,220,22160,1,0,0:0:0:0:
106,275,22229,1,0,0:0:0:0:
31,248,30563,85,0,0:1:0:0:
151,115,30702,1,0,0:0:0:0:
147,58,30771,1,0,0:0:0:0:
101,92,30840,1,0,0:0:0:0:
124,262,30979,1,0,0:0:0:0:
173,230,31049,1,0,0:0:0:0:
164,288,31118,2,0,P|186:344|241:352,1,105.000004005432,0|0,0:0|0:0,0:0:0:0:
441,294,31396,6,0,B|478:299|478:299|538:363,1,70,0|0,0:1|0:0,0:0:0:0:
396,356,31535,2,0,B|361:347|340:268|372:257|384:254|389:245|418:221|352:156,1,175,0|0,0:0|0:0,0:0:0:0:
257,42,31813,2,0,P|283:119|281:162,1,105.000004005432,0|0,0:0|0:0,0:0:0:0:
299,352,32090,2,0,P|258:275|220:241,1,105.000004005432,0|0,0:0|0:0,0:0:0:0:
18,44,32368,86,0,P|0:109|7:137,1,52.5000020027161
8,234,32507,1,0,0:0:0:0:
48,218,32577,1,0,0:1:0:0:
72,183,32646,1,0,0:0:0:0:
65,135,32715,1,0,0:0:0:0:
113,147,32785,1,0,0:0:0:0:
136,112,32854,1,0,0:0:0:0:
175,110,32924,1,0,0:0:0:0:
203,147,32993,1,0,0:0:0:0:
192,188,33063,2,0,P|261:213|273:207,1,52.5000020027161,0|0,0:0|0:0,0:0:0:0:
244,272,33202,6,0,P|295:253|311:253,1,70,0|0,0:1|0:0,0:0:0:0:
365,341,33479,1,0,0:0:0:0:
397,351,33526,21,0,0:0:0:0:
442,316,33618,1,0,0:0:0:0:
436,255,33711,1,0,0:0:0:0:
379,214,33803,1,0,0:0:0:0:
329,158,33896,1,0,0:0:0:0:
331,80,33989,1,0,0:0:0:0:
402,34,34081,1,0,0:0:0:0:
484,59,34174,1,0,0:0:0:0:
509,142,34266,5,0,0:0:0:0:
502,160,34313,1,0,0:0:0:0:
489,172,34359,2,0,L|441:186,1,46.6666666666667,0|0,0:0|0:0,0:0:0:0:
329,158,34544,1,0,0:0:0:0:
312,167,34590,1,0,0:0:0:0:
297,186,34637,1,0,0:0:0:0:
273,284,34729,54,0,P|247:241|211:223,1,70,0|0,0:0|0:0,0:0:0:0:
109,37,34868,1,0,0:0:0:0:
51,18,34938,1,0,0:0:0:0:
1,56,35007,1,0,0:0:0:0:
4,119,35077,1,0,0:0:0:0:
55,154,35146,1,0,0:0:0:0:
116,142,35215,1,0,0:0:0:0:
147,197,35285,1,0,0:0:0:0:
113,249,35354,1,0,0:0:0:0:
49,256,35424,1,0,0:0:0:0:
39,317,35493,1,0,0:0:0:0:
81,364,35563,86,0,L|192:314,1,70,0|0,0:0|0:0,0:0:0:0:
177,379,35702,2,0,L|229:269,1,70,0|0,0:0|0:0,0:0:0:0:
360,133,35840,6,0,B|356:78|356:78|306:50,1,105.000004005432
151,18,35979,2,0,P|197:119|304:117,1,210.000008010865,0|0,0:0|0:0,0:0:0:0:
394,63,36257,2,0,P|477:39|516:77,1,140,0|0,0:0|0:0,0:0:0:0:
512,270,36535,2,0,P|440:220|374:210,1,140,0|0,0:0|0:0,0:0:0:0:
155,115,36813,86,0,P|86:147|50:192,1,70
91,143,36952,1,0,0:0:0:0:
15,313,37090,2,0,B|53:266|90:283|90:283|133:307|183:261,1,175,0|0,0:0|0:0,0:0:0:0:
312,176,37299,1,0,0:0:0:0:
312,176,37368,1,0,0:0:0:0:
160,194,37507,2,0,P|232:215|261:256,1,70,0|0,0:0|0:0,0:0:0:0:
397,338,37646,2,0,P|298:273|290:249,1,140
374,48,37924,6,0,B|412:67|412:67|435:126,1,80.5000015354157
439,231,38063,2,0,B|474:255|474:255|538:251,1,80.5000015354157,0|0,0:0|0:0,0:0:0:0:
492,170,38202,2,0,B|459:152|459:152|377:141|377:141|306:97,1,161.000003070831,0|0,0:0|0:0,0:0:0:0:
187,25,38479,86,0,P|149:38|129:72,1,80.5000015354157
74,226,38618,2,0,P|31:231|-1:211,1,80.5000015354157,0|0,0:0|0:0,0:0:0:0:
47,154,38757,2,0,L|199:102,1,161.000003070831,0|0,0:0|0:0,0:0:0:0:
309,186,39035,6,0,P|334:193|360:191,1,52.5000020027161
238,29,39174,2,0,P|213:22|187:24,1,52.5000020027161,0|0,0:0|0:0,0:0:0:0:
70,60,39313,85,0,0:0:0:0:
77,144,39590,5,0,0:0:0:0:
88,227,39799,85,0,0:0:0:0:
99,303,40007,6,0,P|105:341|107:375,1,70
271,200,40285,85,0,0:0:0:0:
190,293,40424,2,0,P|185:172|194:113,1,175,0|0,0:1|0:0,0:0:0:0:
461,0,40702,1,0,0:1:0:0:
402,11,40771,1,0,0:1:0:0:
383,66,40840,1,0,0:1:0:0:
422,109,40910,1,0,0:1:0:0:
474,115,40979,1,0,0:1:0:0:
508,164,41049,1,0,0:1:0:0:
491,217,41118,1,0,0:0:0:0:
411,248,41211,54,0,B|382:248|382:248|359:228,1,46.6666666666667,0|0,0:0|0:0,0:0:0:0:
321,163,41327,53,0,0:0:0:0:
311,140,41396,1,0,0:0:0:0:
293,133,41465,1,0,0:0:0:0:
289,113,41535,1,0,0:0:0:0:
275,98,41604,1,0,0:0:0:0:
260,85,41674,2,0,P|182:107|180:111,1,52.5000020027161,0|0,0:0|0:0,0:0:0:0:
113,80,41813,2,0,P|171:136|175:136,1,52.5000020027161,0|0,0:0|0:0,0:0:0:0:
185,204,41952,2,0,P|204:125|202:121,1,52.5000020027161,0|0,0:0|0:0,0:0:0:0:
0,84,42090,2,0,P|78:177|101:217,1,140,0|0,0:0|0:0,0:0:0:0:
221,384,42368,86,0,L|242:306,1,70,0|0,0:0|0:0,0:0:0:0:
361,148,42507,2,0,L|340:226,1,70,0|0,0:0|0:0,0:0:0:0:
239,316,42646,6,0,L|218:238,1,70,0|0,0:0|0:0,0:0:0:0:
166,105,42785,2,0,L|184:172,1,70,0|0,0:0|0:0,0:0:0:0:
343,216,42924,86,0,L|361:283,1,70,0|0,0:0|0:0,0:0:0:0:
166,105,43063,2,0,L|184:37,1,70,0|0,0:0|0:0,0:0:0:0:
84,294,43202,2,0,P|187:381|265:373,1,175,0|0,0:0|0:0,0:0:0:0:
373,347,43479,6,0,P|422:279|421:240,1,70,0|0,0:0|0:0,0:0:0:0:
436,133,43618,2,0,B|488:124|488:124|512:170,1,105.000004005432,0|0,0:0|0:0,0:0:0:0:
512,290,43757,2,0,P|409:203|331:211,1,175,0|0,0:0|0:0,0:0:0:0:
132,225,44035,1,0,0:0:0:0:
92,237,44104,1,0,0:0:0:0:
42,234,44174,2,0,B|-3:214|-10:175,1,52.5000020027161,0|0,0:0|0:0,0:0:0:0:
57,116,44313,2,0,B|101:84|101:84|92:133,1,105.000004005432,0|0,0:0|0:0,0:0:0:0:
114,323,44452,2,0,P|206:260|221:169,1,175,0|0,0:0|0:0,0:0:0:0:
231,0,44729,86,0,L|250:55,1,52.5000020027161,0|0,0:0|0:0,0:0:0:0:
319,81,44868,6,0,L|305:137,1,52.5000020027161,0|0,0:0|0:0,0:0:0:0:
210,152,45146,86,0,L|224:208,1,52.5000020027161,0|0,0:0|0:0,0:0:0:0:
307,324,45424,6,0,L|293:380,1,52.5000020027161,0|0,0:0|0:0,0:0:0:0:
408,145,45702,85,0,0:1:0:0:
494,269,45840,2,0,B|500:326|500:326|446:280,1,105.000004005432,0|0,0:0|0:0,0:0:0:0:
334,176,45979,2,0,P|329:129|429:61,1,175,0|0,0:0|0:0,0:0:0:0:
500,156,46257,53,0,0:0:0:0:
489,167,46303,1,0,0:0:0:0:
480,178,46350,1,0,0:0:0:0:
474,190,46396,1,0,0:0:0:0:
294,374,46535,54,0,P|241:296|169:243,1,175
69,103,46813,2,0,P|63:145|90:178,1,87.5,0|0,0:0|0:0,0:0:0:0:
257,89,46952,2,0,B|288:47|288:47|235:52,1,105.000004005432,0|0,0:0|0:0,0:0:0:0:
0,44,47090,2,0,L|162:104,1,175,0|0,0:0|0:0,0:0:0:0:
353,342,47368,86,0,B|313:347|288:307,1,70
417,208,47507,2,0,B|421:167|421:167|463:146,1,87.5,0|0,0:0|0:0,0:0:0:0:
512,205,47646,2,0,L|348:265,1,175,0|0,0:0|0:0,0:0:0:0:
37,185,47924,2,0,P|50:219|122:226,1,87.5,0|0,0:0|0:0,0:0:0:0:
273,242,48063,21,0,0:0:0:0:
344,193,48155,1,0,0:0:0:0:
353,111,48248,1,0,0:0:0:0:
295,48,48340,1,0,0:0:0:0:
219,50,48433,1,0,0:0:0:0:
183,113,48526,1,0,0:0:0:0:
116,129,48618,1,0,0:0:0:0:
76,90,48711,1,0,0:0:0:0:
98,37,48803,1,0,0:0:0:0:
176,20,48896,86,0,P|227:65|232:83,1,52.5000020027161,0|0,0:0|0:0,0:0:0:0:
306,104,49174,2,0,P|309:156|296:204,1,87.5,0|0,0:0|0:0,0:0:0:0:
342,263,49452,2,0,P|298:313|239:328,1,105.000004005432,0|0,0:0|0:0,0:0:0:0:
201,376,49729,2,0,P|110:347|56:292,1,122.500001168251,0|0,0:0|0:0,0:0:0:0:
28,142,50007,86,0,B|69:190|69:190|139:182,1,122.500001168251,0|0,0:0|0:0,0:0:0:0:
137,16,50285,1,0,0:0:0:0:
137,16,50424,1,0,0:0:0:0:
101,96,50563,2,0,P|192:125|246:180,1,122.500001168251,0|0,0:0|0:0,0:0:0:0:
294,113,50840,2,0,P|298:224|314:260,1,122.500001168251,0|0,0:0|0:0,0:0:0:0:
458,353,51118,6,0,P|352:315|213:317,1,245.000002336502,0|0,0:0|0:0,0:0:0:0:
172,257,51535,2,0,P|158:272|143:306,1,52.5000020027161,0|0,0:0|0:0,0:0:0:0:
334,364,51674,2,0,P|365:311|370:268,1,105.000004005432,0|0,0:0|0:0,0:0:0:0:
312,47,51952,1,0,0:0:0:0:
217,31,52090,1,0,0:0:0:0:
157,108,52229,86,0,P|186:167|221:177,1,105.000004005432,0|0,0:0|0:0,0:0:0:0:
444,121,52507,1,0,0:0:0:0:
444,121,52646,1,0,0:0:0:0:
444,121,52785,2,0,P|378:116|348:145,1,105.000004005432,0|0,0:0|0:0,0:0:0:0:
291,350,53063,2,0,P|327:295|316:260,1,105.000004005432,0|0,0:0|0:0,0:0:0:0:
51,156,53340,6,0,B|22:109|22:109|59:36|59:36,1,105.000004005432,0|0,0:0|0:0,0:0:0:0:
138,37,53618,1,0,0:0:0:0:
192,110,53757,1,0,0:0:0:0:
154,194,53896,2,0,P|126:268|130:297,1,105.000004005432,0|0,0:0|0:0,0:0:0:0:
235,327,54174,2,0,P|263:253|259:224,1,105.000004005432,0|0,0:0|0:0,0:0:0:0:
442,53,54452,86,0,P|466:98|467:150,1,105.000004005432,0|0,0:0|0:0,0:0:0:0:
335,153,54729,1,0,0:0:0:0:
335,153,54868,1,0,0:0:0:0:
305,54,55007,1,0,0:0:0:0:
208,23,55146,1,0,0:0:0:0:
150,49,55285,1,0,0:0:0:0:
138,110,55424,1,0,0:0:0:0:
176,159,55563,5,0,0:0:0:0:
223,200,55702,1,0,0:0:0:0:
225,262,55840,1,0,0:0:0:0:
186,312,55979,1,0,0:0:0:0:
118,375,56118,1,0,0:0:0:0:
118,375,56257,2,0,P|91:307|94:295,1,70,0|0,0:0|0:0,0:0:0:0:
327,246,56535,1,0,0:0:0:0:
341,204,56604,1,0,0:0:0:0:
311,173,56674,2,0,B|263:135|212:164|192:224|152:268|78:276|47:231|42:194|124:145|110:91|37:87,1,420,0|0,0:0|0:0,0:0:0:0:
39,87,57785,70,0,L|6:73,1,35,0|0,0:0|0:0,0:0:0:0:
201,162,57993,2,0,L|170:179,1,35,0|0,0:0|0:0,0:0:0:0:
335,98,58202,2,0,L|285:81,1,35,0|0,0:0|0:0,0:0:0:0:
452,121,58410,2,0,L|419:134,1,35,0|0,0:0|0:0,0:0:0:0:
509,58,58618,2,0,P|405:90|334:221,1,245.000002336502,0|0,0:0|0:0,0:0:0:0:
433,366,59174,5,0,0:0:0:0:
433,366,59313,1,0,0:0:0:0:
510,244,59452,2,0,B|518:184|518:184|445:228,1,122.500001168251,0|0,0:0|0:0,0:0:0:0:
284,341,59729,2,0,P|237:326|208:296,1,87.5,0|0,0:0|0:0,0:0:0:0:
118,62,60007,6,0,P|149:143|144:230,1,175,0|0,0:0|0:0,0:0:0:0:
27,326,60424,1,0,0:0:0:0:
3,245,60563,1,0,0:0:0:0:
44,164,60702,1,0,0:0:0:0:
121,144,60840,1,0,0:0:0:0:
196,163,60979,1,0,0:0:0:0:
273,139,61118,86,0,P|302:91|296:47,1,87.5,0|0,0:0|0:0,0:0:0:0:
435,39,61396,1,0,0:0:0:0:
378,94,61535,1,0,0:0:0:0:
356,171,61674,2,0,B|363:234|426:222|427:228|429:235|482:232|474:328,1,175,0|0,0:0|0:0,0:0:0:0:
194,331,62229,6,0,B|259:302|259:302|287:235,1,140,0|0,0:0|0:0,0:0:0:0:
409,130,62507,2,0,P|351:197|353:211,1,70,0|0,0:0|0:0,0:0:0:0:
53,286,62646,1,0,0:0:0:0:
49,258,62715,1,0,0:0:0:0:
93,212,62785,1,0,0:0:0:0:
99,163,62854,1,0,0:0:0:0:
50,123,62924,1,0,0:0:0:0:
33,64,62993,1,0,0:0:0:0:
65,17,63063,2,0,P|154:5|243:123,1,210.000008010865,0|0,0:0|0:0,0:0:0:0:
348,372,63479,85,0,0:0:0:0:
380,292,63618,1,0,0:0:0:0:
299,240,63757,1,0,0:0:0:0:
365,138,63896,1,0,0:0:0:0:
236,82,64035,1,0,0:0:0:0:
112,154,64174,6,0,B|-3:178|-26:266|-15:315|10:319|83:337|149:303|-17:194|54:225|83:194|120:188|169:188,1,350,0|0,0:0|0:0,0:0:0:0:
273,201,64590,2,0,B|226:195|303:141|346:166|392:286|390:318|314:354|236:344|173:283|261:243|214:177|148:280|146:266,1,363.999983337403,0|0,0:0|0:0,0:0:0:0:
91,286,65007,86,0,B|136:219|123:174|92:161|44:156|15:171|-28:227|-43:309|-44:361|24:384|104:376|139:307|142:229|142:229|153:94|227:59|262:48|311:52|356:80|372:138|316:200|244:161|172:186|186:292|289:307,1,1102.49996635437,0|0,0:1|0:0,0:0:0:0:
480,276,66118,5,0,0:1:0:0:
487,252,66188,1,0,0:0:0:0:
464,225,66257,1,0,0:0:0:0:
429,231,66327,1,0,0:0:0:0:
395,260,66396,1,0,0:0:0:0:
337,266,66465,1,0,0:0:0:0:
281,231,66535,1,0,0:0:0:0:
256,171,66604,1,0,0:0:0:0:
265,107,66674,86,0,P|321:77|337:77,1,70,0|0,0:0|0:0,0:0:0:0:
431,41,66813,2,0,P|375:71|359:71,1,70,0|0,0:0|0:0,0:0:0:0:
192,73,66952,2,0,B|148:45|148:45|200:49,1,105.000004005432,0|0,0:0|0:0,0:0:0:0:
499,138,67090,2,0,P|379:155|321:202,1,140,0|0,0:0|0:0,0:0:0:0:
133,329,67368,1,0,0:1:0:0:
100,370,67438,1,0,0:0:0:0:
45,362,67507,2,0,P|31:298|69:267,1,70,0|0,0:0|0:0,0:0:0:0:
119,138,67646,2,0,P|164:78|128:-5,1,140,0|0,0:0|0:0,0:0:0:0:
36,118,67924,6,0,P|39:185|49:197,1,70
193,266,68063,2,0,P|190:199|180:187,1,70,0|0,0:0|0:0,0:0:0:0:
264,92,68202,2,0,P|334:67|357:152,1,157.500006008148,0|0,0:0|0:0,0:0:0:0:
284,346,68479,85,0,0:1:0:0:
303,353,68549,1,0,0:1:0:0:
324,359,68618,1,0,0:0:0:0:
347,368,68688,1,0,0:0:0:0:
397,330,68757,5,0,0:0:0:0:
392,266,68827,1,0,0:0:0:0:
330,253,68896,1,0,0:0:0:0:
285,209,68965,1,0,0:0:0:0:
303,148,69035,1,0,0:0:0:0:
367,128,69104,1,0,0:0:0:0:
423,157,69174,1,0,0:0:0:0:
480,133,69243,1,0,0:0:0:0:
485,69,69313,1,0,0:0:0:0:
443,21,69382,1,0,0:0:0:0:
380,10,69452,2,0,L|308:38,1,52.5000020027161,0|0,0:0|0:0,0:0:0:0:
213,233,69590,86,0,P|196:164|175:145,1,52.5000020027161,0|0,0:1|0:0,0:0:0:0:
127,99,69729,2,0,P|144:168|165:187,1,52.5000020027161,0|0,0:0|0:0,0:0:0:0:
193,280,69868,6,0,P|213:213|205:185,1,52.5000020027161,0|0,0:1|0:0,0:0:0:0:
147,52,70007,2,0,P|126:120|134:148,1,52.5000020027161,0|0,0:0|0:0,0:0:0:0:
144,295,70146,86,0,P|208:267|224:243,1,52.5000020027161,0|0,0:0|0:0,0:0:0:0:
196,37,70285,2,0,P|131:66|115:90,1,52.5000020027161,0|0,0:0|0:0,0:0:0:0:
4,203,70424,5,0,0:1:0:0:
4,203,70563,1,0,0:0:0:0:
67,357,70702,85,0,0:0:0:0:
95,313,70771,2,0,P|140:295|181:295,1,52.5000020027161,0|0,0:0|0:0,0:0:0:0:
231,154,70910,1,0,0:0:0:0:
251,198,70979,2,0,P|296:216|337:216,1,52.5000020027161,0|0,0:0|0:0,0:0:0:0:
487,368,71118,6,0,P|443:311|416:183,1,175
322,42,71396,2,0,P|301:126|250:197,1,175,0|0,0:0|0:0,0:0:0:0:
116,192,71674,1,0,0:0:0:0:
31,46,71813,1,0,0:0:0:0:
84,71,71882,2,0,P|154:60|170:44,1,52.5000020027161,0|0,0:0|0:0,0:0:0:0:
299,163,72021,1,0,0:0:0:0:
250,196,72090,2,0,P|224:262|230:283,1,52.5000020027161,0|0,0:0|0:0,0:0:0:0:
34,289,72229,86,0,P|-10:233|-32:228,1,52.5000020027161
146,315,72368,1,0,0:0:0:0:
184,364,72438,1,0,0:0:0:0:
243,382,72507,2,0,P|320:324|347:247,1,157.500006008148,0|0,0:0|0:0,0:0:0:0:
434,34,72785,1,0,0:1:0:0:
486,67,72854,1,0,0:1:0:0:
486,130,72924,1,0,0:1:0:0:
431,161,72993,1,0,0:0:0:0:
368,152,73063,1,0,0:0:0:0:
335,205,73132,1,0,0:0:0:0:
344,270,73202,6,0,P|388:333|463:315,1,157.500006008148,0|0,0:0|0:0,0:0:0:0:
290,47,73479,2,0,B|248:33|248:33|186:61,1,78.7500030040742,0|0,0:0|0:0,0:0:0:0:
66,103,73618,2,0,B|29:87|29:87|20:33,1,78.7500030040742,0|0,0:0|0:0,0:0:0:0:
109,36,73757,2,0,P|217:107|252:185,1,175,0|0,0:0|0:0,0:0:0:0:
276,294,74035,86,0,P|311:315|380:312,1,70
469,285,74174,2,0,B|498:302|512:338,1,70,0|0,0:0|0:0,0:0:0:0:
431,356,74313,2,0,P|356:280|324:194,1,175,0|0,0:0|0:0,0:0:0:0:
255,59,74590,2,0,P|248:121|190:192,1,87.5,0|0,0:0|0:0,0:0:0:0:
196,260,74729,2,0,P|158:181|94:122,1,175,0|0,0:0|0:0,0:0:0:0:
23,324,75007,5,0,0:0:0:0:
12,306,75077,1,0,0:0:0:0:
30,270,75146,1,0,0:0:0:0:
72,261,75215,1,0,0:0:0:0:
124,289,75285,1,0,0:0:0:0:
170,338,75354,1,0,0:0:0:0:
240,338,75424,1,0,0:0:0:0:
287,280,75493,1,0,0:0:0:0:
289,210,75563,86,0,P|279:180|253:142,1,70
159,108,75702,2,0,P|218:132|242:128,1,70,0|0,0:0|0:0,0:0:0:0:
337,86,75840,2,0,B|362:42|362:42|293:59,1,105.000004005432,0|0,0:0|0:0,0:0:0:0:
125,203,75979,2,0,P|208:231|212:235,1,70,0|0,0:0|0:0,0:0:0:0:
376,384,76118,2,0,P|358:298|360:292,1,70,0|0,0:0|0:0,0:0:0:0:
309,55,76257,1,0,0:0:0:0:
328,67,76327,1,0,0:0:0:0:
341,81,76396,2,0,L|325:171,1,70,0|0,0:0|0:0,0:0:0:0:
70,142,76535,1,0,0:0:0:0:
51,154,76605,1,0,0:0:0:0:
38,168,76674,6,0,L|54:258,1,70
166,310,76813,2,0,L|150:400,1,70,0|0,0:0|0:0,0:0:0:0:
227,81,76952,2,0,L|243:171,1,70,0|0,0:0|0:0,0:0:0:0:
153,241,77090,2,0,L|169:331,1,70,0|0,0:0|0:0,0:0:0:0:
239,12,77229,2,0,L|223:102,1,70,0|0,0:0|0:0,0:0:0:0:
165,309,77368,1,0,0:0:0:0:
22,61,77507,85,0,0:0:0:0:
74,61,77577,1,0,0:0:0:0:
116,91,77646,1,0,0:0:0:0:
111,142,77715,1,0,0:0:0:0:
76,181,77785,1,0,0:0:0:0:
71,232,77854,1,0,0:0:0:0:
116,261,77924,1,0,0:0:0:0:
167,250,77993,1,0,0:0:0:0:
186,200,78063,1,0,0:0:0:0:
243,187,78132,1,0,0:0:0:0:
293,217,78202,1,0,0:0:0:0:
310,271,78271,1,0,0:0:0:0:
292,287,78340,53,0,0:0:0:0:
278,299,78387,1,0,0:0:0:0:
262,313,78433,1,0,0:0:0:0:
249,322,78479,53,0,0:0:0:0:
258,370,78549,1,0,0:0:0:0:
316,384,78618,1,0,0:0:0:0:
376,366,78688,1,0,0:0:0:0:
401,315,78757,85,0,0:0:0:0:
411,293,78827,1,0,0:0:0:0:
429,293,78896,1,0,0:0:0:0:
443,304,78965,1,0,0:0:0:0:
443,322,79035,1,0,0:0:0:0:
425,336,79104,1,0,0:0:0:0:
408,329,79174,1,0,0:0:0:0:
200,23,79313,5,0,0:1:0:0:
459,46,79452,2,0,P|461:77|483:133,1,52.5000020027161,0|0,0:0|0:0,0:0:0:0:
507,270,79590,1,0,0:0:0:0:
482,224,79660,2,0,P|454:210|394:201,1,52.5000020027161,0|0,0:0|0:0,0:0:0:0:
353,83,79799,1,0,0:0:0:0:
327,125,79868,2,0,P|307:142|285:157,1,52.5000020027161,0|0,0:0|0:0,0:0:0:0:
122,17,80007,86,0,P|123:146|88:197,1,175,0|0,0:1|0:0,0:0:0:0:
17,384,80285,2,0,P|16:255|51:204,1,175,0|0,0:1|0:0,0:0:0:0:
192,188,80563,2,0,P|245:255|248:261,1,52.5000020027161,0|0,0:0|0:0,0:0:0:0:
306,384,80702,1,0,0:0:0:0:
312,341,80771,2,0,P|344:261|348:256,1,52.5000020027161,0|0,0:0|0:0,0:0:0:0:
465,169,80910,1,0,0:0:0:0:
459,126,80979,2,0,P|428:46|424:41,1,52.5000020027161,0|0,0:0|0:0,0:0:0:0:
481,310,81118,6,0,P|428:243|425:237,1,52.5000020027161,0|0,0:0|0:0,0:0:0:0:
81,105,81257,1,0,0:0:0:0:
43,265,81396,2,0,P|119:240|216:170,1,175,0|0,0:0|0:0,0:0:0:0:
311,19,81674,1,0,0:1:0:0:
364,34,81743,1,0,0:1:0:0:
390,83,81813,1,0,0:1:0:0:
386,142,81882,1,0,0:1:0:0:
427,185,81952,1,0,0:1:0:0:
487,180,82021,1,0,0:1:0:0:
478,116,82090,86,0,P|426:136|323:238,1,175,0|0,0:1|0:0,0:0:0:0:
284,354,82368,2,0,P|179:355|165:346,1,87.5,0|0,0:0|0:0,0:0:0:0:
62,309,82507,2,0,P|5:387|6:392,1,87.5,0|0,0:0|0:0,0:0:0:0:
78,384,82646,2,0,P|130:364|233:262,1,175,0|0,0:1|0:0,0:0:0:0:
217,87,82924,6,0,B|244:53|244:53|315:63,1,87.5
386,110,83063,2,0,B|428:94|428:94|454:28,1,87.5,0|0,0:0|0:0,0:0:0:0:
368,37,83202,2,0,P|284:104|238:195,1,175,0|0,0:0|0:0,0:0:0:0:
443,54,83618,1,0,0:0:0:0:
443,54,83896,1,0,0:0:0:0:
472,129,84035,2,0,P|524:180|549:188,1,52.5000020027161,0|0,0:0|0:0,0:0:0:0:
479,329,84313,2,0,P|417:266|176:256,1,315.000012016297,0|0,0:0|0:0,0:0:0:0:
0,346,84868,85,0,0:0:0:0:
19,333,84938,1,0,0:0:0:0:
39,311,85007,1,0,0:0:0:0:
44,283,85077,1,0,0:0:0:0:
47,239,85146,1,0,0:0:0:0:
70,195,85215,1,0,0:0:0:0:
117,182,85285,1,0,0:0:0:0:
202,244,85563,5,0,0:0:0:0:
196,138,85979,1,0,0:0:0:0:
303,115,86396,2,0,P|374:173|342:285,1,210,0|0,0:0|0:0,0:0:0:0:
193,355,87785,85,0,0:0:0:0:
86,313,88202,1,0,0:0:0:0:
27,222,88618,2,0,P|41:131|154:103,1,210,0|0,0:0|0:0,0:0:0:0:
489,201,90007,70,0,L|424:239,4,56
398,303,90563,2,0,L|349:274,4,56,0|0|0|0|0,0:0|0:0|0:0|0:0|0:0,0:0:0:0:
263,226,91118,5,0,0:0:0:0:
222,178,91229,1,0,0:0:0:0:
211,116,91340,1,0,0:0:0:0:
228,58,91452,1,0,0:0:0:0:
272,14,91563,1,0,0:0:0:0:
336,9,91674,85,0,0:0:0:0:
322,72,91785,1,0,0:0:0:0:
275,107,91896,1,0,0:0:0:0:
211,116,92007,1,0,0:0:0:0:
161,157,92118,1,0,0:0:0:0:
157,218,92229,1,0,0:1:0:0:
7,278,92785,54,0,P|43:199|52:193,5,70.0000026702882,0|0|0|0|0|0,0:0|0:0|0:0|0:0|0:0|0:0,0:0:0:0:
5,127,93340,2,0,P|91:118|101:123,5,70.0000026702882,0|0|0|0|0|0,0:0|0:0|0:0|0:0|0:0|0:0,0:0:0:0:
104,36,93896,2,0,P|143:42|175:72,1,70,0|0,0:0|0:0,0:0:0:0:
187,201,94452,69,0,0:1:0:0:
212,300,94868,1,0,0:0:0:0:
307,357,95285,2,0,P|345:308|346:160,1,210,0|0,0:0|0:0,0:0:0:0:
142,230,96674,5,0,0:0:0:0:
188,144,97090,1,0,0:0:0:0:
259,78,97507,2,0,P|342:17|445:18,1,210,0|0,0:0|0:0,0:0:0:0:
108,332,98896,86,0,P|135:295|126:225,1,105.000004005432,0|0,0:0|0:0,0:0:0:0:
112,110,99452,1,0,0:0:0:0:
401,326,100007,2,0,P|374:289|384:186,1,140,0|0,0:0|0:0,0:0:0:0:
405,62,100563,1,0,0:0:0:0:
254,14,101118,2,0,L|255:43,1,28,0|0,0:0|0:0,0:0:0:0:
280,317,102229,6,0,P|320:309|404:272,1,70,0|0,0:0|0:0,0:0:0:0:
461,209,102368,2,0,P|421:217|337:254,1,70,0|0,0:0|0:0,0:0:0:0:
297,152,102646,2,0,P|376:188|461:208,1,175,0|0,0:0|0:0,0:0:0:0:
446,371,102924,2,0,P|365:336|280:316,1,175,0|0,0:0|0:0,0:0:0:0:
80,276,103340,6,0,P|53:303|43:340,2,70.0000026702882,0|0|0,0:1|0:0|0:0,0:0:0:0:
150,287,103618,2,0,P|180:263|200:227,2,70.0000026702882,0|0|0,0:0|0:0|0:0,0:0:0:0:
194,99,103896,2,0,P|199:137|220:172,2,70.0000026702882,0|0|0,0:0|0:0|0:0,0:0:0:0:
337,232,104174,2,0,P|301:217|260:218,2,70.0000026702882,0|0|0,0:0|0:0|0:0,0:0:0:0:
382,264,104452,5,0,0:0:0:0:
421,250,104544,1,0,0:0:0:0:
447,217,104637,1,0,0:0:0:0:
433,177,104729,1,0,0:0:0:0:
392,165,104822,1,0,0:0:0:0:
366,132,104914,1,0,0:0:0:0:
375,90,105007,1,0,0:0:0:0:
382,48,105100,1,0,0:0:0:0:
352,18,105192,1,0,0:0:0:0:
311,4,105285,1,0,0:0:0:0:
271,17,105377,1,0,0:0:0:0:
259,57,105470,1,0,0:0:0:0:
178,68,105563,86,0,P|197:101|231:124,2,70.0000026702882,0|0|0,0:0|0:0|0:0,0:0:0:0:
173,181,105840,2,0,P|209:193|250:190,2,70.0000026702882,0|0|0,0:0|0:0|0:0,0:0:0:0:
473,250,106118,2,0,P|434:249|400:226,2,70.0000026702882,0|0|0,0:0|0:0|0:0,0:0:0:0:
380,309,106396,2,0,P|350:283|333:246,2,70.0000026702882,0|0|0,0:0|0:0|0:0,0:0:0:0:
321,212,106674,5,0,0:0:0:0:
313,171,106766,1,0,0:0:0:0:
283,140,106859,1,0,0:0:0:0:
238,132,106952,1,0,0:0:0:0:
196,124,107044,1,0,0:0:0:0:
179,85,107137,1,0,0:0:0:0:
215,65,107229,1,0,0:0:0:0:
246,93,107322,1,0,0:0:0:0:
238,132,107414,1,0,0:0:0:0:
214,166,107507,1,0,0:0:0:0:
180,191,107600,1,0,0:0:0:0:
158,226,107692,1,0,0:0:0:0:
77,322,107785,85,0,0:0:0:0:
86,279,107877,1,0,0:0:0:0:
69,244,107970,1,0,0:0:0:0:
37,218,108063,2,0,P|25:152|30:144,3,52.5000020027161,0|0|0|0,0:0|0:0|0:0|0:0,0:0:0:0:
25,72,108340,5,0,0:0:0:0:
58,102,108433,1,0,0:0:0:0:
104,98,108526,1,0,0:0:0:0:
132,71,108618,2,0,P|138:47|160:18,3,52.5000020027161,0|0|0|0,0:0|0:0|0:0|0:0,0:0:0:0:
210,76,108896,85,0,0:0:0:0:
191,125,108989,1,0,0:0:0:0:
208,175,109081,1,0,0:0:0:0:
255,206,109174,2,0,P|274:248|267:288,3,52.5000020027161,0|0|0|0,0:0|0:0|0:0|0:0,0:0:0:0:
300,383,109452,5,0,0:0:0:0:
305,326,109544,1,0,0:0:0:0:
344,287,109637,1,0,0:0:0:0:
401,275,109729,2,0,P|448:236|450:221,3,52.5000020027161,0|0|0|0,0:0|0:0|0:0|0:0,0:0:0:0:
483,182,110007,85,0,0:0:0:0:
426,171,110100,1,0,0:0:0:0:
397,131,110192,1,0,0:0:0:0:
374,77,110285,2,0,P|299:59|289:64,3,52.5000020027161,0|0|0|0,0:0|0:0|0:0|0:0,0:0:0:0:
167,28,110563,6,0,P|191:59|205:87,5,70.0000026702882,0|0|0|0|0|0,0:0|0:0|0:0|0:0|0:0|0:0,0:0:0:0:
198,130,111118,1,0,0:0:0:0:
192,181,111211,1,0,0:0:0:0:
225,220,111303,1,0,0:0:0:0:
272,225,111396,1,0,0:0:0:0:
311,266,111489,1,0,0:0:0:0:
310,318,111581,1,0,0:0:0:0:
262,340,111674,2,0,P|224:325|174:340,1,70,0|0,0:1|0:0,0:0:0:0:
0,381,111952,69,0,0:0:0:0:
26,372,112021,1,0,0:0:0:0:
42,350,112090,1,0,0:0:0:0:
44,326,112160,1,0,0:0:0:0:
30,300,112229,6,0,P|5:259|5:232,2,46.6666666666667,0|0|0,0:0|0:0|0:0,0:0:0:0:
82,239,112507,2,0,P|106:197|106:169,2,46.6666666666667,0|0|0,0:0|0:0|0:0,0:0:0:0:
27,170,112785,2,0,P|11:122|15:98,2,46.6666666666667,0|0|0,0:0|0:0|0:0,0:0:0:0:
87,114,113063,2,0,P|108:69|105:44,2,46.6666666666667,0|0|0,0:0|0:0|0:0,0:0:0:0:
163,10,113340,5,0,0:0:0:0:
212,34,113433,1,0,0:0:0:0:
226,84,113526,1,0,0:0:0:0:
175,155,113618,85,0,0:0:0:0:
179,208,113711,1,0,0:0:0:0:
220,239,113804,1,0,0:0:0:0:
299,226,113896,5,0,0:0:0:0:
348,215,113989,1,0,0:0:0:0:
391,247,114082,1,0,0:0:0:0:
426,316,114174,85,0,0:0:0:0:
411,363,114267,1,0,0:0:0:0:
361,384,114360,1,0,0:0:0:0:
278,364,114452,6,0,P|294:332|322:312,2,70.0000026702882,0|0|0,0:0|0:0|0:0,0:0:0:0:
268,253,114729,2,0,P|307:231|334:230,2,70.0000026702882,0|0|0,0:0|0:0|0:0,0:0:0:0:
307,150,115007,2,0,P|351:150|375:163,2,70.0000026702882,0|0|0,0:0|0:0|0:0,0:0:0:0:
395,88,115285,2,0,P|433:110|447:134,2,70.0000026702882,0|0|0,0:0|0:0|0:0,0:0:0:0:
487,202,115563,85,0,0:0:0:0:
461,257,115655,1,0,0:0:0:0:
401,267,115748,1,0,0:0:0:0:
331,229,115840,1,0,0:0:0:0:
292,183,115933,1,0,0:0:0:0:
232,188,116025,1,0,0:0:0:0:
171,245,116118,1,0,0:0:0:0:
175,301,116211,21,0,0:0:0:0:
176,314,116257,1,0,0:0:0:0:
195,334,116327,37,0,0:3:0:0:
223,343,116396,1,0,0:0:0:0:
273,346,116489,37,0,0:0:0:0:
309,317,116581,1,0,0:0:0:0:
300,266,116674,2,0,P|278:208|222:109,1,175,0|0,0:0|0:0,0:0:0:0:
11,153,116952,53,0,0:0:0:0:
53,138,117090,1,0,0:0:0:0:
164,218,117229,1,0,0:0:0:0:
206,233,117367,1,0,0:0:0:0:
311,160,117507,1,0,0:0:0:0:
353,145,117645,1,0,0:0:0:0:
502,234,117785,5,0,0:0:0:0:
460,219,117923,1,0,0:0:0:0:
402,49,118063,1,0,0:0:0:0:
324,78,118201,1,0,0:0:0:0:
267,331,118340,1,0,0:0:0:0:
156,294,118478,1,0,0:0:0:0:
152,34,118618,1,0,0:0:0:0:
9,77,118756,1,0,0:0:0:0:
105,225,118896,86,0,P|164:211|203:206,1,52.5000020027161
166,130,119035,2,0,P|220:157|253:178,1,52.5000020027161,0|0,0:0|0:0,0:0:0:0:
285,243,119174,1,0,0:0:0:0:
285,243,119243,1,0,0:0:0:0:
285,243,119313,2,0,P|281:182|336:63,1,175,0|0,0:0|0:0,0:0:0:0:
89,37,119590,2,0,P|143:64|219:171,1,175,0|0,0:0|0:0,0:0:0:0:
364,351,119868,2,0,P|461:333|443:244,1,175,0|0,0:0|0:0,0:0:0:0:
245,48,120146,6,0,P|275:47|327:86,1,87.5
426,134,120285,2,0,B|470:119|470:119|482:65,1,87.5,0|0,0:0|0:0,0:0:0:0:
422,28,120424,2,0,P|343:104|273:188,1,210.000008010865,0|0,0:0|0:0,0:0:0:0:
282,187,120702,2,0,P|349:107|425:34,1,210.000008010865,0|0,0:0|0:0,0:0:0:0:
2,145,120979,85,0,0:1:0:0:
2,145,121049,1,0,0:1:0:0:
2,145,121118,2,0,P|50:214|66:250,1,70,0|0,0:0|0:0,0:0:0:0:
56,335,121257,2,0,P|8:266|-8:230,1,70,0|0,0:0|0:0,0:0:0:0:
89,114,121396,5,0,0:0:0:0:
89,114,121465,1,0,0:0:0:0:
89,114,121535,2,0,P|125:84|170:68,1,87.5,0|0,0:0|0:0,0:0:0:0:
317,245,121674,85,0,0:0:0:0:
317,245,121743,1,0,0:0:0:0:
317,245,121813,2,0,P|273:228|236:197,1,87.5,0|0,0:0|0:0,0:0:0:0:
165,242,121952,5,0,0:0:0:0:
165,242,122021,1,0,0:0:0:0:
165,242,122091,2,0,P|156:195|165:149,1,87.5,0|0,0:0|0:0,0:0:0:0:
389,115,122229,85,0,0:0:0:0:
389,115,122299,1,0,0:0:0:0:
389,115,122369,2,0,P|353:145|308:161,1,87.5,0|0,0:0|0:0,0:0:0:0:
169,341,122507,5,0,0:0:0:0:
169,341,122576,1,0,0:0:0:0:
169,341,122646,2,0,P|204:310|241:295,1,70,0|0,0:0|0:0,0:0:0:0:
503,353,122924,2,0,L|284:282,1,210.000008010865,0|0,0:0|0:0,0:0:0:0:
437,248,123202,1,0,0:1:0:0:
437,248,123271,1,0,0:1:0:0:
437,248,123340,6,0,P|472:261|521:252,2,78.7500030040742,0|0|0,0:1|0:0|0:0,0:0:0:0:
465,167,123618,2,0,P|494:142|510:96,2,78.7500030040742,0|0|0,0:1|0:0|0:0,0:0:0:0:
428,86,123896,2,0,P|421:48|389:11,2,78.7500030040742,0|0|0,0:1|0:0|0:0,0:0:0:0:
344,78,124174,2,0,P|308:65|259:73,2,78.7500030040742,0|0|0,0:1|0:0|0:0,0:0:0:0:
192,263,124452,5,0,0:1:0:0:
154,280,124544,1,0,0:0:0:0:
113,267,124637,1,0,0:0:0:0:
104,226,124729,1,0,0:0:0:0:
127,190,124822,1,0,0:0:0:0:
166,176,124914,1,0,0:0:0:0:
182,137,125007,1,0,0:0:0:0:
169,96,125100,1,0,0:0:0:0:
129,82,125192,1,0,0:0:0:0:
92,102,125285,1,0,0:0:0:0:
51,90,125377,1,0,0:0:0:0:
39,49,125470,1,0,0:0:0:0:
151,7,125563,86,0,P|200:18|227:48,2,70.0000026702882,0|0|0,0:0|0:0|0:0,0:0:0:0:
287,0,125840,2,0,P|317:39|318:80,2,70.0000026702882,0|0|0,0:0|0:0|0:0,0:0:0:0:
400,66,126118,2,0,P|397:116|372:147,2,70.0000026702882,0|0|0,0:0|0:0|0:0,0:0:0:0:
446,188,126396,2,0,P|411:224|372:233,2,70.0000026702882,0|0|0,0:0|0:0|0:0,0:0:0:0:
292,266,126674,69,0,0:0:0:0:
188,300,126859,5,0,0:0:0:0:
84,335,127067,85,0,0:0:0:0:
20,349,127229,5,0,0:0:0:0:
290,174,127507,85,0,0:0:0:0:
321,171,127577,1,0,0:0:0:0:
347,187,127646,1,0,0:0:0:0:
379,202,127715,1,0,0:0:0:0:
401,200,127785,2,0,P|451:174|467:155,1,70,0|0,0:0|0:0,0:0:0:0:
512,75,127924,2,0,P|462:101|446:120,1,70,0|0,0:0|0:0,0:0:0:0:
402,284,128063,2,0,B|420:335|420:335|450:263,1,105.000004005432,0|0,0:0|0:0,0:0:0:0:
437,13,128202,2,0,P|376:72|309:90,1,140,0|0,0:0|0:0,0:0:0:0:
107,30,128479,1,0,0:0:0:0:
61,20,128549,1,0,0:0:0:0:
16,43,128618,2,0,P|-10:110|-10:117,1,52.5000020027161,0|0,0:0|0:0,0:0:0:0:
55,228,128757,2,0,P|114:305|61:371,1,140,0|0,0:0|0:0,0:0:0:0:
62,142,129035,6,0,P|87:144|127:175,1,70,0|0,0:0|0:0,0:0:0:0:
367,258,129174,2,0,B|404:244|404:244|406:185,1,70,0|0,0:0|0:0,0:0:0:0:
337,176,129313,2,0,P|252:197|174:238,1,175,0|0,0:0|0:1,0:0:0:0:
472,281,129590,85,0,0:0:0:0:
484,257,129660,1,0,0:0:0:0:
495,229,129729,1,0,0:0:0:0:
508,205,129799,1,0,0:0:0:0:
493,156,129868,5,0,0:0:0:0:
463,108,129938,1,0,0:0:0:0:
402,94,130007,1,0,0:0:0:0:
351,123,130077,1,0,0:0:0:0:
337,176,130146,1,0,0:0:0:0:
359,226,130215,1,0,0:0:0:0:
333,277,130285,1,0,0:0:0:0:
273,284,130354,1,0,0:0:0:0:
226,244,130424,1,0,0:0:0:0:
232,186,130493,1,0,0:0:0:0:
263,141,130563,2,0,P|276:120|275:79,1,52.5000020027161,0|0,0:0|0:0,0:0:0:0:
58,120,130702,86,0,P|69:141|105:161,1,52.5000020027161,0|0,0:0|0:0,0:0:0:0:
259,281,130840,2,0,P|247:259|211:239,1,52.5000020027161,0|0,0:0|0:0,0:0:0:0:
56,69,130979,6,0,P|50:93|65:131,1,52.5000020027161,0|0,0:0|0:0,0:0:0:0:
260,331,131118,2,0,P|265:306|250:268,1,52.5000020027161,0|0,0:0|0:0,0:0:0:0:
87,29,131257,86,0,P|67:44|54:83,1,52.5000020027161,0|0,0:0|0:0,0:0:0:0:
228,370,131396,2,0,P|247:354|260:315,1,52.5000020027161,0|0,0:0|0:0,0:0:0:0:
381,24,131535,1,0,0:0:0:0:
381,24,131674,1,0,0:0:0:0:
512,139,131813,1,0,0:1:0:0:
490,185,131882,2,0,P|429:208|403:203,1,52.5000020027161,0|0,0:1|0:1,0:1:0:0:
306,124,132021,1,0,0:0:0:0:
266,104,132090,2,0,P|216:152|216:163,1,52.5000020027161,0|0,0:0|0:0,0:0:0:0:
89,267,132229,6,0,P|137:177|142:98,1,175,0|0,0:0|0:0,0:0:0:0:
204,217,132507,2,0,P|257:303|323:347,1,175,0|0,0:0|0:0,0:0:0:0:
512,267,132785,1,0,0:0:0:0:
296,174,132924,1,0,0:0:0:0:
250,167,132993,2,0,P|201:235|201:238,1,70,0|0,0:0|0:0,0:0:0:0:
0,309,133132,1,0,0:0:0:0:
46,316,133201,2,0,P|95:248|95:245,1,70,0|0,0:0|0:0,0:0:0:0:
91,89,133340,86,0,P|125:165|127:166,1,70,0|0,0:0|0:0,0:0:0:0:
475,302,133479,1,0,0:0:0:0:
512,267,133549,1,0,0:0:0:0:
512,209,133618,2,0,P|420:182|339:247,1,175,0|0,0:0|0:0,0:0:0:0:
208,366,133896,5,0,0:0:0:0:
150,364,133965,1,0,0:0:0:0:
129,315,134035,1,0,0:0:0:0:
144,263,134104,1,0,0:0:0:0:
168,221,134174,1,0,0:0:0:0:
152,175,134243,1,0,0:0:0:0:
109,153,134313,2,0,P|20:160|22:267,1,210.000008010865,0|0,0:1|0:0,0:0:0:0:
291,333,134590,86,0,P|330:316|355:274,1,78.7500030040742,0|0,0:0|0:0,0:0:0:0:
457,220,134729,2,0,P|462:177|438:135,1,78.7500030040742,0|0,0:0|0:0,0:0:0:0:
376,195,134868,2,0,P|374:282|410:361,1,175,0|0,0:0|0:0,0:0:0:0:
366,106,135146,6,0,B|335:76|335:76|275:91,1,78.7500030040742
208,158,135285,2,0,B|181:177|181:177|106:167,1,78.7500030040742,0|0,0:0|0:0,0:0:0:0:
157,93,135424,2,0,P|264:184|266:255,1,175,0|0,0:0|0:0,0:0:0:0:
147,350,135702,2,0,P|174:321|227:314,1,70,0|0,0:0|0:0,0:0:0:0:
339,323,135840,2,0,P|415:280|446:211,1,157.500006008148,0|0,0:0|0:0,0:0:0:0:
401,35,136049,85,0,0:0:0:0:
421,45,136118,1,0,0:0:0:0:
441,72,136188,1,0,0:0:0:0:
439,116,136257,1,0,0:0:0:0:
389,147,136327,1,0,0:0:0:0:
331,128,136396,1,0,0:0:0:0:
277,72,136465,1,0,0:0:0:0:
211,28,136535,1,0,0:0:0:0:
133,42,136604,1,0,0:0:0:0:
61,99,136674,6,0,P|35:181|35:182,1,70,0|0,0:0|0:0,0:0:0:0:
80,263,136813,2,0,P|76:220|61:198,1,70,0|0,0:0|0:0,0:0:0:0:
33,30,136952,2,0,B|-8:-3|-8:-3|6:64,1,105.000004005432,0|0,0:0|0:0,0:0:0:0:
3,276,137090,2,0,P|72:344|100:348,1,70,0|0,0:0|0:0,0:0:0:0:
156,168,137229,2,0,B|168:117|168:117|117:159,1,105.000004005432,0|0,0:0|0:0,0:0:0:0:
287,372,137368,1,0,0:0:0:0:
315,366,137438,1,0,0:0:0:0:
348,352,137507,2,0,L|369:278,1,70,0|0,0:0|0:0,0:0:0:0:
461,20,137646,1,0,0:0:0:0:
433,26,137716,1,0,0:0:0:0:
400,40,137785,86,0,L|379:114,1,70,0|0,0:0|0:0,0:0:0:0:
462,282,137924,2,0,P|446:219|430:202,1,70,0|0,0:0|0:0,0:0:0:0:
280,116,138063,2,0,P|282:150|298:181,1,70,0|0,0:0|0:0,0:0:0:0:
433,344,138202,2,0,P|461:285|459:262,1,70,0|0,0:0|0:0,0:0:0:0:
315,59,138341,2,0,P|287:86|291:161,1,70,0|0,0:0|0:0,0:0:0:0:
461,281,138479,1,0,0:0:0:0:
175,349,138618,54,0,L|138:327,2,23.3333333333333,0|0|0,0:0|0:0|0:0,0:0:0:0:
195,293,138757,2,0,L|169:268,2,23.3333333333333,0|0|0,0:0|0:0|0:0,0:0:0:0:
246,272,138896,2,0,L|235:233,2,23.3333333333333,0|0|0,0:0|0:0|0:0,0:0:0:0:
299,283,139035,2,0,L|305:305,2,23.3333333333333,0|0|0,0:0|0:0|0:0,0:0:0:0:
350,262,139174,2,0,L|366:278,2,23.3333333333333,0|0|0,0:0|0:0|0:0,0:0:0:0:
379,230,139313,53,0,0:0:0:0:
395,189,139382,1,0,0:0:0:0:
375,139,139452,1,0,0:0:0:0:
328,114,139521,1,0,0:0:0:0:
277,127,139590,1,0,0:0:0:0:
258,176,139660,1,0,0:0:0:0:
217,209,139729,37,0,0:0:0:0:
185,212,139776,1,0,0:0:0:0:
160,192,139822,1,0,0:0:0:0:
156,158,139868,1,0,0:0:0:0:
198,111,139938,37,0,0:0:0:0:
228,68,140007,53,0,0:0:0:0:
228,42,140053,1,0,0:0:0:0:
206,16,140100,1,0,0:0:0:0:
169,11,140146,1,0,0:0:0:0:
130,24,140215,53,0,0:0:0:0:
107,72,140285,1,0,0:0:0:0:
114,126,140354,1,0,0:0:0:0:
77,165,140424,1,0,0:0:0:0:
27,148,140493,1,0,0:0:0:0:
25,93,140563,86,0,L|47:35,1,52.5000020027161,0|0,0:0|0:0,0:0:0:0:
328,108,140702,1,0,0:0:0:0:
286,123,140771,2,0,P|258:196|259:218,1,70,0|0,0:0|0:0,0:0:0:0:
407,297,140910,1,0,0:0:0:0:
449,312,140979,2,0,P|477:385|476:407,1,70,0|0,0:0|0:0,0:0:0:0:
287,344,141118,6,0,P|341:233|412:192,1,175,0|0,0:0|0:0,0:0:0:0:
512,34,141396,2,0,P|388:42|317:1,1,175,0|0,0:0|0:0,0:0:0:0:
150,33,141674,2,0,P|180:109|177:149,1,70,0|0,0:0|0:0,0:0:0:0:
176,354,141813,1,0,0:0:0:0:
172,298,141882,2,0,P|116:251|74:256,1,70,0|0,0:0|0:0,0:0:0:0:
7,176,142021,1,0,0:0:0:0:
11,120,142090,2,0,P|67:73|109:78,1,70,0|0,0:0|0:0,0:0:0:0:
278,226,142229,86,0,P|205:215|187:198,1,70
7,11,142368,1,0,0:0:0:0:
277,131,142507,2,0,P|338:171|335:289,1,175,0|0,0:0|0:0,0:0:0:0:
383,351,142785,6,0,P|310:380|290:407,1,70
239,384,142924,1,0,0:0:0:0:
223,334,142993,1,0,0:0:0:0:
269,289,143063,1,0,0:0:0:0:
278,226,143132,1,0,0:0:0:0:
297,169,143202,2,0,P|333:143|399:113,1,105.000004005432,0|0,0:0|0:0,0:0:0:0:
444,64,143479,85,0,0:0:0:0:
268,62,143618,1,0,0:0:0:0:
224,214,143757,2,0,P|260:188|380:121,1,140,0|0,0:0|0:0,0:0:0:0:
268,62,144035,5,0,0:0:0:0:
104,97,144174,1,0,0:0:0:0:
170,278,144313,2,0,P|208:234|338:143,1,175,0|0,0:0|0:0,0:0:0:0:
104,97,144590,85,0,0:0:0:0:
5,227,144729,1,0,0:0:0:0:
94,367,144868,2,0,P|251:191|298:152,1,210.000008010865,0|0,0:0|0:0,0:0:0:0:
396,81,145146,5,0,0:0:0:0:
396,81,145424,1,0,0:0:0:0:
512,76,145563,2,0,B|429:102|509:163|367:187,1,140,0|0,0:0|0:0,0:0:0:0:
241,108,145840,2,0,B|199:100|199:100|181:38,1,70,0|0,0:0|0:0,0:0:0:0:
252,28,145979,2,0,P|316:90|282:186,1,140,0|0,0:0|0:0,0:0:0:0:
149,310,146257,1,0,0:0:0:0:
397,254,146396,2,0,P|325:239|314:242,1,52.5000020027161,0|0,0:0|0:0,0:0:0:0:
109,377,146535,2,0,P|70:300|101:248,1,140,0|0,0:0|0:0,0:0:0:0:
121,82,146813,2,0,P|73:154|13:153,1,140,0|0,0:0|0:0,0:0:0:0:
162,196,147090,2,0,P|248:200|277:253,1,140,0|0,0:0|0:0,0:0:0:0:
197,266,147368,1,0,0:0:0:0:
332,19,147507,1,0,0:0:0:0:
199,19,147646,86,0,L|205:39,1,21,0|0,0:0|0:0,0:0:0:0:
224,134,148340,5,0,0:0:0:0:
248,227,148618,1,0,0:0:0:0:
278,332,148896,85,0,0:0:0:0:
278,332,148966,1,0,0:0:0:0:
360,354,149174,37,0,0:0:0:0:
431,325,149266,1,0,0:0:0:0:
437,253,149359,1,0,0:0:0:0:
388,185,149452,53,0,0:0:0:0:
362,135,149521,1,0,0:0:0:0:
377,77,149590,1,0,0:0:0:0:
434,56,149660,1,0,0:0:0:0:
485,74,149729,2,0,P|505:142|479:175,1,105.000004005432,0|0,0:0|0:0,0:0:0:0:
18,221,150007,6,0,L|81:272,1,52.5000020027161,0|0,0:0|0:0,0:0:0:0:
129,300,150146,2,0,L|137:248,1,52.5000020027161,0|0,0:0|0:0,0:0:0:0:
138,162,150285,2,0,L|88:180,1,52.5000020027161,0|0,0:0|0:0,0:0:0:0:
0,357,150424,2,0,L|20:328,1,35,0|0,0:0|0:0,0:0:0:0:
190,92,150702,1,0,0:0:0:0:
494,221,150840,86,0,L|431:272,1,52.5000020027161,0|0,0:0|0:0,0:0:0:0:
383,300,150979,2,0,L|374:248,1,52.5000020027161,0|0,0:0|0:0,0:0:0:0:
374,162,151118,2,0,L|423:180,1,52.5000020027161,0|0,0:0|0:0,0:0:0:0:
512,350,151257,2,0,L|484:316,1,35,0|0,0:0|0:0,0:0:0:0:
316,100,151535,1,0,0:0:0:0:
53,349,151674,69,0,0:0:0:0:
86,331,151928,1,0,0:0:0:0:
121,314,152183,1,0,0:0:0:0:
155,296,152438,1,0,0:0:0:0:
190,279,152692,1,0,0:0:0:0:
225,262,152947,1,0,0:0:0:0:
326,212,153202,2,0,L|320:255,1,35,0|0,0:0|0:0,0:0:0:0:
