osu file format v14

[General]
AudioFilename: audio.mp3
AudioLeadIn: 0
PreviewTime: 44960
Countdown: 0
SampleSet: Soft
StackLeniency: 0.3
Mode: 0
LetterboxInBreaks: 0
WidescreenStoryboard: 1

[Editor]
Bookmarks: 14902,16097,30869,59392,60357,72937,74902,89447,139073,153505,153732,154528,168051,170437
DistanceSpacing: 0.4
BeatDivisor: 12
GridSize: 8
TimelineZoom: 2.700005

[Metadata]
Title:The Fascinating Cat's Eye
TitleUnicode:魅惑のキャッツアイ
Artist:NIWASHI
ArtistUnicode:庭師
Creator:Flask
Version:PaRaDogi's Extra
Source:
Tags:Jazz Blues Electronic Instrumental piano miwaku no featured artist fa mappers' mapper's guild mpg Lince Cosmico ParaDogi Chekito Lince_Cosmico cats cat
BeatmapID:3510579
BeatmapSetID:1710885

[Difficulty]
HPDrainRate:5
CircleSize:5
OverallDifficulty:8.6
ApproachRate:9.4
SliderMultiplier:2.2
SliderTickRate:1

[Events]
//Background and Video events
0,0,"thisisit.jpeg",0,0
//Break Periods
//Storyboard Layer 0 (Background)
//Storyboard Layer 1 (Fail)
//Storyboard Layer 2 (Pass)
//Storyboard Layer 3 (Foreground)
//Storyboard Layer 4 (Overlay)
//Storyboard Sound Samples

[TimingPoints]
1799,454.545454545455,4,2,1,60,1,0
1799,-100,4,2,1,60,0,0
8314,-100,4,2,1,40,0,0
8465,-100,4,2,1,60,0,0
15321,-100,4,2,1,40,0,0
16344,-83.3333333333333,4,2,2,50,0,0
26950,-83.3333333333333,4,2,2,60,0,0
30889,-83.3333333333333,4,2,1,60,0,0
42367,-100,4,2,1,60,0,0
43049,-125,4,2,1,60,0,0
44980,-125,4,2,1,45,0,0
45435,-83.3333333333333,4,2,1,75,0,0
52026,-83.3333333333333,4,2,7,75,0,0
52253,-83.3333333333333,4,2,1,75,0,0
59014,-83.3333333333333,4,2,1,30,0,0
61344,-133.333333333333,4,2,1,45,0,0
61799,-100,4,2,1,60,0,0
68314,-100,4,2,1,40,0,0
68465,-100,4,2,1,60,0,0
69078,454.545454545455,4,2,1,60,1,0
69870,454.545454545455,4,2,1,60,1,0
70892,454.545454545455,4,2,1,60,1,0
75551,-100,4,2,1,50,0,0
75664,-100,4,2,1,45,0,0
75778,-100,4,2,1,40,0,0
75892,-100,4,2,1,35,0,0
76005,-100,4,2,1,25,0,0
76119,-100,4,2,1,20,0,0
76344,-83.3333333333333,4,2,1,60,0,0
76799,-125,4,2,1,60,0,0
80776,-83.3333333333333,4,2,1,60,0,0
81344,-125,4,2,1,60,0,0
90892,-66.6666666666667,4,2,1,70,0,0
93164,-125,4,2,1,70,0,0
94528,-66.6666666666667,4,2,1,70,0,0
96573,-66.6666666666667,4,2,1,60,0,0
96801,-125,4,2,1,60,0,0
97482,-125,4,2,1,50,0,0
97710,-125,4,2,1,40,0,0
98164,-100,4,2,1,60,0,0
100437,-100,4,2,1,65,0,0
100892,-100,4,2,1,70,0,0
101687,-100,4,2,1,80,0,0
102179,-83.3333333333333,4,2,1,80,0,0
102331,-71.4285714285714,4,2,1,80,0,0
102482,-62.5,4,2,1,80,0,0
102634,-55.5555555555556,4,2,1,80,0,0
103619,-83.3333333333333,4,2,1,80,0,0
104982,-83.3333333333333,4,2,1,55,0,0
105437,-83.3333333333333,4,2,1,75,0,0
119017,-83.3333333333333,4,2,1,40,0,0
119376,-83.3333333333333,4,2,1,50,0,0
119452,-83.3333333333333,4,2,1,55,0,0
119528,-83.3333333333333,4,2,1,60,0,0
119604,-83.3333333333333,4,2,1,65,0,0
119679,-83.3333333333333,4,2,1,75,0,0
119831,-83.3333333333333,4,2,1,80,0,0
119982,-71.4285714285714,4,2,1,60,0,0
120210,-71.4285714285714,4,2,1,70,0,0
120437,-71.4285714285714,4,2,1,80,0,0
120892,-71.4285714285714,4,2,1,75,0,0
132710,-62.5,4,2,1,75,0,0
137142,-62.5,4,2,1,55,0,0
137198,-62.5,4,2,1,30,0,0
137255,-62.5,4,2,1,10,0,0
139528,-50,4,2,1,60,0,0
139982,-100,4,2,1,70,0,0
153732,-100,4,2,1,80,0,0
153922,-83.3333333333333,4,2,1,80,0,0
154073,-71.4285714285714,4,2,1,80,0,0
154225,-62.5,4,2,1,80,0,0
154376,-55.5555555555556,4,2,1,80,0,0
154528,-83.3333333333333,4,2,1,80,0,0
168164,-83.3333333333333,4,2,1,60,0,0
170437,-50,4,2,1,90,0,0
170721,-50,4,2,1,5,0,0
170778,-50,4,2,1,90,0,0

[Colours]
Combo1 : 210,113,255
Combo2 : 255,81,199
Combo3 : 109,174,255
Combo4 : 255,137,81
Combo5 : 213,201,35
Combo6 : 48,82,195
Combo7 : 223,31,31
Combo8 : 247,195,195

[HitObjects]
84,121,1799,38,0,P|48:71|36:71,1,55,4|0,3:2|0:0,0:0:0:0:
154,182,2026,1,2,0:0:0:0:
159,161,2139,1,0,0:0:0:0:
170,145,2253,2,0,P|216:107|274:123,1,110,10|0,0:0|0:0,0:0:0:0:
276,28,2594,2,0,B|326:31|345:66|334:83|345:126|431:120,1,165,2|2,3:2|0:0,0:0:0:0:
452,188,3049,1,0,0:0:0:0:
466,202,3162,2,0,P|488:144|497:141,1,55,10|2,0:0|0:0,0:0:0:0:
387,237,3389,2,0,P|347:196|334:196,2,55,2|2|0,0:0|0:0|3:2,0:0:0:0:
302,356,3844,5,2,0:0:0:0:
319,349,3958,1,0,0:0:0:0:
330,335,4071,2,0,P|272:299|216:306,1,110,10|0,0:0|0:0,0:0:0:0:
234,196,4412,2,0,P|172:252|99:292,1,165,2|2,3:2|0:0,0:0:0:0:
174,133,4980,2,0,P|126:88|123:79,1,55,8|2,0:0|0:0,0:0:0:0:
195,35,5208,1,0,0:0:0:0:
94,183,5435,102,0,P|48:218|46:232,1,55,2|0,3:2|0:0,0:0:0:0:
51,105,5662,1,2,0:0:0:0:
41,90,5776,1,0,0:0:0:0:
37,72,5889,2,0,P|77:22|131:32,1,110,10|0,0:0|0:0,0:0:0:0:
131,99,6230,2,0,P|207:131|258:197,1,165,2|2,3:2|0:0,0:0:0:0:
271,76,6685,1,0,0:0:0:0:
282,84,6799,2,0,P|330:44|330:36,1,55,10|2,0:0|0:0,0:0:0:0:
342,156,7026,1,2,0:0:0:0:
354,162,7139,6,0,P|370:225|307:279,1,110,2|0,0:0|0:0,0:0:0:0:
267,272,7480,1,2,0:0:0:0:
408,324,7708,2,0,P|468:284|518:296,1,110,10|0,0:0|0:0,0:0:0:0:
451,203,8049,2,0,P|465:142|517:45,1,165,2|0,3:2|3:2,0:0:0:0:
403,99,8503,1,2,0:0:0:0:
395,85,8617,1,10,0:0:0:0:
256,194,8844,1,2,0:0:0:0:
240,211,8958,1,2,0:0:0:0:
236,237,9071,102,0,P|276:286|290:286,1,55,4|0,3:2|0:0,0:0:0:0:
137,354,9299,2,0,P|194:333|207:343,1,55,2|0,0:0|0:0,0:0:0:0:
102,272,9526,2,0,P|126:259|131:179,1,110,10|0,0:0|0:0,0:0:0:0:
54,204,9867,2,0,P|43:126|2:30,1,165,2|2,3:2|0:0,0:0:0:0:
122,105,10321,1,0,0:0:0:0:
133,89,10435,2,0,P|168:44|194:43,1,55,10|2,0:0|0:0,0:0:0:0:
220,113,10662,6,0,P|278:127|289:142,2,55,2|2|0,0:0|0:0|3:2,0:0:0:0:
236,201,11117,1,2,0:0:0:0:
298,38,11344,2,0,B|334:44|352:30|350:18|356:3|439:-2,1,110,10|0,0:0|0:0,0:0:0:0:
409,90,11685,2,0,P|461:120|455:183,1,110,2|0,3:2|0:0,0:0:0:0:
370,209,12026,2,0,P|408:163|419:167,2,55,2|0|8,0:0|0:0|0:0,0:0:0:0:
444,237,12367,2,0,P|422:273|352:281,1,110,2|0,0:0|0:0,0:0:0:0:
313,346,12708,101,2,3:2:0:0:
203,304,12935,1,2,0:0:0:0:
193,291,13049,1,0,0:0:0:0:
189,273,13162,2,0,P|245:246|282:282,1,110,10|0,0:0|0:0,0:0:0:0:
245,169,13503,2,0,B|304:172|315:130|311:117|293:78|397:61,1,165,2|2,3:2|0:0,0:0:0:0:
423,16,13958,1,0,0:0:0:0:
436,18,14071,1,10,0:0:0:0:
446,26,14185,2,0,P|448:111|409:127,1,110,2|2,0:0|0:0,0:0:0:0:
369,174,14526,5,0,3:2:0:0:
389,194,14639,1,0,0:0:0:0:
401,224,14753,1,2,0:0:0:0:
405,253,14867,1,0,0:0:0:0:
397,282,14980,2,0,P|352:314|304:290,1,110,10|0,0:0|0:0,0:0:0:0:
236,325,15321,2,0,B|228:344|186:351|167:347|143:321|136:301|130:246|183:229|213:240|213:240|240:255|269:242|290:214|279:188|280:157|251:139|190:145|185:184,1,385,2|0,0:3|0:0,0:0:0:0:
16,87,16344,86,0,P|70:160|52:201,1,131.99999597168,4|0,0:0|0:0,0:0:0:0:
140,105,16685,1,2,0:0:0:0:
144,92,16799,2,0,P|182:40|202:38,1,65.9999979858399,8|0,0:0|0:0,0:0:0:0:
257,79,17026,1,2,0:0:0:0:
267,69,17139,2,0,B|317:62|348:123|330:132|347:192|424:175,1,197.99999395752,2|0,3:2|0:0,0:0:0:0:
478,125,17594,1,2,0:0:0:0:
464,113,17708,2,0,P|434:47|439:39,1,65.9999979858399,8|2,0:0|0:0,0:0:0:0:
424,261,17935,2,0,P|355:291|357:309,1,65.9999979858399,2|2,0:0|0:0,0:0:0:0:
327,360,18162,38,0,P|273:310|209:334,1,131.99999597168,2|0,3:2|0:0,0:0:0:0:
153,367,18503,1,2,0:0:0:0:
204,235,18730,1,2,0:0:0:0:
23,155,18958,2,0,P|23:237|85:251,1,131.99999597168,2|0,0:0|0:0,0:0:0:0:
117,202,19299,1,2,0:0:0:0:
4,75,19526,1,8,0:0:0:0:
10,63,19639,2,0,P|85:74|96:125,1,131.99999597168,2|0,0:0|0:0,0:0:0:0:
178,146,19980,70,0,P|240:113|251:120,1,65.9999979858399,2|0,3:2|0:0,0:0:0:0:
251,186,20208,1,2,0:0:0:0:
266,208,20321,2,0,P|242:273|225:274,2,65.9999979858399,2|8|0,0:0|0:0|0:0,0:0:0:0:
364,172,20662,1,2,0:0:0:0:
356,190,20776,2,0,P|421:234|487:162,1,131.99999597168,2|0,3:2|0:0,0:0:0:0:
512,106,21230,1,2,0:0:0:0:
501,87,21344,1,8,0:0:0:0:
482,81,21458,1,2,0:0:0:0:
461,83,21571,2,0,P|442:155|451:159,1,65.9999979858399,2|2,0:0|0:0,0:0:0:0:
373,42,21799,38,0,P|295:42|271:-10,1,131.99999597168,2|2,3:2|0:0,0:0:0:0:
236,106,22139,2,0,P|163:90|158:96,1,65.9999979858399,0|8,0:0|0:0,0:0:0:0:
191,1,22367,1,2,0:0:0:0:
60,134,22594,2,0,P|103:78|72:24,1,131.99999597168,2|0,0:0|3:0,0:0:0:0:
166,162,23049,1,2,0:0:0:0:
154,171,23162,2,0,P|176:236|192:314,1,131.99999597168,8|0,0:0|0:0,0:0:0:0:
358,171,23617,70,0,P|336:236|320:314,1,131.99999597168,4|0,3:2|0:0,0:0:0:0:
411,287,23958,2,0,P|437:351|454:362,1,65.9999979858399,2|8,0:0|0:0,0:0:0:0:
499,264,24185,1,0,0:0:0:0:
485,252,24299,1,2,0:0:0:0:
476,236,24412,2,0,P|488:154|517:106,1,131.99999597168,2|0,3:2|0:0,0:0:0:0:
473,50,24753,1,0,0:0:0:0:
293,12,24980,37,8,0:0:0:0:
258,10,25094,1,2,0:0:0:0:
233,29,25208,1,2,0:0:0:0:
228,64,25321,1,2,0:0:0:0:
242,94,25435,2,0,P|300:44|286:25,1,65.9999979858399,2|0,3:2|0:0,0:0:0:0:
179,169,25662,1,2,0:0:0:0:
199,164,25776,2,0,P|240:220|228:235,1,65.9999979858399,2|8,0:0|0:0,0:0:0:0:
180,244,26003,1,2,0:0:0:0:
279,369,26230,1,2,0:0:0:0:
180,244,26799,69,10,0:0:0:0:
58,193,26950,1,2,0:0:0:0:
129,201,27102,2,0,P|154:134|183:117,1,87.9999973144532
124,67,27367,38,0,B|87:75|73:95|77:106|72:140|-20:137,2,131.99999597168,2|2|2,0:0|0:0|0:0,0:0:0:0:
210,194,28049,69,2,0:0:0:0:
315,128,28276,37,2,0:0:0:0:
382,179,28503,69,2,0:0:0:0:
423,161,28730,37,2,0:0:0:0:
456,169,28958,70,0,P|385:143|340:26,1,197.99999395752,2|0,0:0|3:0,0:0:0:0:
192,0,29526,1,10,0:0:0:0:
207,4,29639,2,0,P|222:82|209:97,1,65.9999979858399,2|0,0:0|0:0,0:0:0:0:
171,112,29867,1,2,0:0:0:0:
49,361,30662,5,0,3:0:0:0:
44,352,30738,5,0,3:0:0:0:
35,344,30814,101,0,3:0:0:0:
28,315,30889,6,0,P|82:273|153:296,1,131.99999597168,4|0,3:2|0:0,0:0:0:0:
160,358,31230,2,0,P|218:315|208:253,1,131.99999597168,2|0,0:0|0:0,0:0:0:0:
286,234,31571,1,2,0:0:0:0:
293,219,31685,2,0,P|355:183|404:226,1,131.99999597168,2|0,3:2|0:0,0:0:0:0:
495,92,32139,1,2,0:0:0:0:
485,79,32253,2,0,P|452:14|453:10,1,65.9999979858399,8|2,0:0|0:0,0:0:0:0:
388,89,32480,2,0,P|311:74|302:87,1,65.9999979858399,2|2,0:0|0:0,0:0:0:0:
277,12,32708,102,0,B|246:44|254:71|265:79|269:108|214:144,1,131.99999597168,2|2,3:2|0:0,0:0:0:0:
158,133,33049,1,2,0:0:0:0:
319,148,33276,1,2,0:0:0:0:
173,51,33503,1,2,0:0:0:0:
166,35,33617,1,0,3:2:0:0:
130,14,33731,1,0,0:0:0:0:
70,54,33844,6,0,L|28:40,1,32.99999899292
93,121,33958,101,2,0:0:0:0:
89,132,34033,1,2,0:0:0:0:
90,146,34109,1,2,0:0:0:0:
95,158,34185,1,2,0:0:0:0:
158,133,34299,1,0,0:0:0:0:
16,317,34526,6,0,P|64:238|101:240,1,131.99999597168
156,216,34867,1,2,0:0:0:0:
167,207,34980,2,0,P|229:254|273:229,1,131.99999597168,8|0,0:0|0:0,0:0:0:0:
268,115,35321,1,2,3:2:0:0:
340,31,35549,1,0,0:0:0:0:
364,15,35662,1,0,0:0:0:0:
396,19,35776,1,2,0:0:0:0:
415,44,35889,101,8,0:0:0:0:
415,48,35965,5,2,0:0:0:0:
415,52,36041,101,2,0:0:0:0:
418,63,36117,6,0,P|398:136|397:152,1,65.9999979858399,2|0,0:0|0:0,0:0:0:0:
320,157,36344,102,0,P|353:226|368:301,1,131.99999597168,2|0,3:2|0:0,0:0:0:0:
341,353,36685,1,2,0:0:0:0:
187,274,36912,1,2,0:0:0:0:
86,355,37139,6,0,P|49:290|11:255,1,65.9999979858399,2|0,0:0|3:0,0:0:0:0:
110,240,37367,2,0,P|129:177|147:157,1,65.9999979858399,2|2,0:0|0:0,0:0:0:0:
73,127,37594,1,2,0:0:0:0:
188,10,37821,1,0,0:0:0:0:
171,0,37935,1,2,0:3:0:0:
241,65,38162,102,0,P|294:40|380:16,1,131.99999597168,4|0,3:2|0:0,0:0:0:0:
440,54,38503,1,2,0:0:0:0:
451,62,38617,1,8,0:0:0:0:
369,133,38844,1,2,0:0:0:0:
385,123,38958,2,0,P|421:190|427:252,1,131.99999597168,2|0,3:2|0:0,0:0:0:0:
389,347,39412,1,2,0:0:0:0:
369,328,39526,2,0,P|301:299|281:296,1,65.9999979858399,8|2,0:0|0:0,0:0:0:0:
262,228,39753,2,0,P|187:269|173:272,1,65.9999979858399,2|2,0:0|0:0,0:0:0:0:
159,380,39980,6,0,P|129:292|102:250,1,131.99999597168,2|2,3:2|0:0,0:0:0:0:
38,231,40321,1,2,0:0:0:0:
95,98,40549,1,2,0:0:0:0:
254,132,40776,2,0,B|284:80|337:95|344:113|348:131|405:151|455:73,1,197.99999395752,2|0,0:0|0:0,0:0:0:0:
281,29,41344,101,2,0:0:0:0:
173,122,41495,5,2,0:0:0:0:
246,366,41685,102,0,P|261:290|300:221,2,131.99999597168,4|0|8,3:2|0:0|0:0,0:0:0:0:
213,221,42367,6,0,P|199:161|164:113,2,110,8|4|2,0:0|0:0|0:0,0:0:0:0:
241,77,43049,1,0,0:0:0:0:
254,63,43162,101,0,3:0:0:0:
255,60,43238,5,0,3:0:0:0:
254,57,43314,101,4,3:0:0:0:
253,54,43389,5,0,0:0:0:0:
170,13,43503,102,0,P|112:52|80:66,1,88,6|0,0:0|0:0,0:0:0:0:
21,33,43844,1,2,0:0:0:0:
172,121,44071,1,6,0:0:0:0:
148,133,44185,2,0,P|170:194|170:206,1,44,2|0,0:0|0:0,0:0:0:0:
132,241,44412,1,8,0:0:0:0:
419,362,44980,69,2,0:0:0:0:
434,340,45094,1,2,0:0:0:0:
422,317,45208,1,2,0:0:0:0:
437,294,45321,1,2,0:0:0:0:
390,227,45435,6,0,P|317:194|304:185,1,65.9999979858399,4|0,3:2|0:0,0:0:0:0:
245,85,45662,2,0,P|182:117|169:129,1,65.9999979858399,2|0,0:3|0:0,0:0:0:0:
17,164,45889,2,0,P|83:194|160:305,1,197.99999395752,10|0,0:0|0:0,0:0:0:0:
223,365,46344,1,2,3:2:0:0:
240,328,46458,1,2,0:0:0:0:
390,227,46685,2,0,P|353:150|343:87,1,131.99999597168,2|0,0:0|0:0,0:0:0:0:
276,66,47026,2,0,P|306:4|310:-11,1,65.9999979858399,2|2,0:3|0:0,0:0:0:0:
168,85,47253,101,2,3:2:0:0:
155,96,47367,2,0,P|189:173|192:188,1,65.9999979858399,2|2,0:0|0:3,0:0:0:0:
254,263,47594,2,0,P|238:348|238:369,2,65.9999979858399,2|8|2,0:0|0:0|0:0,0:0:0:0:
362,187,48049,2,0,P|393:116|427:65,1,131.99999597168,2|0,0:0|0:0,0:0:0:0:
465,151,48389,2,0,P|521:107|539:94,1,65.9999979858399,2|0,0:3|0:0,0:0:0:0:
441,317,48617,1,10,0:0:0:0:
428,302,48730,1,2,0:0:0:0:
382,293,48844,1,2,0:3:0:0:
338,364,48958,6,0,P|259:366|241:307,1,131.99999597168,4|0,3:2|0:0,0:0:0:0:
147,247,49299,1,2,0:3:0:0:
126,233,49412,2,0,P|63:274|61:293,2,65.9999979858399,0|8|2,0:0|0:0|0:0,0:0:0:0:
212,153,49753,1,2,0:3:0:0:
200,138,49867,2,0,P|212:67|233:6,1,131.99999597168,6|0,0:0|0:0,0:0:0:0:
133,53,50208,2,0,P|89:-13|79:-21,1,65.9999979858399,2|0,0:3|0:0,0:0:0:0:
47,69,50435,101,10,0:0:0:0:
230,235,50586,5,2,0:0:0:0:
51,376,50776,102,0,P|10:305|-5:297,1,65.9999979858399,6|0,0:0|3:2,0:0:0:0:
81,255,51003,2,0,P|99:175|135:122,2,131.99999597168,2|2|2,0:0|0:0|0:0,0:0:0:0:
198,384,51685,2,0,P|238:326|310:293,1,131.99999597168,2|0,3:2|0:0,0:0:0:0:
348,229,52026,5,8,0:3:0:0:
372,246,52139,1,8,0:3:0:0:
391,302,52253,1,8,0:0:0:0:
342,370,52367,1,2,0:0:0:0:
244,226,52594,102,0,P|233:144|169:36,1,197.99999395752,6|2,3:2|0:3,0:0:0:0:
310,89,53162,1,8,0:2:0:0:
299,74,53276,2,0,P|342:22|361:17,1,65.9999979858399,2|2,0:0|0:3,0:0:0:0:
142,163,53503,2,0,B|79:158|58:123|80:89|53:58|-22:49,1,197.99999395752,4|2,0:0|0:3,0:0:0:0:
42,213,54071,1,8,0:0:0:0:
145,368,54299,1,2,0:0:0:0:
160,350,54412,1,2,0:0:0:0:
213,328,54526,6,0,P|277:346|341:388,1,131.99999597168,2|0,3:2|0:0,0:0:0:0:
438,268,54867,101,4,0:0:0:0:
177,80,55132,5,2,3:2:0:0:
458,3,55321,102,0,P|454:88|410:102,1,131.99999597168,6|0,0:0|0:0,0:0:0:0:
369,41,55662,1,2,0:3:0:0:
142,155,55889,1,8,0:0:0:0:
156,170,56003,1,8,0:0:0:0:
161,193,56117,1,8,0:0:0:0:
297,364,56344,6,0,P|348:320|374:312,1,65.9999979858399,6|0,3:2|0:0,0:0:0:0:
370,216,56571,2,0,P|446:240|462:254,1,65.9999979858399,2|0,0:3|0:0,0:0:0:0:
424,359,56799,2,0,P|460:266|499:172,1,197.99999395752,10|0,0:0|0:0,0:0:0:0:
434,130,57253,102,0,P|389:43|374:36,1,87.9999973144532,2|2,3:2|0:0,0:0:0:0:
257,110,57594,6,0,P|200:77|186:75,1,65.9999979858399,2|8,0:0|0:0,0:0:0:0:
16,8,58011,101,2,0:0:0:0:
17,11,58086,5,2,0:0:0:0:
18,15,58162,101,2,3:2:0:0:
42,44,58276,1,2,0:0:0:0:
21,104,58389,1,2,0:0:0:0:
73,168,58503,1,2,3:3:0:0:
229,54,58730,1,2,3:3:0:0:
141,333,58958,6,0,P|201:195|244:145,1,197.99999395752,2|0,0:0|0:0,0:0:0:0:
291,110,59450,6,0,P|326:135|343:145,2,43.9999986572266,2|2|2,3:3|3:3|3:3,0:0:0:0:
256,192,59639,12,0,60889,0:0:0:0:
42,95,61344,38,0,L|30:66,3,27.5000010490418,2|2|2|2,0:0|0:0|0:0|0:0,0:0:0:0:
106,162,61799,86,0,P|134:103|154:88,1,55,4|0,3:2|0:0,0:0:0:0:
70,242,62026,1,2,0:0:0:0:
47,219,62139,1,0,0:0:0:0:
12,216,62253,2,0,P|-16:264|18:306,1,110,10|0,0:0|0:0,0:0:0:0:
57,367,62594,2,0,B|108:365|122:328|105:309|115:271|198:250,1,165,2|2,3:2|0:0,0:0:0:0:
232,295,63049,1,0,0:0:0:0:
237,307,63162,2,0,P|294:331|309:340,1,55,10|2,0:0|0:0,0:0:0:0:
300,253,63389,2,0,P|369:223|390:217,1,55,2|2,0:0|0:0,0:0:0:0:
373,302,63617,6,0,P|431:320|500:356,1,110,0|2,3:2|0:0,0:0:0:0:
429,237,63958,1,0,0:0:0:0:
442,227,64071,2,0,B|471:200|462:175|454:170|445:149|480:101,1,110,10|0,0:0|0:0,0:0:0:0:
386,126,64412,2,0,P|356:74|314:48,1,110,2|0,3:2|0:0,0:0:0:0:
297,126,64753,1,2,0:0:0:0:
306,143,64867,1,0,0:0:0:0:
293,175,64980,1,8,0:0:0:0:
218,184,65094,2,0,P|189:124|223:104,1,110,2|0,0:0|0:0,0:0:0:0:
170,45,65435,101,2,3:2:0:0:
55,150,65662,1,2,0:0:0:0:
31,134,65776,1,0,0:0:0:0:
23,107,65889,2,0,P|63:66|82:151,1,165,10|2,0:0|3:2,0:0:0:0:
45,188,66344,2,0,P|82:247|98:288,1,110,0|2,0:0|0:0,0:0:0:0:
76,353,66685,1,0,0:0:0:0:
87,366,66799,1,10,0:0:0:0:
154,335,66912,2,0,P|211:306|229:301,2,55,2|2|2,0:0|0:0|0:0,0:0:0:0:
164,247,67253,5,0,3:2:0:0:
259,356,67480,2,0,P|315:370|339:380,1,55,2|0,0:0|0:0,0:0:0:0:
320,295,67708,2,0,B|355:303|376:279|373:272|379:245|456:248,1,110,10|0,0:0|0:0,0:0:0:0:
480,283,68049,1,2,3:2:0:0:
434,184,68238,101,0,0:0:0:0:
434,180,68314,5,0,3:2:0:0:
434,176,68389,101,0,3:2:0:0:
379,126,68503,5,2,0:0:0:0:
385,117,68617,2,0,P|409:63|426:47,1,55,10|2,0:0|0:0,0:0:0:0:
328,55,68844,2,0,P|347:-4|362:-13,1,55,2|2,0:0|0:0,0:0:0:0:
264,99,69078,2,0,P|213:49|170:21,1,110,6|2,3:2|3:2,0:0:0:0:
111,37,69381,101,0,0:0:0:0:
103,47,69456,5,0,0:0:0:0:
102,59,69532,101,2,3:2:0:0:
8,137,69759,1,0,0:0:0:0:
7,156,69870,2,0,P|47:194|38:111,1,165,6|2,3:2|0:0,0:0:0:0:
172,116,70438,2,0,P|186:170|199:184,1,55,10|2,0:0|0:0,0:0:0:0:
138,225,70665,6,0,P|121:279|110:294,2,55,2|2|0,0:0|0:0|3:2,0:0:0:0:
249,122,71119,2,0,P|305:105|325:108,1,55,2|0,0:0|0:0,0:0:0:0:
316,27,71346,2,0,P|357:55|413:82,1,110,10|0,0:0|0:0,0:0:0:0:
444,148,71687,2,0,P|499:121|482:78,1,110,2|0,3:2|0:0,0:0:0:0:
417,77,72028,1,2,0:0:0:0:
492,220,72255,1,8,0:0:0:0:
484,223,72369,2,0,P|454:284|440:338,1,110,2|0,0:0|0:0,0:0:0:0:
496,377,72710,101,2,3:2:0:0:
383,245,72937,1,2,0:0:0:0:
366,231,73051,1,0,0:0:0:0:
348,241,73164,2,0,P|330:303|401:263,1,110,10|0,0:0|0:0,0:0:0:0:
264,384,73505,2,0,P|266:340|202:370,1,110,2|0,3:2|0:0,0:0:0:0:
148,381,73846,2,0,P|115:329|107:325,1,55,2|0,0:0|0:0,0:0:0:0:
165,274,74073,1,10,0:0:0:0:
175,260,74187,2,0,P|200:212|209:201,1,55,2|2,0:0|0:0,0:0:0:0:
81,184,74414,1,2,0:0:0:0:
68,181,74528,5,0,3:2:0:0:
49,154,74642,1,0,0:0:0:0:
75,107,74755,1,2,0:0:0:0:
126,118,74869,1,0,0:0:0:0:
157,188,74982,2,0,P|195:159|260:135,1,110,10|0,0:0|0:0,0:0:0:0:
297,80,75323,1,0,0:0:0:0:
304,66,75437,2,0,P|352:104|370:111,1,55,2|2,0:0|0:0,0:0:0:0:
324,168,75664,2,0,P|360:221|373:234,1,55,2|2,0:0|0:0,0:0:0:0:
334,284,75891,1,2,0:0:0:0:
329,296,76005,1,2,0:0:0:0:
383,348,76119,1,2,0:0:0:0:
388,358,76232,1,2,0:0:0:0:
463,334,76346,86,0,P|490:188|496:168,1,131.99999597168,4|0,0:0|0:0,0:0:0:0:
443,145,76687,1,2,0:0:0:0:
452,135,76801,1,8,0:0:0:0:
370,37,77141,1,0,3:0:0:0:
365,45,77255,2,0,P|299:13|291:12,1,44,2|0,3:2|0:0,0:0:0:0:
251,98,77482,2,0,P|299:85|308:80,2,44,0|2|8,0:0|0:0|0:0,0:0:0:0:
215,171,77937,1,0,0:0:0:0:
182,49,78164,38,0,P|204:9|208:-11,2,44,2|2|2,3:2|0:0|0:0,0:0:0:0:
91,80,78619,1,8,0:0:0:0:
99,69,78732,1,2,0:0:0:0:
92,57,78846,1,2,0:0:0:0:
26,101,78960,1,2,3:2:0:0:
16,109,79073,2,0,P|51:164|51:179,1,44,0|2,3:0|0:0,0:0:0:0:
100,200,79301,2,0,P|73:255|66:284,1,88,2|8,0:0|0:0,0:0:0:0:
12,328,79641,1,2,0:0:0:0:
124,373,79869,1,2,0:2:0:0:
136,355,79982,70,0,P|176:321|213:348,1,88,0|0,3:0|0:0,0:0:0:0:
266,298,80323,1,2,2:0:0:0:
270,306,80437,2,0,P|314:333|325:331,2,44,10|0|0,2:0|2:0|2:0,0:0:0:0:
218,238,80778,2,0,P|232:206|242:169,1,65.9999979858399,2|0,3:3|0:0,0:0:0:0:
162,176,81005,2,0,P|115:48|104:31,1,131.99999597168,2|0,0:0|0:0,0:0:0:0:
190,39,81346,2,0,P|216:-2|225:-9,2,44,8|2|2,0:0|0:0|0:0,0:0:0:0:
266,52,81687,1,2,0:0:0:0:
271,61,81801,38,0,P|325:39|375:34,1,88,2|0,3:2|0:0,0:0:0:0:
416,5,82104,69,0,0:0:0:0:
421,0,82179,37,0,0:0:0:0:
431,0,82255,70,0,P|468:38|407:64,1,132,10|0,0:0|0:0,0:0:0:0:
364,150,82710,2,0,P|347:103|336:91,2,44,2|2|2,3:2|0:0|0:0,0:0:0:0:
421,197,83051,1,2,0:0:0:0:
415,204,83164,2,0,P|389:258|373:303,1,88,8|2,0:0|0:0,0:0:0:0:
333,337,83467,37,0,0:0:0:0:
337,345,83543,69,0,0:0:0:0:
338,354,83619,38,0,P|288:371|281:365,2,44,4|2|2,0:0|0:0|0:0,0:0:0:0:
250,326,83960,1,0,0:0:0:0:
241,333,84073,2,0,P|205:300|213:269,1,44,10|2,0:0|0:0,0:0:0:0:
155,367,84301,1,2,0:0:0:0:
139,369,84414,2,0,P|118:307|85:301,1,88,2|2,0:0|0:0,0:0:0:0:
30,360,84755,2,0,P|28:306|16:284,1,44,0|2,0:0|0:0,0:0:0:0:
77,216,84982,2,0,P|38:248|33:248,2,44,8|2|2,0:0|0:0|0:0,0:0:0:0:
151,234,85323,1,2,0:0:0:0:
156,218,85437,70,0,B|190:230|213:208|212:188|218:167|289:168,1,132,2|0,3:2|0:0,0:0:0:0:
315,115,85891,1,10,0:0:0:0:
325,106,86005,2,0,P|356:161|327:176,1,88,0|0,0:0|3:2,0:0:0:0:
314,230,86346,1,2,3:2:0:0:
319,239,86460,1,0,0:0:0:0:
272,299,86573,1,2,0:0:0:0:
266,321,86687,1,0,0:0:0:0:
209,375,86801,1,8,0:0:0:0:
167,363,86914,1,2,0:0:0:0:
113,302,87028,1,2,0:0:0:0:
48,333,87141,1,2,0:0:0:0:
3,264,87255,38,0,P|-2:214|45:190,1,88,2|0,3:2|0:0,0:0:0:0:
21,124,87596,1,2,0:0:0:0:
28,112,87710,2,0,P|35:71|12:67,1,44,8|2,0:0|0:0,0:0:0:0:
92,156,87937,1,2,0:0:0:0:
100,167,88051,1,2,0:3:0:0:
130,70,88278,69,2,0:0:0:0:
130,65,88316,38,0,L|166:82,1,29.3333333333333,2|0,0:3|0:0,0:0:0:0:
179,147,88505,1,0,0:0:0:0:
188,152,88619,2,0,P|233:106|256:101,2,58.6666666666667,10|2|2,0:0|0:3|0:0,0:0:0:0:
255,33,89187,70,0,P|299:75|376:81,1,132,2|8,0:0|0:0,0:0:0:0:
404,29,89642,1,2,0:0:0:0:
292,148,89869,1,2,0:3:0:0:
395,305,90096,54,0,L|385:351,1,44,2|2,0:0|0:0,0:0:0:0:
417,295,90285,5,2,0:0:0:0:
424,274,90361,101,2,0:0:0:0:
420,245,90437,5,2,0:0:0:0:
395,218,90513,101,2,0:0:0:0:
352,198,90588,5,2,0:0:0:0:
326,161,90664,101,2,3:2:0:0:
339,112,90740,5,2,3:2:0:0:
372,73,90816,101,2,3:2:0:0:
437,82,90892,70,0,P|483:95|491:117,1,41.2500015735627,4|0,0:0|0:0,0:0:0:0:
476,87,91005,2,0,B|423:108|390:84|395:56|381:21|297:37,1,165.000006294251,2|0,0:3|0:0,0:0:0:0:
290,114,91346,6,0,P|337:110|352:128,1,41.2500015735627,8|0,0:0|0:0,0:0:0:0:
328,106,91459,2,0,B|285:143|245:131|240:103|215:75|142:119,1,165.000006294251,2|0,0:3|0:0,0:0:0:0:
170,191,91801,102,0,P|213:171|233:183,1,41.2500015735627,2|0,0:3|0:0,0:0:0:0:
202,170,91914,2,0,B|174:219|133:222|119:197|86:179|32:246,1,165.000006294251,2|0,0:3|0:0,0:0:0:0:
84,305,92255,6,0,P|118:271|141:275,1,41.2500015735627,10|0,0:0|0:0,0:0:0:0:
108,274,92368,2,0,B|95:311|73:321|61:312|22:316|11:374,1,123.750004720688,2|0,0:3|0:0,0:0:0:0:
18,351,92596,102,0,B|50:390|99:377|100:348|132:339|194:373,1,165.000006294251,2|0,0:0|0:0,0:0:0:0:
184,295,92937,1,2,0:0:0:0:
313,381,93164,5,8,0:0:0:0:
301,369,93278,2,0,P|311:311|320:311,1,44,2|0,0:0|0:0,0:0:0:0:
254,271,93505,1,0,0:0:0:0:
268,264,93619,1,2,0:0:0:0:
289,243,93732,1,2,0:0:0:0:
291,200,93846,1,2,0:0:0:0:
248,157,93960,1,2,0:0:0:0:
200,113,94073,1,0,3:0:0:0:
130,120,94187,1,0,3:0:0:0:
102,189,94301,1,8,3:2:0:0:
146,245,94414,1,8,3:2:0:0:
214,262,94528,102,0,L|232:211,1,41.2500015735627,6|0,0:2|0:0,0:0:0:0:
227,223,94642,2,0,L|262:395,1,165.000006294251,2|0,0:3|0:0,0:0:0:0:
299,234,94982,6,0,L|317:183,1,41.2500015735627,10|0,0:0|0:0,0:0:0:0:
312,195,95096,2,0,L|347:367,1,165.000006294251,2|0,0:3|0:0,0:0:0:0:
384,208,95437,102,0,L|402:157,1,41.2500015735627,2|0,0:3|0:0,0:0:0:0:
397,169,95551,2,0,L|432:341,1,165.000006294251,2|0,0:3|0:0,0:0:0:0:
466,173,95891,6,0,L|484:122,1,41.2500015735627,10|0,0:0|0:0,0:0:0:0:
480,135,96005,2,0,L|514:287,1,123.750004720688,2|0,0:3|0:0,0:0:0:0:
507,255,96232,102,0,P|486:306|424:247,1,165.000006294251,2|0,0:0|0:0,0:0:0:0:
380,203,96573,1,2,0:0:0:0:
344,356,96801,2,0,P|310:320|296:317,1,44,8|2,0:0|0:0,0:0:0:0:
238,272,97028,5,0,3:0:0:0:
250,271,97104,101,0,3:0:0:0:
259,278,97179,5,0,3:0:0:0:
263,286,97255,101,2,3:2:0:0:
240,319,97369,1,2,0:0:0:0:
193,331,97482,1,2,0:0:0:0:
156,298,97596,1,2,0:0:0:0:
149,260,97710,1,0,0:0:0:0:
168,231,97823,1,2,0:0:0:0:
187,214,97937,1,10,0:0:0:0:
196,197,98051,1,10,0:0:0:0:
186,153,98164,6,0,P|133:137|117:184,1,110,4|0,3:2|0:0,0:0:0:0:
62,227,98505,1,0,0:0:0:0:
54,238,98619,2,0,P|38:177|11:133,1,110,10|0,0:0|0:0,0:0:0:0:
51,74,98960,1,0,0:0:0:0:
59,66,99073,2,0,P|94:21|110:14,1,55,2|0,3:2|0:0,0:0:0:0:
134,82,99301,1,0,0:2:0:0:
145,73,99414,1,0,0:0:0:0:
186,131,99528,2,0,P|242:110|273:117,1,55,10|0,0:0|0:0,0:0:0:0:
337,5,99755,101,2,0:0:0:0:
328,11,99831,5,2,0:0:0:0:
333,24,99907,101,2,0:0:0:0:
346,26,99982,6,0,P|353:82|372:118,1,55,4|0,3:2|0:0,0:0:0:0:
473,170,100210,101,2,0:0:0:0:
472,159,100286,5,2,0:0:0:0:
458,157,100362,101,2,0:0:0:0:
450,167,100437,6,0,P|398:145|357:143,1,55,12|0,0:0|0:0,0:0:0:0:
260,202,100664,101,2,0:0:0:0:
270,206,100740,5,2,0:0:0:0:
278,195,100816,101,2,0:0:0:0:
274,183,100892,6,0,P|318:148|340:114,1,55,4|2,0:0|3:2,0:0:0:0:
454,10,101119,101,2,3:2:0:0:
467,12,101195,5,0,0:0:0:0:
472,26,101270,101,0,0:0:0:0:
468,44,101346,5,8,0:0:0:0:
411,83,101460,1,8,0:0:0:0:
459,149,101573,1,8,0:0:0:0:
399,255,101687,2,0,B|426:307|426:307|357:365,1,110,4|0,3:2|0:0,0:0:0:0:
288,381,102028,102,0,L|297:352,2,18.3333333333333,2|0|2,0:0|0:0|0:0,0:0:0:0:
229,337,102179,6,0,L|217:301,2,21.9999993286133,2|0|2,0:0|0:0|0:2,0:0:0:0:
156,308,102331,102,0,L|164:270,2,25.6666658833822,2|0|2,0:0|0:0|0:0,0:0:0:0:
93,279,102482,6,0,L|82:252,2,29.3333333333333,2|0|2,0:0|0:0|0:0,0:0:0:0:
16,246,102634,102,0,L|28:212,2,32.99999899292,2|0|2,0:0|0:0|0:0,0:0:0:0:
73,160,102785,6,0,L|185:187,2,98.9999969787599
93,92,103088,101,0,0:0:0:0:
80,89,103164,5,2,3:2:0:0:
72,80,103240,101,0,3:0:0:0:
76,69,103316,5,2,3:2:0:0:
84,62,103392,101,0,3:0:0:0:
157,80,103505,1,0,3:0:0:0:
211,34,103619,1,4,3:2:0:0:
291,92,103770,5,0,0:0:0:0:
268,184,103960,101,0,0:0:0:0:
283,173,104073,6,0,L|329:183,1,32.99999899292
361,232,104187,101,2,0:0:0:0:
392,198,104301,1,2,0:0:0:0:
426,196,104414,2,0,P|493:220|505:220,1,65.9999979858399,10|2,0:2|0:0,0:0:0:0:
373,132,104642,1,2,0:0:0:0:
310,356,104982,69,2,0:0:0:0:
293,365,105096,1,2,0:0:0:0:
266,361,105210,1,2,0:0:0:0:
250,334,105323,1,2,0:0:0:0:
272,267,105437,6,0,P|301:205|316:185,1,65.9999979858399,4|0,3:2|0:0,0:0:0:0:
147,108,105664,2,0,P|180:171|186:198,1,65.9999979858399,2|0,0:3|0:0,0:0:0:0:
455,206,105892,2,0,B|388:218|363:183|371:163|349:117|268:133,1,197.99999395752,10|0,0:0|0:0,0:0:0:0:
226,87,106346,1,2,3:2:0:0:
219,67,106460,1,2,0:0:0:0:
95,173,106687,2,0,P|27:125|50:88,1,131.99999597168,2|0,0:0|0:0,0:0:0:0:
46,26,107028,2,0,P|98:52|98:70,1,65.9999979858399,2|2,0:3|0:0,0:0:0:0:
144,227,107255,101,2,3:2:0:0:
138,241,107369,1,2,0:0:0:0:
287,382,107596,2,0,P|226:354|200:346,2,65.9999979858399,2|8|2,0:0|0:0|0:0,0:0:0:0:
429,321,107937,1,2,0:3:0:0:
423,335,108051,2,0,P|361:306|361:244,1,131.99999597168,2|0,0:0|0:0,0:0:0:0:
429,248,108392,1,2,0:3:0:0:
434,236,108505,1,0,0:0:0:0:
464,210,108619,1,10,0:0:0:0:
505,180,108732,1,2,0:0:0:0:
508,116,108846,1,2,0:3:0:0:
447,75,108960,6,0,P|382:68|304:49,1,131.99999597168,4|0,3:2|0:0,0:0:0:0:
277,0,109301,2,0,P|252:57|262:67,1,65.9999979858399,2|0,0:3|0:0,0:0:0:0:
291,197,109528,1,8,0:0:0:0:
284,219,109642,1,2,0:0:0:0:
245,250,109755,1,2,0:3:0:0:
175,227,109869,2,0,P|173:160|224:189,1,131.99999597168,6|0,0:0|0:0,0:0:0:0:
186,299,110210,102,0,P|214:359|213:374,2,65.9999979858399,2|0|10,0:3|0:0|0:0,0:0:0:0:
139,358,110588,5,2,0:0:0:0:
215,169,110778,101,6,0:0:0:0:
129,3,111005,5,2,0:0:0:0:
29,218,111232,102,0,P|110:150|120:148,1,65.9999979858399,2|8,0:0|0:0,0:0:0:0:
202,62,111460,2,0,P|278:55|301:60,1,65.9999979858399,2|2,0:0|0:3,0:0:0:0:
413,93,111687,5,2,3:2:0:0:
428,93,111801,1,0,0:0:0:0:
460,117,111914,1,0,0:0:0:0:
463,175,112028,1,8,0:3:0:0:
411,224,112142,1,8,0:3:0:0:
343,265,112255,1,8,0:0:0:0:
336,278,112369,2,0,P|361:347|373:363,1,65.9999979858399,2|2,0:0|0:3,0:0:0:0:
252,154,112596,102,0,P|236:241|218:302,1,131.99999597168,6|0,3:2|0:0,0:0:0:0:
206,353,112937,2,0,P|175:288|186:283,1,65.9999979858399,2|0,0:3|0:0,0:0:0:0:
90,152,113164,1,8,0:2:0:0:
76,155,113278,2,0,P|56:235|60:256,1,65.9999979858399,2|2,0:0|0:3,0:0:0:0:
49,369,113505,2,0,B|91:353|90:319|80:309|75:283|132:247,1,131.99999597168,4|0,0:0|0:0,0:0:0:0:
146,197,113846,1,2,0:3:0:0:
25,102,114073,1,8,0:0:0:0:
187,4,114301,1,2,0:0:0:0:
206,0,114414,1,2,0:0:0:0:
223,7,114528,5,2,3:2:0:0:
184,93,114679,101,0,3:2:0:0:
276,219,114869,5,4,0:0:0:0:
271,234,114982,1,8,0:0:0:0:
299,128,115134,101,2,3:2:0:0:
430,111,115323,2,0,B|384:121|364:93|369:83|359:52|281:52,1,131.99999597168,6|0,0:0|0:0,0:0:0:0:
227,80,115664,1,2,0:3:0:0:
361,250,115892,1,8,0:0:0:0:
380,238,116005,1,8,0:0:0:0:
381,217,116119,2,0,P|319:197|317:207,1,65.9999979858399,8|0,0:0|0:0,0:0:0:0:
163,268,116346,6,0,P|240:241|295:231,1,131.99999597168,6|2,3:2|0:3,0:0:0:0:
404,354,116801,2,0,P|448:363|401:316,1,131.99999597168,10|2,0:0|0:3,0:0:0:0:
320,322,117142,1,0,0:0:0:0:
291,258,117255,102,0,P|246:271|236:290,1,43.9999986572266
218,266,117407,6,0,P|199:319|211:332,1,43.9999986572266
235,370,117596,102,0,P|187:329|116:364,1,131.99999597168,2|0,0:0|0:0,0:0:0:0:
42,370,117937,5,2,0:3:0:0:
47,363,118013,101,2,0:0:0:0:
44,357,118088,5,2,0:0:0:0:
37,350,118164,101,2,3:2:0:0:
2,322,118278,1,2,0:0:0:0:
13,264,118392,1,2,0:0:0:0:
72,225,118505,2,0,P|100:288|110:304,1,65.9999979858399,2|0,3:3|0:0,0:0:0:0:
5,191,118732,2,0,P|44:115|52:94,1,65.9999979858399,2|0,3:3|0:0,0:0:0:0:
14,40,118960,1,2,0:0:0:0:
194,196,119301,85,0,0:0:0:0:
202,211,119376,5,0,0:0:0:0:
233,227,119452,101,2,0:0:0:0:
282,217,119528,5,2,0:0:0:0:
311,178,119604,101,2,0:0:0:0:
311,123,119679,5,10,0:0:0:0:
347,71,119755,101,10,0:0:0:0:
416,69,119831,5,10,0:0:0:0:
463,124,119907,101,10,0:0:0:0:
437,198,119982,22,0,P|373:158|339:167,1,76.9999976501466,12|0,0:2|0:0,0:0:0:0:
236,2,120210,2,0,P|155:45|149:61,1,76.9999976501466,10|0,0:0|0:0,0:0:0:0:
14,168,120437,2,0,B|63:163|85:194|75:215|91:250|175:238,1,153.999995300293,10|0,0:0|0:0,0:0:0:0:
325,370,120892,1,6,3:2:0:0:
308,348,121005,2,0,P|335:263|349:251,1,76.9999976501466,2|2,0:0|0:3,0:0:0:0:
214,129,121232,1,2,0:0:0:0:
189,140,121346,2,0,P|220:218|219:232,1,76.9999976501466,8|0,0:0|0:0,0:0:0:0:
182,366,121573,1,2,0:3:0:0:
168,370,121687,1,2,0:0:0:0:
134,357,121801,5,6,3:2:0:0:
121,310,121914,2,0,P|165:223|172:221,1,76.9999976501466,2|2,0:0|0:3,0:0:0:0:
18,100,122142,1,2,0:0:0:0:
3,122,122255,1,8,0:0:0:0:
14,168,122369,2,0,P|65:155|74:97,1,76.9999976501466,2|2,0:0|0:3,0:0:0:0:
309,70,122596,2,0,B|256:80|236:46|242:35|227:-3|147:18,1,153.999995300293,2|0,0:0|0:0,0:0:0:0:
111,11,122937,2,0,P|151:70|164:68,1,76.9999976501466,2|0,0:3|0:0,0:0:0:0:
324,143,123164,1,10,0:0:0:0:
298,178,123278,1,2,0:0:0:0:
335,236,123392,1,2,0:3:0:0:
298,300,123505,102,0,P|349:359|394:314,1,153.999995300293,4|0,3:2|0:0,0:0:0:0:
459,296,123846,2,0,P|387:263|377:279,1,76.9999976501466,2|0,0:3|0:0,0:0:0:0:
213,358,124073,1,8,0:0:0:0:
181,332,124187,1,2,0:0:0:0:
207,269,124301,1,2,0:3:0:0:
157,212,124414,2,0,P|88:262|121:293,1,153.999995300293,6|0,0:0|0:0,0:0:0:0:
207,269,124755,2,0,P|239:199|262:164,1,76.9999976501466,2|0,0:3|0:0,0:0:0:0:
181,52,124982,5,10,0:0:0:0:
277,143,125134,101,2,0:0:0:0:
90,51,125323,5,6,0:0:0:0:
462,5,125551,101,2,0:0:0:0:
382,234,125778,2,0,P|353:151|344:140,1,76.9999976501466,2|8,0:0|0:0,0:0:0:0:
467,364,126005,2,0,P|508:280|516:270,1,76.9999976501466,2|2,0:0|0:3,0:0:0:0:
293,373,126232,1,2,0:0:0:0:
311,334,126346,5,8,3:2:0:0:
310,319,126422,101,0,0:0:0:0:
294,298,126498,5,0,3:0:0:0:
253,292,126573,101,8,3:2:0:0:
220,327,126649,5,0,0:0:0:0:
181,345,126725,101,0,3:0:0:0:
123,317,126801,6,0,P|59:362|37:354,2,76.9999976501466,2|2|8,3:2|0:0|0:0,0:0:0:0:
282,182,127142,2,0,B|240:154|247:116|277:105|310:65|229:9,1,153.999995300293,4|0,0:0|0:0,0:0:0:0:
204,74,127482,2,0,P|136:39|128:45,1,76.9999976501466,2|0,0:3|0:0,0:0:0:0:
7,171,127710,1,10,0:0:0:0:
17,204,127823,2,0,P|94:175|90:152,1,76.9999976501466,2|0,0:0|0:0,0:0:0:0:
41,1,128051,2,0,P|98:82|124:146,1,153.999995300293,4|0,3:2|0:0,0:0:0:0:
170,183,128392,2,0,P|141:281|141:295,1,76.9999976501466,2|0,0:3|0:0,0:0:0:0:
208,368,128619,1,8,0:0:0:0:
355,213,128846,1,2,0:0:0:0:
337,253,128960,1,2,0:0:0:0:
278,177,129073,101,2,0:3:0:0:
327,125,129187,2,0,P|405:91|418:88,1,76.9999976501466,0|0,3:0|0:0,0:0:0:0:
144,14,129414,2,0,P|240:51|253:51,1,76.9999976501466,4|0,3:2|0:0,0:0:0:0:
337,253,129642,2,0,P|414:223|434:217,1,76.9999976501466,10|0,0:2|0:0,0:0:0:0:
174,358,129869,2,0,P|163:286|129:180,1,153.999995300293,6|0,3:2|0:0,0:0:0:0:
88,289,130210,2,0,P|34:234|5:217,1,76.9999976501466,2|0,0:3|0:0,0:0:0:0:
66,36,130437,1,8,0:0:0:0:
17,87,130551,1,8,0:0:0:0:
57,153,130664,2,0,P|110:124|113:107,1,76.9999976501466,8|0,0:0|0:0,0:0:0:0:
252,55,130892,6,0,P|164:31|136:18,1,76.9999976501466,4|0,3:2|0:0,0:0:0:0:
379,120,131119,2,0,P|302:144|275:157,1,76.9999976501466,2|0,0:3|0:0,0:0:0:0:
474,220,131346,2,0,B|432:231|414:257|426:281|410:324|323:314,1,153.999995300293,10|2,0:0|0:3,0:0:0:0:
178,375,131801,101,2,3:2:0:0:
145,305,131952,5,0,0:0:0:0:
290,176,132142,1,2,0:0:0:0:
305,162,132255,1,8,0:0:0:0:
311,119,132369,1,0,0:0:0:0:
274,70,132482,101,2,0:3:0:0:
263,65,132558,5,2,0:0:0:0:
255,69,132634,101,2,0:0:0:0:
203,121,132710,6,0,P|119:91|106:81,1,88,4|0,3:2|0:0,0:0:0:0:
366,258,132937,2,0,P|276:300|263:309,1,88,2|0,0:3|0:0,0:0:0:0:
448,85,133164,1,2,0:0:0:0:
432,71,133278,2,0,P|390:53|313:8,1,88,0|8,0:0|0:0,0:0:0:0:
211,195,133505,1,0,0:0:0:0:
197,210,133619,101,2,3:2:0:0:
334,377,133770,5,2,3:2:0:0:
447,191,133960,101,2,0:0:0:0:
440,173,134073,1,0,3:0:0:0:
395,150,134187,1,0,3:0:0:0:
341,190,134301,1,0,3:0:0:0:
366,258,134414,1,0,3:0:0:0:
441,283,134528,6,0,P|532:248|542:247,1,88,4|0,3:2|0:0,0:0:0:0:
352,33,134755,2,0,P|442:72|461:73,1,88,2|0,0:3|0:0,0:0:0:0:
172,193,134982,2,0,B|229:201|249:172|240:146|246:108|339:118,1,176,10|2,0:0|0:3,0:0:0:0:
276,47,135323,1,0,0:0:0:0:
280,30,135437,101,2,0:0:0:0:
90,146,135588,5,2,0:0:0:0:
189,341,135778,101,2,0:0:0:0:
179,365,135892,2,0,P|139:271|131:264,1,88,8|0,0:0|0:0,0:0:0:0:
184,67,136119,5,2,0:3:0:0:
173,70,136195,101,0,0:0:0:0:
170,79,136270,5,0,0:0:0:0:
170,88,136346,101,2,3:2:0:0:
200,133,136460,1,2,0:0:0:0:
266,146,136573,1,2,0:0:0:0:
324,98,136687,2,0,P|363:9|373:1,1,88,2|0,0:3|0:0,0:0:0:0:
168,266,136914,2,0,P|122:174|100:156,1,88,2|0,0:3|0:0,0:0:0:0:
347,370,137142,1,4,0:0:0:0:
256,192,137255,12,0,139073,0:0:0:0:
378,234,139528,22,0,B|346:265|346:265|156:109|156:109|78:167,1,330,14|0,0:0|0:0,0:0:0:0:
152,192,139982,6,0,P|170:262|164:282,1,55,4|0,3:2|0:0,0:0:0:0:
129,345,140210,1,2,0:0:0:0:
116,360,140323,1,0,0:0:0:0:
92,360,140437,2,0,P|76:303|123:285,1,110,10|0,0:0|0:0,0:0:0:0:
197,309,140778,2,0,P|278:274|316:264,1,110,2|0,3:2|0:0,0:0:0:0:
294,344,141119,1,2,0:0:0:0:
307,354,141232,1,0,0:0:0:0:
327,358,141346,2,0,P|373:311|390:305,1,55,10|2,0:0|0:0,0:0:0:0:
419,256,141573,2,0,P|365:234|352:222,1,55,2|2,0:0|0:0,0:0:0:0:
266,130,141801,5,0,3:2:0:0:
296,135,141914,1,0,0:0:0:0:
309,167,142028,1,2,0:0:0:0:
282,202,142142,1,0,0:0:0:0:
248,202,142255,2,0,P|220:141|197:100,1,110,10|0,0:0|0:0,0:0:0:0:
258,63,142596,2,0,P|279:11|287:3,2,55,2|0|0,3:2|0:0|0:0,0:0:0:0:
187,29,142937,2,0,P|132:17|120:8,1,55,2|0,0:0|0:0,0:0:0:0:
52,68,143164,1,8,0:0:0:0:
32,61,143278,2,0,P|66:122|78:169,1,110,2|0,0:0|0:0,0:0:0:0:
15,193,143619,102,0,P|0:245|-6:254,1,55,2|0,3:2|0:0,0:0:0:0:
66,348,143846,1,2,0:0:0:0:
52,330,143960,1,0,0:0:0:0:
59,307,144073,2,0,P|118:304|123:349,1,110,10|0,0:0|0:0,0:0:0:0:
175,267,144414,2,0,P|240:283|261:245,1,110,2|0,3:2|0:0,0:0:0:0:
258,187,144755,2,0,P|209:225|216:245,2,55,2|0|10,0:0|0:0|0:0,0:0:0:0:
321,226,145096,2,0,P|337:179|376:134,1,110,2|2,0:0|0:0,0:0:0:0:
291,116,145437,5,0,3:2:0:0:
308,92,145551,1,0,0:0:0:0:
305,57,145664,1,2,0:0:0:0:
270,31,145778,1,0,0:0:0:0:
223,43,145892,2,0,P|179:78|206:120,1,110,10|0,0:0|0:0,0:0:0:0:
154,168,146232,1,2,3:2:0:0:
79,74,146422,101,0,0:0:0:0:
69,81,146498,5,0,3:2:0:0:
64,92,146573,102,0,P|111:132|118:130,1,55,0|2,3:2|0:0,0:0:0:0:
154,168,146801,1,10,0:0:0:0:
21,251,147028,1,2,0:0:0:0:
25,266,147142,1,2,0:0:0:0:
47,285,147255,6,0,P|102:261|88:225,1,110,4|2,3:2|0:0,0:0:0:0:
172,267,147596,1,0,0:0:0:0:
182,253,147710,2,0,B|214:261|230:275|219:294|231:313|295:318,1,110,10|0,0:0|0:0,0:0:0:0:
304,372,148051,1,2,3:2:0:0:
439,300,148278,1,0,0:0:0:0:
452,284,148392,2,0,P|416:240|411:240,1,55,2|0,0:0|0:0,0:0:0:0:
471,189,148619,2,0,P|491:134|494:127,1,55,10|2,0:0|0:0,0:0:0:0:
416,134,148846,2,0,P|383:91|374:86,2,55,2|2|0,0:0|0:0|3:2,0:0:0:0:
304,79,149301,101,2,0:0:0:0:
288,82,149414,1,0,0:0:0:0:
259,109,149528,2,0,P|282:158|336:145,1,110,10|0,0:0|0:0,0:0:0:0:
255,221,149869,2,0,P|188:202|144:198,1,110,2|0,3:2|0:0,0:0:0:0:
156,267,150210,2,0,P|105:290|95:301,1,55,2|0,0:0|0:0,0:0:0:0:
76,218,150437,1,8,0:0:0:0:
58,209,150551,2,0,P|54:150|106:134,1,110,2|0,0:0|0:0,0:0:0:0:
27,80,150892,6,0,P|65:38|72:24,1,55,2|0,3:2|0:0,0:0:0:0:
127,71,151119,1,2,0:0:0:0:
142,59,151232,1,0,0:0:0:0:
168,57,151346,2,0,P|208:101|174:134,1,110,10|0,0:0|0:0,0:0:0:0:
242,184,151687,2,0,P|290:152|319:186,1,110,2|0,3:2|0:0,0:0:0:0:
283,240,152028,1,2,0:0:0:0:
292,253,152142,1,0,0:0:0:0:
287,279,152255,2,0,P|237:310|218:291,2,55,10|2|0,0:0|0:0|0:0,0:0:0:0:
372,250,152596,1,0,0:0:0:0:
368,241,152710,102,0,P|421:197|436:190,1,55,0|0,3:2|0:0,0:0:0:0:
497,283,152937,1,2,0:0:0:0:
512,307,153051,1,0,0:0:0:0:
498,353,153164,2,0,P|440:383|410:354,1,110,10|0,0:0|0:0,0:0:0:0:
345,377,153505,1,10,0:0:0:0:
195,374,153770,6,0,L|186:336,1,36.6666666666667,2|0,0:3|0:0,0:0:0:0:
252,322,153922,102,0,L|268:270,1,43.9999986572266,2|0,0:3|0:0,0:0:0:0:
205,237,154073,6,0,L|191:182,1,51.3333317667644,2|0,0:3|0:0,0:0:0:0:
281,157,154225,102,0,L|300:100,1,58.6666666666667,2|0,3:3|0:0,0:0:0:0:
166,58,154376,6,0,L|146:-15,1,65.9999979858399,2|0,3:3|0:0,0:0:0:0:
259,30,154528,22,0,B|299:44|321:24|320:13|344:-8|394:4,1,131.99999597168,4|2,3:2|0:3,0:0:0:0:
477,55,154869,1,0,0:0:0:0:
482,71,154982,2,0,P|412:94|407:78,1,65.9999979858399,10|0,0:0|0:0,0:0:0:0:
371,78,155210,1,0,0:3:0:0:
357,86,155323,2,0,P|378:164|390:219,1,131.99999597168,2|0,3:2|0:0,0:0:0:0:
469,268,155664,1,2,0:3:0:0:
462,282,155778,1,0,0:0:0:0:
502,341,155892,1,10,0:0:0:0:
471,369,156005,1,2,0:0:0:0:
419,354,156119,1,2,0:3:0:0:
392,299,156232,1,2,0:0:0:0:
322,280,156346,6,0,P|285:343|286:365,1,65.9999979858399,0|0,3:2|0:0,0:0:0:0:
240,245,156573,1,2,0:3:0:0:
229,223,156687,1,0,0:0:0:0:
266,162,156801,2,0,P|331:168|282:206,1,131.99999597168,10|2,0:0|0:3,0:0:0:0:
229,223,157142,2,0,P|163:190|148:189,1,65.9999979858399,2|0,3:2|0:0,0:0:0:0:
66,260,157369,1,0,0:0:0:0:
68,278,157482,2,0,P|131:248|138:242,1,65.9999979858399,2|0,0:3|0:0,0:0:0:0:
139,49,157710,1,8,0:0:0:0:
128,57,157823,2,0,B|139:96|125:127|107:124|84:142|103:188,1,131.99999597168,2|0,0:0|0:0,0:0:0:0:
62,79,158164,102,0,P|34:19|25:5,1,65.9999979858399,6|0,3:2|0:0,0:0:0:0:
213,104,158392,1,2,0:3:0:0:
225,90,158505,1,0,0:0:0:0:
249,84,158619,2,0,P|263:149|252:153,1,65.9999979858399,10|0,0:0|0:0,0:0:0:0:
236,233,158846,1,2,0:3:0:0:
231,253,158960,2,0,B|275:256|290:234|285:213|292:189|360:189,1,131.99999597168,2|0,3:2|0:0,0:0:0:0:
352,258,159301,2,0,P|412:296|421:313,1,65.9999979858399,2|0,0:3|0:0,0:0:0:0:
417,198,159528,2,0,P|480:175|495:164,2,65.9999979858399,10|2|2,0:0|0:0|0:3,0:0:0:0:
380,129,159869,1,2,0:0:0:0:
393,115,159982,6,0,P|440:56|441:45,1,65.9999979858399,0|0,3:2|0:0,0:0:0:0:
305,0,160210,1,2,0:3:0:0:
286,3,160323,1,0,0:0:0:0:
268,45,160437,2,0,P|329:77|336:31,1,131.99999597168,10|0,0:0|0:0,0:0:0:0:
204,3,160778,2,0,P|149:43|135:41,2,65.9999979858399,2|0|8,0:0|3:0|0:0,0:0:0:0:
103,120,161119,1,2,3:0:0:0:
106,101,161232,1,2,3:2:0:0:
31,140,161346,1,8,0:0:0:0:
3,178,161460,1,8,0:0:0:0:
10,207,161573,1,2,3:0:0:0:
31,221,161687,1,2,3:2:0:0:
102,191,161801,102,0,P|167:223|202:233,1,65.9999979858399,4|0,3:2|0:0,0:0:0:0:
234,322,162028,1,2,0:0:0:0:
252,306,162142,1,0,0:0:0:0:
281,317,162255,2,0,P|283:239|221:244,1,131.99999597168,10|2,0:0|0:3,0:0:0:0:
155,308,162596,1,2,3:2:0:0:
138,315,162710,2,0,P|168:376|172:390,1,65.9999979858399
244,231,162937,1,2,0:3:0:0:
235,217,163051,1,0,0:0:0:0:
241,189,163164,2,0,P|297:154|301:159,1,65.9999979858399,10|2,0:0|0:0,0:0:0:0:
362,80,163392,1,2,0:3:0:0:
357,96,163505,1,2,0:0:0:0:
331,102,163619,6,0,P|308:39|310:26,1,65.9999979858399,4|0,3:2|0:0,0:0:0:0:
440,143,163846,1,2,0:3:0:0:
453,157,163960,1,0,0:0:0:0:
445,184,164073,2,0,P|385:210|373:157,1,131.99999597168,10|2,0:0|0:3,0:0:0:0:
273,198,164414,1,2,3:2:0:0:
261,208,164528,2,0,P|274:138|273:125,1,65.9999979858399
341,265,164755,1,2,0:3:0:0:
329,278,164869,1,0,0:0:0:0:
334,322,164982,1,8,0:0:0:0:
396,357,165096,1,2,0:0:0:0:
432,350,165210,1,2,0:3:0:0:
447,330,165323,1,0,0:0:0:0:
491,270,165437,102,0,B|451:270|431:251|438:234|425:201|352:203,1,131.99999597168,6|2,3:2|0:3,0:0:0:0:
339,142,165778,1,0,0:0:0:0:
323,128,165892,2,0,P|293:189|300:198,1,65.9999979858399,10|0,0:0|0:0,0:0:0:0:
226,83,166119,1,2,0:3:0:0:
234,102,166232,1,2,3:2:0:0:
212,131,166346,2,0,P|153:103|160:93,1,65.9999979858399
95,24,166573,1,2,0:0:0:0:
74,26,166687,1,0,0:0:0:0:
40,47,166801,1,10,0:0:0:0:
31,88,166914,2,0,P|96:101|102:89,1,65.9999979858399,2|2,0:0|0:3,0:0:0:0:
69,227,167142,1,2,0:0:0:0:
76,239,167255,6,0,P|109:174|119:164,1,65.9999979858399,0|2,3:2|0:0,0:0:0:0:
3,296,167482,1,2,0:3:0:0:
3,324,167596,1,2,0:0:0:0:
24,354,167710,2,0,P|94:361|48:303,1,131.99999597168,10|2,0:0|0:3,0:0:0:0:
175,362,168051,101,6,0:0:0:0:
248,305,168240,53,8,0:0:0:0:
239,292,168316,1,8,0:0:0:0:
120,218,168505,37,0,3:0:0:0:
155,155,168619,69,8,0:0:0:0:
171,154,168695,1,8,0:0:0:0:
282,93,168922,37,0,3:0:0:0:
336,222,169073,69,8,0:0:0:0:
364,182,169149,37,0,3:0:0:0:
407,194,169225,69,0,3:0:0:0:
421,224,169301,37,0,3:0:0:0:
422,246,169376,69,8,0:0:0:0:
407,261,169452,37,8,0:0:0:0:
391,264,169528,69,8,0:0:0:0:
363,327,169679,37,0,3:0:0:0:
277,173,169831,69,0,3:0:0:0:
334,93,169982,37,8,0:0:0:0:
334,93,170020,69,8,0:0:0:0:
101,17,170437,54,0,B|139:34|139:34|138:164|138:164|213:196,1,220,14|0,0:0|0:0,0:0:0:0:
205,120,170778,53,14,0:0:0:0:
