osu file format v14

[General]
AudioFilename: audio.mp3
AudioLeadIn: 0
PreviewTime: 44960
Countdown: 0
SampleSet: Soft
StackLeniency: 0.2
Mode: 0
LetterboxInBreaks: 0
WidescreenStoryboard: 0

[Editor]
Bookmarks: 16344,30889,45435,61799,76344,90889,98162,105435,119980,132708,137253,139980,154526,168162
DistanceSpacing: 0.4
BeatDivisor: 6
GridSize: 32
TimelineZoom: 1.6

[Metadata]
Title:The Fascinating Cat's Eye
TitleUnicode:魅惑のキャッツアイ
Artist:NIWASHI
ArtistUnicode:庭師
Creator:Flask
Version:Lince's Insane
Source:
Tags:Jazz Blues Electronic Instrumental piano miwaku no featured artist fa mappers' mapper's guild mpg Lince Cosmico ParaDogi Chekito Lince_Cosmico cats cat
BeatmapID:3607511
BeatmapSetID:1710885

[Difficulty]
HPDrainRate:6
CircleSize:4
OverallDifficulty:7
ApproachRate:9
SliderMultiplier:2.4
SliderTickRate:1

[Events]
//Background and Video events
0,0,"black.jpg",0,0
//Break Periods
2,59158,60744
//Storyboard Layer 0 (Background)
//Storyboard Layer 1 (Fail)
//Storyboard Layer 2 (Pass)
//Storyboard Layer 3 (Foreground)
//Storyboard Layer 4 (Overlay)
//Storyboard Sound Samples

[TimingPoints]
1799,454.545454545455,4,2,1,60,1,0
8314,-100,4,2,1,40,0,0
8465,-100,4,2,1,60,0,0
15321,-100,4,2,1,40,0,0
16344,-100,4,2,2,50,0,0
18503,-71.4285714285714,4,2,2,50,0,0
18560,-71.4285714285714,4,2,2,5,0,0
18617,-71.4285714285714,4,2,2,50,0,0
18787,-71.4285714285714,4,2,2,5,0,0
18844,-100,4,2,2,50,0,0
22139,-71.4285714285714,4,2,2,50,0,0
22196,-71.4285714285714,4,2,2,5,0,0
22253,-71.4285714285714,4,2,2,50,0,0
22423,-71.4285714285714,4,2,2,5,0,0
22480,-100,4,2,2,50,0,0
25776,-71.4285714285714,4,2,2,50,0,0
25833,-71.4285714285714,4,2,2,5,0,0
25890,-71.4285714285714,4,2,2,50,0,0
26060,-71.4285714285714,4,2,2,5,0,0
26117,-100,4,2,2,50,0,0
26799,-71.4285714285714,4,2,2,50,0,0
26950,-71.4285714285714,4,2,2,60,0,0
27139,-100,4,2,2,60,0,0
30889,-90.9090909090909,4,2,1,60,0,0
33049,-71.4285714285714,4,2,1,60,0,0
33106,-71.4285714285714,4,2,1,5,0,0
33163,-71.4285714285714,4,2,1,60,0,0
33333,-71.4285714285714,4,2,1,5,0,0
33390,-90.9090909090909,4,2,1,60,0,0
40321,-71.4285714285714,4,2,1,60,0,0
40378,-71.4285714285714,4,2,1,5,0,0
40435,-71.4285714285714,4,2,1,60,0,0
40605,-71.4285714285714,4,2,1,5,0,0
40662,-90.9090909090909,4,2,1,60,0,0
44980,-90.9090909090909,4,2,1,45,0,0
45435,-83.3333333333333,4,2,1,75,0,1
47651,-83.3333333333333,4,2,1,5,0,1
47708,-83.3333333333333,4,2,1,75,0,1
47878,-83.3333333333333,4,2,1,5,0,1
47935,-83.3333333333333,4,2,1,75,0,1
51685,-133.333333333333,4,2,1,75,0,1
52026,-100,4,2,7,75,0,1
52253,-100,4,2,1,75,0,1
52594,-83.3333333333333,4,2,1,75,0,1
58560,-83.3333333333333,4,2,1,5,0,1
58730,-83.3333333333333,4,2,1,75,0,1
58787,-83.3333333333333,4,2,1,5,0,1
58844,-83.3333333333333,4,2,1,75,0,1
58958,-125,4,2,1,75,0,0
59014,-125,4,2,1,30,0,0
61344,-133.333333333333,4,2,1,45,0,0
61799,-100,4,2,1,60,0,0
68314,-100,4,2,1,40,0,0
68465,-100,4,2,1,60,0,0
69078,454.545454545455,4,2,1,60,1,0
69870,454.545454545455,4,2,1,60,1,0
70892,454.545454545455,4,2,1,60,1,0
75551,-100,4,2,1,50,0,0
75664,-100,4,2,1,45,0,0
75778,-100,4,2,1,40,0,0
75892,-100,4,2,1,35,0,0
76005,-100,4,2,1,25,0,0
76119,-100,4,2,1,20,0,0
76346,-83.3333333333333,4,2,1,60,0,0
77255,-125,4,2,1,60,0,0
78164,-100,4,2,1,60,0,0
78846,-142.857142857143,4,2,1,60,0,0
79073,-100,4,2,1,60,0,0
79869,-142.857142857143,4,2,1,60,0,0
80437,-83.3333333333333,4,2,1,60,0,0
81801,-90.9090909090909,4,2,1,60,0,0
82255,-125,4,2,1,60,0,0
84414,-100,4,2,1,60,0,0
90210,-83.3333333333333,4,2,1,60,0,0
90869,-83.3333333333333,4,2,1,60,0,0
90892,-83.3333333333333,4,2,1,70,0,0
92937,-100,4,2,1,70,0,0
96232,-83.3333333333333,4,2,1,70,0,0
96573,-100,4,2,1,60,0,0
96914,-125,4,2,1,60,0,0
97482,-125,4,2,1,50,0,0
97710,-125,4,2,1,40,0,0
97937,-100,4,2,1,40,0,0
98142,-90.9090909090909,4,2,1,40,0,0
98164,-90.9090909090909,4,2,1,60,0,0
99755,-125,4,2,1,60,0,0
99982,-90.9090909090909,4,2,1,60,0,0
100210,-125,4,2,1,60,0,0
100437,-90.9090909090909,4,2,1,65,0,0
100664,-125,4,2,1,65,0,0
100891,-90.9090909090909,4,2,1,70,0,0
101119,-125,4,2,1,70,0,0
101346,-90.9090909090909,4,2,1,70,0,0
101687,-90.9090909090909,4,2,1,80,0,0
104982,-90.9090909090909,4,2,1,55,0,0
105437,-83.3333333333333,4,2,1,75,0,1
107653,-83.3333333333333,4,2,1,5,0,1
107710,-83.3333333333333,4,2,1,75,0,1
107880,-83.3333333333333,4,2,1,5,0,1
107937,-83.3333333333333,4,2,1,75,0,1
111687,-133.333333333333,4,2,1,75,0,1
112028,-100,4,2,1,75,0,1
112596,-83.3333333333333,4,2,1,75,0,1
118562,-83.3333333333333,4,2,1,5,0,1
118732,-83.3333333333333,4,2,1,75,0,1
118789,-83.3333333333333,4,2,1,5,0,1
118846,-83.3333333333333,4,2,1,75,0,1
118960,-125,4,2,1,75,0,0
119017,-125,4,2,1,40,0,0
119376,-125,4,2,1,50,0,0
119452,-125,4,2,1,55,0,0
119528,-125,4,2,1,60,0,0
119604,-125,4,2,1,65,0,0
119679,-125,4,2,1,75,0,0
119831,-125,4,2,1,80,0,0
119982,-76.9230769230769,4,2,1,60,0,1
120210,-76.9230769230769,4,2,1,70,0,1
120437,-76.9230769230769,4,2,1,80,0,1
120892,-76.9230769230769,4,2,1,75,0,1
122198,-76.9230769230769,4,2,1,5,0,1
122255,-76.9230769230769,4,2,1,75,0,1
122425,-76.9230769230769,4,2,1,5,0,1
122482,-76.9230769230769,4,2,1,75,0,1
126232,-111.111111111111,4,2,1,75,0,1
127142,-76.9230769230769,4,2,1,75,0,1
134528,-90.9090909090909,4,2,1,75,0,1
136744,-83.3333333333333,4,2,1,5,0,1
136914,-83.3333333333333,4,2,1,75,0,1
136971,-83.3333333333333,4,2,1,5,0,1
137142,-76.9230769230769,4,2,1,55,0,0
137198,-76.9230769230769,4,2,1,30,0,0
137255,-76.9230769230769,4,2,1,10,0,0
139528,-100,4,2,1,60,0,0
139982,-100,4,2,1,70,0,0
153732,-100,4,2,1,80,0,0
154506,-90.9090909090909,4,2,1,80,0,0
168164,-90.9090909090909,4,2,1,60,0,0
170437,-90.9090909090909,4,2,1,90,0,0
170721,-90.9090909090909,4,2,1,5,0,0
170778,-90.9090909090909,4,2,1,90,0,0

[Colours]
Combo1 : 255,255,79
Combo2 : 125,125,125

[HitObjects]
158,320,1799,6,0,P|125:329|101:350,1,60,4|0,3:2|0:0,0:0:0:0:
105,344,2026,2,0,P|126:317|133:286,1,60,2|0,0:0|0:0,0:0:0:0:
205,257,2253,2,0,P|247:208|308:198,1,120,10|0,0:0|0:0,0:0:0:0:
299,196,2594,2,0,P|257:245|196:255,1,120,2|0,3:2|0:0,0:0:0:0:
139,217,2935,1,2,0:0:0:0:
96,197,3049,1,0,0:0:0:0:
82,206,3162,2,0,P|51:212|21:222,1,60,10|2,0:0|0:0,0:0:0:0:
95,108,3389,2,0,P|123:118|149:134,1,60,2|2,0:0|0:0,0:0:0:0:
246,121,3617,6,0,P|234:91|219:63,1,60,0|0,3:2|0:0,0:0:0:0:
221,66,3844,2,0,P|244:85|269:101,1,60,2|0,0:0|0:0,0:0:0:0:
315,165,4071,2,0,P|379:184|415:229,1,120,10|0,0:0|0:0,0:0:0:0:
468,277,4412,2,0,P|496:307|462:280,1,120,2|0,3:2|0:0,0:0:0:0:
412,223,4753,2,0,P|416:194|436:165,1,60,2|0,0:0|0:0,0:0:0:0:
376,290,4980,1,8,0:0:0:0:
308,316,5094,1,2,0:0:0:0:
308,316,5435,6,0,P|289:293|280:264,1,60,2|0,3:2|0:0,0:0:0:0:
254,291,5662,2,0,P|282:297|306:315,1,60,2|0,0:0|0:0,0:0:0:0:
210,224,5889,2,0,P|169:173|189:108,1,120,10|0,0:0|0:0,0:0:0:0:
177,122,6230,2,0,P|218:173|198:238,1,120,2|0,3:2|0:0,0:0:0:0:
177,306,6571,1,2,0:0:0:0:
151,341,6685,1,0,0:0:0:0:
127,348,6799,2,0,P|90:363|63:368,1,60,10|2,0:0|0:0,0:0:0:0:
1,268,7026,2,0,P|28:281|57:290,1,60,2|2,0:0|0:0,0:0:0:0:
39,200,7253,6,0,P|16:167|6:141,1,60,0|0,3:2|0:0,0:0:0:0:
8,148,7480,2,0,P|34:163|63:172,1,60,2|0,0:0|0:0,0:0:0:0:
122,228,7708,2,0,P|180:243|226:189,1,120,10|0,0:0|0:0,0:0:0:0:
286,157,8049,2,0,P|303:85|310:28,1,120,2|0,3:2|0:0,0:0:0:0:
393,57,8389,1,0,3:2:0:0:
393,57,8503,2,0,P|376:129|369:186,1,120,2|2,0:0|0:0,0:0:0:0:
412,242,8844,2,0,P|438:265|465:268,1,60,2|2,0:0|0:0,0:0:0:0:
321,328,9071,6,0,P|290:322|257:330,1,60,4|0,3:2|0:0,0:0:0:0:
280,285,9299,2,0,P|296:310|321:328,1,60,2|0,0:0|0:0,0:0:0:0:
204,277,9526,2,0,P|135:284|97:332,1,120,10|0,0:0|0:0,0:0:0:0:
102,318,9867,2,0,P|171:311|209:263,1,120,2|0,3:2|0:0,0:0:0:0:
265,218,10208,1,2,0:0:0:0:
298,181,10321,1,0,0:0:0:0:
292,157,10435,2,0,P|270:137|234:127,1,60,10|2,0:0|0:0,0:0:0:0:
177,57,10662,2,0,P|205:46|235:49,1,60,2|2,0:0|0:0,0:0:0:0:
121,2,10889,6,0,P|97:20|81:53,1,60,0|0,3:2|0:0,0:0:0:0:
83,46,11117,2,0,P|92:17|90:-11,1,60,2|0,0:0|0:0,0:0:0:0:
31,108,11344,2,0,P|41:166|110:167,1,120,10|0,0:0|0:0,0:0:0:0:
163,213,11685,2,0,P|226:233|279:270,1,120,2|0,3:2|0:0,0:0:0:0:
330,314,12026,2,0,P|355:298|394:292,1,60,2|0,0:0|0:0,0:0:0:0:
439,233,12253,1,8,0:0:0:0:
461,163,12367,1,2,0:0:0:0:
461,163,12708,6,0,P|448:136|453:100,1,60,2|0,3:2|0:0,0:0:0:0:
414,129,12935,2,0,P|442:139|461:163,1,60,2|0,0:0|0:0,0:0:0:0:
390,55,13162,2,0,P|339:9|280:23,1,120,10|0,0:0|0:0,0:0:0:0:
292,15,13503,2,0,P|331:57|390:55,1,120,2|0,3:2|0:0,0:0:0:0:
319,135,13844,1,2,0:0:0:0:
306,153,13958,1,0,0:0:0:0:
307,168,14071,2,0,P|300:197|296:232,1,60,10|2,0:0|0:0,0:0:0:0:
219,213,14299,2,0,P|226:184|230:149,1,60,2|2,0:0|0:0,0:0:0:0:
141,128,14526,5,0,3:2:0:0:
108,130,14639,1,0,0:0:0:0:
94,120,14753,2,0,P|65:101|53:67,1,60,2|0,0:0|0:0,0:0:0:0:
150,54,14980,2,0,P|151:20|174:-7,1,60,10|0,0:0|0:0,0:0:0:0:
232,72,15208,1,0,0:0:0:0:
301,53,15321,1,2,0:3:0:0:
22,172,15889,5,0,0:0:0:0:
18,186,16117,1,0,0:0:0:0:
18,186,16344,6,0,B|50:184|73:213|61:223|79:248|121:242,1,120,4|0,0:0|0:0,0:0:0:0:
115,242,16685,2,0,P|129:181|150:122,1,120,2|0,0:0|0:0,0:0:0:0:
299,109,17026,1,2,0:0:0:0:
312,115,17139,2,0,P|261:147|214:184,1,120,2|0,3:2|0:0,0:0:0:0:
383,82,17480,1,0,0:0:0:0:
370,49,17594,1,2,0:0:0:0:
361,42,17708,2,0,P|330:35|286:19,2,60,8|2|2,0:0|0:0|0:0,0:0:0:0:
497,135,18049,1,2,0:0:0:0:
482,128,18162,6,0,P|424:158|431:219,1,120,2|0,3:2|0:0,0:0:0:0:
374,267,18503,2,0,P|354:273|334:282,1,41.9999987182618,2|0,0:0|0:0,0:0:0:0:
267,191,18730,2,0,P|245:183|223:176,1,41.9999987182618,2|0,0:0|0:0,0:0:0:0:
64,357,18958,5,2,0:0:0:0:
56,364,19071,2,0,P|22:373|-5:388,1,60
131,314,19299,2,0,P|79:280|12:262,1,120,2|8,0:0|0:0,0:0:0:0:
217,300,19639,2,0,P|188:247|146:205,1,120,2|0,0:0|0:0,0:0:0:0:
38,144,19980,6,0,B|70:146|93:117|81:107|99:82|141:88,1,120,2|2,3:2|0:0,0:0:0:0:
188,27,20321,2,0,P|236:26|248:89,1,120,2|0,0:0|0:0,0:0:0:0:
267,235,20662,1,2,0:0:0:0:
260,241,20776,2,0,P|266:183|308:142,1,120,2|0,3:2|0:0,0:0:0:0:
294,312,21117,1,0,0:0:0:0:
332,329,21230,1,2,0:0:0:0:
348,326,21344,2,0,P|379:316|407:306,2,60,8|2|2,0:0|0:0|0:0,0:0:0:0:
238,371,21685,1,2,0:0:0:0:
229,376,21799,6,0,P|200:365|100:343,1,120,2|2,3:2|0:0,0:0:0:0:
68,276,22139,2,0,P|48:281|23:292,1,41.9999987182618
168,188,22367,2,0,P|149:178|123:171,1,41.9999987182618,2|0,0:0|0:0,0:0:0:0:
295,193,22594,5,2,0:0:0:0:
301,184,22708,2,0,P|292:165|263:122,2,60,0|0|0,0:0|3:0|0:0,0:0:0:0:
359,238,23049,2,0,B|359:305|408:276|420:341,1,120,2|0,0:0|0:0,0:0:0:0:
418,335,23389,2,0,P|425:306|450:278,1,60
512,120,23617,6,0,B|480:117|456:146|468:156|449:180|408:174,1,120,4|0,3:2|0:0,0:0:0:0:
413,174,23958,2,0,P|400:112|380:52,1,120,2|0,0:0|0:0,0:0:0:0:
222,50,24299,1,2,0:0:0:0:
217,36,24412,2,0,P|268:68|315:106,1,120,2|0,3:2|0:0,0:0:0:0:
148,1,24753,1,0,0:0:0:0:
117,38,24867,1,2,0:0:0:0:
95,38,24980,2,0,P|57:44|25:46,2,60,8|2|2,0:0|0:0|0:0,0:0:0:0:
187,109,25321,1,2,0:0:0:0:
196,116,25435,6,0,P|132:118|70:127,1,120,2|2,3:2|0:0,0:0:0:0:
10,269,25776,2,0,P|30:281|47:304,1,41.9999987182618,2|0,0:0|0:0,0:0:0:0:
133,194,26003,2,0,P|140:216|138:244,1,41.9999987182618,2|0,0:0|0:0,0:0:0:0:
270,218,26230,1,2,0:0:0:0:
277,227,26344,2,0,P|268:248|242:282,2,60,0|0|2,0:0|0:0|0:0,0:0:0:0:
346,178,26685,1,0,0:0:0:0:
355,167,26799,6,0,B|360:123|360:123|356:112|356:112|364:49,1,111.999996582031,10|2,0:0|0:0,0:0:0:0:
363,56,27139,5,2,0:0:0:0:
257,2,27367,1,2,0:0:0:0:
192,47,27594,1,2,0:0:0:0:
512,230,27821,1,2,0:0:0:0:
512,230,28049,5,2,0:0:0:0:
405,284,28277,1,2,0:0:0:0:
340,239,28504,1,2,0:0:0:0:
355,167,28730,1,2,0:0:0:0:
209,130,28958,1,2,0:0:0:0:
209,130,29526,5,10,0:0:0:0:
200,118,29639,2,0,L|194:49,1,60,2|0,0:0|0:0,0:0:0:0:
244,0,29867,1,2,0:0:0:0:
69,249,30662,5,0,3:0:0:0:
77,243,30738,5,0,3:0:0:0:
86,238,30814,5,0,3:0:0:0:
94,233,30889,6,0,P|162:233|183:296,1,132.00000402832,4|0,3:2|0:0,0:0:0:0:
185,284,31230,2,0,P|250:266|325:260,1,132.00000402832,2|0,0:0|0:0,0:0:0:0:
380,304,31571,1,2,0:0:0:0:
388,310,31685,2,0,P|434:319|460:245,1,132.00000402832,2|0,3:2|0:0,0:0:0:0:
434,178,32026,1,0,0:0:0:0:
415,138,32139,1,2,0:0:0:0:
423,124,32253,2,0,P|437:90|445:57,2,66.0000020141602,8|2|2,0:0|0:0|0:0,0:0:0:0:
251,152,32594,1,2,0:0:0:0:
241,143,32708,6,0,P|300:115|356:80,1,132.00000402832,2|2,3:2|0:0,0:0:0:0:
166,120,33049,6,0,P|147:111|119:105,1,41.9999987182618,2|0,0:0|0:0,0:0:0:0:
65,204,33276,2,0,P|45:209|19:222,1,41.9999987182618,2|0,0:0|0:0,0:0:0:0:
41,333,33503,1,2,0:0:0:0:
32,344,33617,1,0,3:2:0:0:
50,357,33730,1,0,0:0:0:0:
79,352,33844,2,0,P|108:338|147:325,1,66.0000020141602,2|2,0:0|0:0,0:0:0:0:
191,274,34014,5,0,0:0:0:0:
197,276,34071,6,0,P|227:284|266:299,2,66.0000020141602,8|2|0,0:0|0:0|0:0,0:0:0:0:
258,213,34412,6,0,P|214:164|148:106,1,132.00000402832,2|0,3:2|0:0,0:0:0:0:
110,64,34753,1,0,0:0:0:0:
65,47,34867,1,2,0:0:0:0:
51,51,34980,2,0,P|34:80|6:119,2,66.0000020141602,8|2|0,0:0|0:0|0:0,0:0:0:0:
176,22,35321,2,0,P|246:25|255:84,1,132.00000402832,2|0,3:2|0:0,0:0:0:0:
310,133,35662,1,0,0:0:0:0:
355,154,35776,1,2,0:0:0:0:
340,188,35889,5,8,0:0:0:0:
331,191,35965,5,2,0:0:0:0:
323,196,36041,5,2,0:0:0:0:
319,204,36117,6,0,P|279:213|245:226,1,66.0000020141602,2|0,0:0|0:0,0:0:0:0:
422,335,36344,6,0,P|349:304|269:294,1,132.00000402832,2|0,3:2|0:0,0:0:0:0:
234,346,36685,1,2,0:0:0:0:
223,349,36799,2,0,P|186:360|152:375,1,66.0000020141602,8|2,0:0|0:0,0:0:0:0:
99,322,37026,1,0,0:0:0:0:
70,292,37139,1,2,0:0:0:0:
54,291,37253,2,0,P|49:262|36:221,2,66.0000020141602,0|2|2,3:0|0:0|0:0,0:0:0:0:
36,366,37594,1,2,0:0:0:0:
176,280,37821,1,0,0:0:0:0:
180,268,37935,1,2,0:3:0:0:
25,139,38162,6,0,P|79:121|107:182,1,132.00000402832,4|0,3:2|0:0,0:0:0:0:
108,178,38503,2,0,P|153:163|252:152,1,132.00000402832,2|0,0:0|0:0,0:0:0:0:
408,158,38844,1,2,0:0:0:0:
416,167,38958,2,0,P|372:214|310:206,1,132.00000402832,2|0,3:2|0:0,0:0:0:0:
473,113,39299,1,0,0:0:0:0:
457,67,39412,1,2,0:0:0:0:
466,54,39526,2,0,P|479:27|507:-6,2,66.0000020141602,8|2|2,0:0|0:0|0:0,0:0:0:0:
398,15,39867,1,2,0:0:0:0:
387,20,39980,6,0,P|344:70|314:128,1,132.00000402832,2|2,3:2|0:0,0:0:0:0:
238,156,40321,2,0,P|227:177|223:207,1,41.9999987182618,2|0,0:0|0:0,0:0:0:0:
374,263,40549,2,0,P|379:286|395:311,1,41.9999987182618,2|0,0:0|0:0,0:0:0:0:
170,373,40776,1,2,0:0:0:0:
170,373,41344,6,0,B|142:342|142:342|99:362,1,88.000002685547,2|2,0:0|0:0,0:0:0:0:
275,253,41685,5,4,3:2:0:0:
314,118,41912,5,0,0:0:0:0:
278,243,42139,5,8,0:0:0:0:
187,304,42367,1,8,0:0:0:0:
100,361,42594,5,4,0:0:0:0:
61,226,42821,5,2,0:0:0:0:
100,361,43048,5,0,0:0:0:0:
33,307,43276,1,0,0:0:0:0:
275,253,43503,1,6,0:0:0:0:
275,253,44071,5,6,0:0:0:0:
236,190,44185,2,0,P|230:132|214:49,1,132.00000402832,2|8,0:0|0:0,0:0:0:0:
216,59,44980,5,2,0:0:0:0:
223,50,45094,1,2,0:0:0:0:
211,39,45208,1,2,0:0:0:0:
220,29,45321,1,2,0:0:0:0:
205,9,45435,6,0,P|161:30|156:56,1,71.9999978027344,4|0,3:2|0:0,0:0:0:0:
78,175,45662,2,0,P|62:206|28:215,1,71.9999978027344,2|0,0:3|0:0,0:0:0:0:
40,88,45889,2,0,P|119:114|190:153,1,143.999995605469,10|2,0:0|0:3,0:0:0:0:
377,340,46344,1,2,3:2:0:0:
386,332,46458,2,0,P|373:298|333:301,1,71.9999978027344,2|2,0:0|0:3,0:0:0:0:
270,331,46685,2,0,P|201:351|132:376,1,143.999995605469,2|0,0:0|0:0,0:0:0:0:
133,375,47026,5,2,0:3:0:0:
111,342,47139,1,2,0:0:0:0:
95,343,47253,2,0,P|58:352|20:368,1,71.9999978027344,2|2,3:2|0:0,0:0:0:0:
271,249,47594,6,0,P|254:239|227:232,1,35.9999989013672,2|0,0:0|0:0,0:0:0:0:
70,271,47821,2,0,P|51:274|25:286,1,35.9999989013672,2|0,0:0|0:0,0:0:0:0:
327,188,48049,6,0,P|277:163|185:140,1,143.999995605469,2|0,0:0|0:0,0:0:0:0:
192,140,48389,1,2,0:3:0:0:
453,58,48617,5,10,0:0:0:0:
440,58,48730,2,0,P|411:92|422:131,1,71.9999978027344,2|2,0:0|0:3,0:0:0:0:
394,267,48958,2,0,P|420:202|487:181,1,143.999995605469,4|0,3:2|0:0,0:0:0:0:
395,267,49299,2,0,P|354:277|313:298,1,71.9999978027344,2|0,0:3|0:0,0:0:0:0:
200,368,49526,5,8,0:0:0:0:
195,355,49639,2,0,P|191:325|182:271,1,71.9999978027344,2|2,0:0|0:3,0:0:0:0:
86,130,49867,2,0,P|69:195|127:229,1,143.999995605469,6|0,0:0|0:0,0:0:0:0:
86,130,50208,2,0,P|125:137|169:156,1,71.9999978027344,2|0,0:3|0:0,0:0:0:0:
227,108,50435,6,0,P|274:102|331:76,1,95.9999970703126,10|2,0:0|0:0,0:0:0:0:
58,314,50776,5,6,0:0:0:0:
127,229,51003,1,2,0:0:0:0:
229,189,51230,1,2,0:0:0:0:
337,205,51458,1,2,0:0:0:0:
422,271,51685,6,0,P|416:316|405:360,1,90.0000034332277,2|0,3:2|0:0,0:0:0:0:
405,360,52026,2,0,P|384:337|349:340,1,60,8|8,0:3|0:3,0:0:0:0:
285,360,52253,1,8,0:0:0:0:
217,322,52367,1,2,0:0:0:0:
217,322,52594,6,0,P|208:253|191:178,1,143.999995605469,6|0,3:2|0:0,0:0:0:0:
240,131,52935,2,0,P|210:149|191:179,1,71.9999978027344,2|0,0:3|0:0,0:0:0:0:
311,166,53162,1,8,0:2:0:0:
379,130,53276,1,2,0:0:0:0:
126,62,53503,6,0,P|110:132|100:203,1,143.999995605469,4|0,0:0|0:0,0:0:0:0:
100,203,53844,1,2,0:3:0:0:
217,322,54071,2,0,B|290:318|267:386|354:372,1,143.999995605469,8|2,0:0|0:0,0:0:0:0:
410,331,54412,1,2,0:0:0:0:
419,320,54526,5,2,3:2:0:0:
443,245,54677,5,2,3:2:0:0:
166,384,54867,5,4,0:0:0:0:
91,288,55132,5,2,3:2:0:0:
184,229,55321,6,0,P|192:164|211:85,1,143.999995605469,6|0,0:0|0:0,0:0:0:0:
210,87,55662,1,2,0:3:0:0:
352,33,55889,1,8,0:0:0:0:
333,38,56003,1,8,0:0:0:0:
335,18,56117,1,8,0:0:0:0:
335,18,56344,6,0,P|379:39|384:65,1,71.9999978027344,6|0,3:2|0:0,0:0:0:0:
462,184,56571,2,0,P|477:215|511:224,1,71.9999978027344,2|0,0:3|0:0,0:0:0:0:
500,97,56798,2,0,P|421:123|350:162,1,143.999995605469,10|2,0:0|0:3,0:0:0:0:
262,347,57253,2,0,P|215:334|158:326,1,95.9999970703126,2|2,3:2|0:0,0:0:0:0:
451,300,57594,6,0,P|389:265|320:243,1,143.999995605469,2|0,0:0|0:0,0:0:0:0:
259,198,57935,5,2,0:3:0:0:
253,190,58011,5,2,0:0:0:0:
250,180,58086,5,2,0:0:0:0:
251,170,58162,6,0,P|263:137|285:97,2,71.9999978027344,2|2|2,3:2|0:0|0:0,0:0:0:0:
190,230,58503,6,0,P|168:238|148:257,1,35.9999989013672,2|0,3:3|0:0,0:0:0:0:
358,131,58730,2,0,P|376:139|396:160,1,35.9999989013672,2|0,3:3|0:0,0:0:0:0:
113,37,58958,5,2,0:0:0:0:
113,37,61344,5,2,0:0:0:0:
116,31,61420,1,2,0:0:0:0:
116,25,61495,1,2,0:0:0:0:
119,19,61571,1,2,0:0:0:0:
28,227,61799,6,0,P|46:198|73:181,1,60,4|0,3:2|0:0,0:0:0:0:
67,183,62026,2,0,P|35:195|3:192,1,60,2|0,0:0|0:0,0:0:0:0:
128,132,62253,2,0,P|183:97|251:106,1,120,10|0,0:0|0:0,0:0:0:0:
284,40,62594,2,0,P|348:48|394:99,1,120,2|0,3:2|0:0,0:0:0:0:
423,151,62935,1,2,0:0:0:0:
393,187,63049,1,0,0:0:0:0:
376,185,63162,2,0,P|345:193|314:197,1,60,10|2,0:0|0:0,0:0:0:0:
431,268,63389,2,0,P|451:246|468:220,1,60,2|2,0:0|0:0,0:0:0:0:
339,283,63617,6,0,P|327:313|312:341,1,60,0|0,3:2|0:0,0:0:0:0:
313,339,63844,2,0,P|336:320|361:304,1,60,2|0,0:0|0:0,0:0:0:0:
246,380,64071,2,0,P|170:356|117:345,1,120,10|0,0:0|0:0,0:0:0:0:
115,269,64412,2,0,P|39:245|-14:234,1,120,2|0,3:2|0:0,0:0:0:0:
51,169,64753,2,0,P|80:175|108:184,1,60,2|0,0:0|0:0,0:0:0:0:
180,158,64980,1,8,0:0:0:0:
215,93,65094,1,2,0:0:0:0:
215,93,65435,6,0,P|200:76|163:68,1,60,2|0,3:2|0:0,0:0:0:0:
164,68,65662,2,0,P|196:65|224:48,1,60,2|0,0:0|0:0,0:0:0:0:
293,88,65889,2,0,P|351:81|387:35,1,120,10|0,0:0|0:0,0:0:0:0:
387,35,66230,2,0,P|328:41|292:87,1,120,2|0,3:2|0:0,0:0:0:0:
276,166,66571,1,2,0:0:0:0:
297,200,66685,1,0,0:0:0:0:
310,209,66799,2,0,P|342:206|371:198,1,60,10|2,0:0|0:0,0:0:0:0:
416,138,67026,2,0,P|442:156|469:168,1,60,2|2,0:0|0:0,0:0:0:0:
506,258,67253,6,0,P|484:289|478:316,1,60,0|0,3:2|0:0,0:0:0:0:
478,309,67480,2,0,P|481:285|470:249,1,60,2|0,0:0|0:0,0:0:0:0:
412,356,67708,2,0,P|379:316|310:289,1,120,10|0,0:0|0:0,0:0:0:0:
244,324,68049,6,0,P|232:275|191:248,1,100,2|0,3:2|0:0,0:0:0:0:
185,246,68314,1,0,3:2:0:0:
177,247,68389,1,0,3:2:0:0:
56,184,68503,2,0,L|207:156,1,120,2|2,0:0|0:0,0:0:0:0:
131,93,68844,2,0,P|103:89|75:105,1,60,2|2,0:0|0:0,0:0:0:0:
13,262,69078,5,6,3:2:0:0:
81,315,69229,1,2,3:2:0:0:
177,247,69381,1,2,0:0:0:0:
5,268,69532,5,2,3:2:0:0:
173,162,69870,6,0,L|324:134,1,120,6|0,3:2|0:0,0:0:0:0:
352,88,70210,1,2,0:0:0:0:
336,53,70324,1,0,0:0:0:0:
346,38,70438,2,0,P|360:16|397:0,1,60,10|2,0:0|0:0,0:0:0:0:
435,64,70665,2,0,P|461:65|493:89,1,60,2|2,0:0|0:0,0:0:0:0:
456,154,70892,6,0,P|467:182|490:208,1,60,0|0,3:2|0:0,0:0:0:0:
486,204,71119,2,0,P|461:186|428:176,1,60,2|0,0:0|0:0,0:0:0:0:
370,222,71346,2,0,P|306:240|250:276,1,120,10|0,0:0|0:0,0:0:0:0:
438,354,71687,2,0,P|383:329|325:319,1,120,2|0,3:2|0:0,0:0:0:0:
260,267,72028,2,0,P|232:268|199:283,1,60,2|0,0:0|0:0,0:0:0:0:
145,326,72255,1,8,0:0:0:0:
77,309,72369,1,2,0:0:0:0:
77,309,72710,6,0,P|50:330|37:355,1,60,2|0,3:2|0:0,0:0:0:0:
37,351,72937,2,0,P|48:324|47:294,1,60,2|0,0:0|0:0,0:0:0:0:
93,230,73164,2,0,P|112:168|143:119,1,120,10|0,0:0|0:0,0:0:0:0:
110,47,73505,2,0,P|68:24|95:62,1,120,2|0,3:2|0:0,0:0:0:0:
141,121,73846,1,2,0:0:0:0:
187,141,73960,1,0,0:0:0:0:
206,132,74073,2,0,P|235:117|270:108,1,60,10|2,0:0|0:0,0:0:0:0:
332,205,74301,2,0,P|305:193|276:187,1,60,2|2,0:0|0:0,0:0:0:0:
241,290,74528,5,0,3:2:0:0:
279,268,74642,1,0,0:0:0:0:
294,274,74755,2,0,P|312:297|325:324,1,60,2|0,0:0|0:0,0:0:0:0:
402,285,74982,2,0,P|408:255|410:225,1,60,10|0,0:0|0:0,0:0:0:0:
466,169,75210,1,0,0:0:0:0:
475,154,75323,1,0,0:0:0:0:
469,140,75437,5,2,0:0:0:0:
466,119,75551,1,2,0:0:0:0:
454,101,75664,1,2,0:0:0:0:
465,73,75778,1,2,0:0:0:0:
474,83,75892,5,2,0:0:0:0:
477,100,76005,1,2,0:0:0:0:
484,116,76119,1,2,0:0:0:0:
474,134,76232,1,2,0:0:0:0:
475,154,76346,6,0,L|309:115,1,143.999995605469,4|0,0:0|0:0,0:0:0:0:
288,64,76687,1,2,0:0:0:0:
288,64,77255,6,0,L|154:95,1,96,2|0,3:2|0:0,0:0:0:0:
137,136,77596,1,2,0:0:0:0:
137,136,78051,5,0,0:0:0:0:
128,143,78164,2,0,L|41:163,1,60,2|2,3:2|0:0,0:0:0:0:
23,214,78392,1,2,0:0:0:0:
194,85,78619,1,8,0:0:0:0:
200,69,78732,1,2,0:0:0:0:
206,53,78846,2,0,L|246:43,1,41.9999987182618,2|2,0:0|3:2,0:0:0:0:
314,82,79073,5,0,3:0:0:0:
324,88,79187,2,0,L|385:73,1,60,2|2,0:0|0:0,0:0:0:0:
439,131,79414,5,2,0:0:0:0:
308,168,79642,1,2,0:0:0:0:
177,205,79869,2,0,L|136:399,1,167.999994873047,2|2,0:2|2:0,0:0:0:0:
142,369,80437,2,0,L|43:383,2,71.9999978027344,10|0|0,2:0|2:0|2:0,0:0:0:0:
216,366,80778,6,0,L|226:317,1,35.9999989013672,2|0,3:3|0:0,0:0:0:0:
140,137,81005,2,0,L|149:88,1,35.9999989013672,2|0,0:0|0:0,0:0:0:0:
33,289,81346,5,8,0:0:0:0:
40,283,81460,1,2,0:0:0:0:
50,286,81573,1,2,0:0:0:0:
61,289,81686,1,2,0:0:0:0:
68,283,81801,6,0,L|243:257,1,176.000005371094,2|0,3:2|0:0,0:0:0:0:
295,201,82179,5,0,0:0:0:0:
303,200,82255,6,0,L|429:181,1,128,10|0,0:0|0:0,0:0:0:0:
497,109,82710,1,2,3:2:0:0:
445,54,82823,2,0,L|439:6,2,48,2|2|2,0:0|0:0|0:0,0:0:0:0:
429,181,83164,2,0,L|435:228,1,48,8|2,0:0|0:0,0:0:0:0:
501,302,83392,5,2,0:0:0:0:
502,310,83467,5,0,0:0:0:0:
503,318,83543,5,0,0:0:0:0:
504,327,83619,5,4,0:0:0:0:
459,369,83732,1,0,0:0:0:0:
406,356,83846,1,2,0:0:0:0:
372,320,83960,1,0,0:0:0:0:
339,290,84073,1,10,0:0:0:0:
298,282,84187,1,2,0:0:0:0:
265,299,84301,1,2,0:0:0:0:
256,314,84414,6,0,P|247:248|232:169,1,120,2|2,0:0|0:0,0:0:0:0:
287,133,84755,1,0,0:0:0:0:
301,98,84869,1,2,0:0:0:0:
316,90,84982,2,0,P|348:82|397:73,1,60,8|2,0:0|0:0,0:0:0:0:
360,4,85210,2,0,P|330:10|301:17,1,60,2|2,0:0|0:0,0:0:0:0:
238,71,85437,6,0,P|208:63|159:56,1,60,2|0,3:2|0:0,0:0:0:0:
121,111,85664,1,0,0:0:0:0:
121,111,85778,1,0,0:0:0:0:
121,111,85892,2,0,P|91:103|42:96,1,60,10|0,0:0|0:0,0:0:0:0:
359,29,86232,1,0,3:2:0:0:
359,29,86346,6,0,P|329:21|280:14,1,60,2|0,3:2|0:0,0:0:0:0:
366,150,86573,2,0,P|348:125|315:87,1,60,2|0,0:0|0:0,0:0:0:0:
293,247,86801,2,0,P|295:216|294:166,1,60,8|2,0:0|0:0,0:0:0:0:
174,274,87028,2,0,P|195:252|226:213,1,60,2|2,0:0|0:0,0:0:0:0:
151,169,87255,5,2,3:2:0:0:
151,179,87369,2,0,P|131:201|111:223,2,60,0|0|2,0:0|0:0|0:0,0:0:0:0:
335,143,87823,2,0,P|315:165|294:187,2,60,2|2|2,0:0|0:0|0:3,0:0:0:0:
465,292,88316,6,0,P|425:339|381:383,1,80,2|2,0:3|0:3,0:0:0:0:
281,265,88619,2,0,P|289:225|295:186,1,80,10|2,0:0|0:3,0:0:0:0:
160,31,88922,2,0,P|188:106|213:183,1,160,2|0,0:0|0:0,0:0:0:0:
371,255,89414,5,0,0:0:0:0:
213,183,89642,1,2,0:0:0:0:
55,111,89869,1,2,0:3:0:0:
55,111,90096,5,2,0:0:0:0:
46,101,90210,2,0,L|31:44,8,47.9999985351563,2|2|2|2|2|2|2|2|2,0:0|0:0|0:0|0:0|0:0|0:0|3:2|3:2|3:2,0:0:0:0:
66,182,90892,5,4,0:0:0:0:
56,210,91005,1,2,0:3:0:0:
169,88,91346,5,8,0:0:0:0:
154,130,91459,1,2,0:3:0:0:
239,253,91801,5,2,0:3:0:0:
219,307,91914,1,2,0:3:0:0:
385,85,92255,5,10,0:0:0:0:
358,152,92368,1,2,0:3:0:0:
469,201,92596,6,0,P|405:216|322:243,1,143.999995605469,2|0,0:0|0:0,0:0:0:0:
273,189,92937,2,0,P|243:186|208:175,1,60,2|0,0:0|0:0,0:0:0:0:
154,130,93164,1,8,0:0:0:0:
109,185,93278,1,2,0:0:0:0:
109,185,93619,6,0,P|89:166|67:128,1,60,2|2,0:0|0:0,0:0:0:0:
149,56,93846,6,0,P|150:86|159:115,1,60,2|2,0:0|0:0,0:0:0:0:
233,81,94073,6,0,P|239:54|261:16,1,60,0|0,3:0|3:0,0:0:0:0:
360,50,94301,6,0,P|334:66|314:88,1,60,8|8,3:2|3:2,0:0:0:0:
381,129,94529,5,6,0:2:0:0:
368,164,94642,1,2,0:3:0:0:
282,209,94983,5,10,0:0:0:0:
265,257,95096,1,2,0:3:0:0:
216,35,95438,5,2,0:3:0:0:
196,89,95551,1,2,0:3:0:0:
75,195,95892,5,10,0:0:0:0:
48,262,96005,1,2,0:3:0:0:
6,88,96232,6,0,P|74:112|151:151,1,143.999995605469,2|0,0:0|0:0,0:0:0:0:
148,221,96573,2,0,P|172:238|195:263,1,60,2|0,0:0|0:0,0:0:0:0:
246,317,96801,5,8,0:0:0:0:
295,349,96914,1,2,0:0:0:0:
328,341,97028,5,0,3:0:0:0:
330,335,97104,5,0,3:0:0:0:
333,329,97179,5,0,3:0:0:0:
337,324,97255,6,0,P|361:302|382:290,1,48,2|2,3:2|0:0,0:0:0:0:
314,225,97482,5,2,0:0:0:0:
261,221,97596,1,2,0:0:0:0:
226,189,97710,1,0,0:0:0:0:
221,146,97823,1,2,0:0:0:0:
243,112,97937,2,0,P|267:108|309:95,1,60,10|10,0:0|0:0,0:0:0:0:
423,21,98164,5,4,3:2:0:0:
511,106,98392,1,0,0:0:0:0:
499,100,98505,1,0,0:0:0:0:
507,116,98619,2,0,P|474:129|441:145,1,66.0000020141602,10|0,0:0|0:0,0:0:0:0:
384,93,98846,1,0,0:0:0:0:
371,89,98959,1,0,0:0:0:0:
385,103,99073,2,0,P|368:134|353:167,1,66.0000020141602,2|0,3:2|0:0,0:0:0:0:
275,164,99301,1,0,0:2:0:0:
263,169,99414,1,0,0:0:0:0:
283,171,99528,6,0,P|290:205|300:241,1,66.0000020141602,10|0,0:0|0:0,0:0:0:0:
209,372,99755,5,2,0:0:0:0:
213,367,99831,1,2,0:0:0:0:
217,362,99907,1,2,0:0:0:0:
222,357,99982,2,0,P|214:322|204:286,1,66.0000020141602,4|0,3:2|0:0,0:0:0:0:
100,268,100210,5,2,0:0:0:0:
104,263,100286,1,2,0:0:0:0:
108,258,100362,1,2,0:0:0:0:
113,253,100437,2,0,P|105:218|95:182,1,66.0000020141602,12|0,0:0|0:0,0:0:0:0:
232,102,100664,5,2,0:0:0:0:
236,97,100740,1,2,0:0:0:0:
240,92,100816,1,2,0:0:0:0:
243,87,100891,2,0,P|235:52|225:16,1,66.0000020141602,4|2,0:0|3:2,0:0:0:0:
13,135,101119,5,2,3:2:0:0:
9,130,101195,1,0,0:0:0:0:
5,125,101271,1,0,0:0:0:0:
0,119,101346,2,0,P|7:85|17:49,2,66.0000020141602,8|8|8,0:0|0:0|0:0,0:0:0:0:
70,0,101687,1,4,3:2:0:0:
227,166,102028,2,0,P|233:142|242:117,6,44.0000013427735,2|2|2|2|2|2|2,0:0|0:0|0:0|0:2|0:0|0:0|0:0,0:0:0:0:
207,240,102596,6,0,P|198:273|188:305,1,66.0000020141602,4|2,3:2|0:0,0:0:0:0:
130,352,102861,5,0,0:0:0:0:
63,304,103013,5,2,0:0:0:0:
4,346,103164,5,2,3:2:0:0:
47,376,103316,5,2,3:2:0:0:
75,352,103467,5,2,3:2:0:0:
51,279,103619,6,0,P|42:235|29:182,1,88.000002685547,4|2,3:2|3:2,0:0:0:0:
121,100,103960,5,0,0:0:0:0:
125,91,104187,5,2,0:0:0:0:
111,72,104301,2,0,P|77:60|44:52,1,66.0000020141602,2|10,0:0|0:2,0:0:0:0:
154,162,104528,2,0,P|187:150|221:142,1,66.0000020141602,2|2,0:0|0:0,0:0:0:0:
316,66,104982,5,2,0:0:0:0:
309,57,105096,1,2,0:0:0:0:
321,46,105210,1,2,0:0:0:0:
312,36,105323,1,2,0:0:0:0:
327,16,105437,6,0,P|371:37|376:63,1,71.9999978027344,4|0,3:2|0:0,0:0:0:0:
454,182,105664,2,0,P|470:213|504:222,1,71.9999978027344,2|0,0:3|0:0,0:0:0:0:
492,95,105891,2,0,P|413:121|342:160,1,143.999995605469,10|2,0:0|0:3,0:0:0:0:
217,345,106346,1,2,3:2:0:0:
209,354,106460,2,0,P|175:360|148:334,1,71.9999978027344,2|2,0:0|0:3,0:0:0:0:
92,276,106687,2,0,P|167:253|249:239,1,143.999995605469,2|0,0:0|0:0,0:0:0:0:
231,241,107028,1,2,0:3:0:0:
250,208,107142,1,2,0:0:0:0:
262,198,107255,6,0,P|296:188|339:182,1,71.9999978027344,2|2,3:2|0:0,0:0:0:0:
98,85,107596,6,0,P|89:70|86:52,1,35.9999989013672,2|0,0:0|0:0,0:0:0:0:
213,94,107823,2,0,P|221:79|235:67,1,35.9999989013672,2|0,0:0|0:0,0:0:0:0:
262,198,108051,6,0,P|279:198|404:249,1,143.999995605469,2|0,0:0|0:0,0:0:0:0:
395,242,108392,1,2,0:3:0:0:
504,58,108619,1,10,0:0:0:0:
499,48,108732,2,0,P|474:27|435:39,1,71.9999978027344,2|2,0:0|0:3,0:0:0:0:
454,109,108960,6,0,P|411:51|353:10,1,143.999995605469,4|0,3:2|0:0,0:0:0:0:
510,164,109301,2,0,P|504:202|481:228,1,71.9999978027344,2|0,0:3|0:0,0:0:0:0:
403,305,109528,1,8,0:0:0:0:
398,315,109641,2,0,P|373:336|334:324,1,71.9999978027344,2|2,0:0|0:3,0:0:0:0:
352,252,109869,6,0,P|310:309|252:352,1,143.999995605469,6|0,0:0|0:0,0:0:0:0:
409,199,110210,2,0,P|403:161|380:135,1,71.9999978027344,2|0,0:3|0:0,0:0:0:0:
316,97,110437,6,0,P|268:91|216:77,1,95.9999970703126,10|2,0:0|0:0,0:0:0:0:
40,71,110778,5,6,0:0:0:0:
109,156,111005,1,2,0:0:0:0:
211,196,111232,1,2,0:0:0:0:
319,180,111460,1,2,0:0:0:0:
404,114,111687,6,0,P|398:69|387:25,1,90.0000034332277,2|0,3:2|0:0,0:0:0:0:
387,25,112028,2,0,P|362:40|362:71,1,60,8|8,0:3|0:3,0:0:0:0:
412,121,112255,1,8,0:0:0:0:
481,142,112369,1,2,0:0:0:0:
481,142,112596,6,0,P|465:209|452:298,1,143.999995605469,6|0,3:2|0:0,0:0:0:0:
397,328,112937,2,0,P|422:302|453:283,1,71.9999978027344,2|0,0:3|0:0,0:0:0:0:
339,369,113164,1,8,0:2:0:0:
271,345,113278,1,2,0:0:0:0:
271,345,113505,6,0,P|260:273|243:203,1,143.999995605469,4|0,0:0|0:0,0:0:0:0:
243,203,113846,1,2,0:3:0:0:
337,93,114073,2,0,P|352:56|267:39,1,143.999995605469,8|2,0:0|0:0,0:0:0:0:
217,79,114414,1,2,0:0:0:0:
203,86,114528,6,0,L|95:102,1,95.9999970703126,2|2,3:2|3:2,0:0:0:0:
29,27,114869,1,4,0:0:0:0:
130,195,115134,1,2,3:2:0:0:
41,344,115323,6,0,P|16:285|4:192,1,143.999995605469,6|0,0:0|0:0,0:0:0:0:
3,206,115664,1,2,0:3:0:0:
162,324,115892,1,8,0:0:0:0:
182,321,116005,1,8,0:0:0:0:
200,342,116119,1,8,0:0:0:0:
200,342,116346,6,0,P|244:321|249:295,1,71.9999978027344,6|0,3:2|0:0,0:0:0:0:
327,176,116573,2,0,P|343:145|377:136,1,71.9999978027344,2|0,0:3|0:0,0:0:0:0:
365,263,116800,2,0,P|286:237|215:198,1,143.999995605469,10|2,0:0|0:3,0:0:0:0:
107,93,117255,2,0,P|57:114|3:114,1,95.9999970703126,2|2,3:2|0:0,0:0:0:0:
310,10,117596,6,0,P|240:43|199:99,1,143.999995605469,2|0,0:0|0:0,0:0:0:0:
165,162,117937,5,2,0:3:0:0:
163,171,118013,5,2,0:0:0:0:
158,179,118088,5,2,0:0:0:0:
153,187,118164,6,0,P|112:196|73:215,2,71.9999978027344,2|2|2,3:2|0:0|0:0,0:0:0:0:
200,263,118505,6,0,P|214:278|240:278,1,35.9999989013672,2|0,3:3|0:0,0:0:0:0:
343,199,118732,2,0,P|363:194|376:171,1,35.9999989013672,2|0,3:3|0:0,0:0:0:0:
456,56,118960,5,2,0:0:0:0:
448,228,119301,5,0,0:0:0:0:
446,235,119377,5,0,0:0:0:0:
445,243,119453,5,2,0:0:0:0:
443,250,119529,5,2,0:0:0:0:
441,257,119604,5,2,0:0:0:0:
440,265,119680,5,10,0:0:0:0:
438,272,119756,5,10,0:0:0:0:
436,279,119832,5,10,0:0:0:0:
435,287,119907,5,10,0:0:0:0:
428,293,119982,6,0,P|390:307|357:324,1,77.9999964294435,12|0,0:2|0:0,0:0:0:0:
294,189,120210,2,0,P|256:175|223:158,1,77.9999964294435,10|0,0:0|0:0,0:0:0:0:
361,237,120437,1,10,0:0:0:0:
361,237,120892,5,6,3:2:0:0:
428,292,121005,2,0,P|391:306|356:324,1,77.9999964294435,2|2,0:0|0:3,0:0:0:0:
293,366,121232,2,0,P|226:344|120:328,1,155.999992858887,2|0,0:0|0:0,0:0:0:0:
47,132,121573,1,2,0:3:0:0:
9,167,121687,1,2,0:0:0:0:
9,193,121801,2,0,P|34:231|71:246,1,77.9999964294435,6|2,3:2|0:0,0:0:0:0:
382,133,122142,6,0,P|363:150|353:172,1,38.9999982147218,2|0,0:0|0:0,0:0:0:0:
268,57,122369,2,0,P|260:81|263:105,1,38.9999982147218,2|0,0:0|0:0,0:0:0:0:
131,48,122596,6,0,P|144:133|184:188,1,155.999992858887,2|0,0:0|0:0,0:0:0:0:
184,188,122937,1,2,0:3:0:0:
369,314,123164,5,10,0:0:0:0:
436,357,123278,2,0,P|477:346|512:340,1,77.9999964294435,2|2,0:0|0:3,0:0:0:0:
293,337,123505,2,0,P|267:290|340:239,1,155.999992858887,4|0,3:2|0:0,0:0:0:0:
412,220,123846,2,0,P|449:208|494:188,1,77.9999964294435,2|0,0:3|0:0,0:0:0:0:
281,145,124073,5,8,0:0:0:0:
215,184,124187,2,0,P|174:173|139:167,1,77.9999964294435,2|2,0:0|0:3,0:0:0:0:
352,168,124414,2,0,P|378:121|305:70,1,155.999992858887,6|0,0:0|0:0,0:0:0:0:
236,47,124755,2,0,P|199:35|154:15,1,77.9999964294435,2|0,0:3|0:0,0:0:0:0:
38,192,124982,6,0,P|89:185|138:166,1,103.999995239258,10|2,0:0|0:0,0:0:0:0:
380,326,125323,5,6,0:0:0:0:
298,219,125550,1,2,0:0:0:0:
173,255,125777,1,2,0:0:0:0:
53,110,126005,1,2,0:0:0:0:
16,283,126232,5,2,0:0:0:0:
26,291,126346,2,0,L|61:284,2,35.9999989013672,8|0|0,3:2|0:0|3:0,0:0:0:0:
40,362,126573,2,0,L|75:355,2,35.9999989013672,8|0|0,3:2|0:0|3:0,0:0:0:0:
145,326,126801,1,2,3:2:0:0:
211,356,126914,1,2,0:0:0:0:
211,356,127142,6,0,P|270:319|358:302,1,155.999992858887,4|0,0:0|0:0,0:0:0:0:
354,302,127482,2,0,P|396:338|426:339,1,77.9999964294435,2|0,0:3|0:0,0:0:0:0:
485,306,127710,1,10,0:0:0:0:
507,237,127823,1,2,0:0:0:0:
236,238,128051,6,0,P|176:201|89:184,1,155.999992858887,4|0,3:2|0:0,0:0:0:0:
92,184,128392,1,2,0:3:0:0:
44,65,128619,2,0,P|71:127|154:115,1,155.999992858887,8|2,0:0|0:0,0:0:0:0:
220,143,128960,1,2,0:0:0:0:
230,131,129073,6,0,B|223:88|223:88|217:82|217:82|208:21,1,103.999995239258,2|8,0:3|0:0,0:0:0:0:
311,150,129414,5,4,3:2:0:0:
132,40,129642,5,10,0:2:0:0:
377,14,129869,6,0,B|374:94|320:70|311:152,1,155.999992858887,6|0,3:2|0:0,0:0:0:0:
311,150,130210,1,2,0:3:0:0:
472,299,130437,1,8,0:0:0:0:
435,267,130551,1,8,0:0:0:0:
407,274,130664,1,8,0:0:0:0:
407,274,130892,6,0,P|371:254|341:232,1,77.9999964294435,4|0,3:2|0:0,0:0:0:0:
258,355,131120,2,0,P|218:362|183:374,1,77.9999964294435,2|0,0:3|0:0,0:0:0:0:
332,318,131346,2,0,P|266:274|187:244,1,155.999992858887,10|2,0:0|0:3,0:0:0:0:
91,105,131801,2,0,P|46:125|-3:155,1,103.999995239258,2|2,3:2|0:0,0:0:0:0:
214,15,132142,6,0,P|209:84|174:177,1,155.999992858887,2|0,0:0|0:0,0:0:0:0:
113,209,132482,5,2,0:3:0:0:
97,207,132558,5,2,0:0:0:0:
82,212,132634,5,2,0:0:0:0:
69,221,132710,6,0,P|55:265|48:305,1,77.9999964294435,4|0,3:2|0:0,0:0:0:0:
121,348,132937,2,0,P|135:304|142:264,1,77.9999964294435,2|0,0:3|0:0,0:0:0:0:
91,105,133164,1,2,0:0:0:0:
109,33,133278,1,0,0:0:0:0:
322,369,133619,5,2,3:2:0:0:
272,273,133770,5,2,3:2:0:0:
490,208,133960,6,0,P|463:278|399:249,1,155.999992858887,2|0,0:0|3:0,0:0:0:0:
364,188,134301,1,0,3:0:0:0:
350,164,134414,1,0,3:0:0:0:
358,147,134528,6,0,P|366:112|372:72,1,66.0000020141602,4|0,3:2|0:0,0:0:0:0:
301,27,134755,2,0,P|293:62|287:102,1,66.0000020141602,2|0,0:3|0:0,0:0:0:0:
301,230,134982,1,10,0:0:0:0:
283,302,135096,1,0,0:0:0:0:
17,363,135437,5,2,0:0:0:0:
89,307,135588,5,2,0:0:0:0:
226,378,135778,6,0,P|283:353|393:331,1,132.00000402832,2|0,0:0|0:0,0:0:0:0:
414,291,136119,5,2,0:3:0:0:
417,283,136195,5,2,0:0:0:0:
424,278,136270,5,2,0:0:0:0:
432,275,136346,6,0,P|460:288|502:295,2,66.0000020141602,2|2|2,3:2|0:0|0:0,0:0:0:0:
352,224,136687,6,0,P|336:213|332:190,1,33.0000010070801,2|0,0:3|0:0,0:0:0:0:
235,42,136914,2,0,P|219:52|209:81,1,35.9999989013672,2|0,0:3|0:0,0:0:0:0:
120,271,137142,5,4,0:0:0:0:
202,283,139528,5,14,0:0:0:0:
202,283,139982,6,0,P|221:264|256:253,1,60,4|0,3:2|0:0,0:0:0:0:
251,253,140210,2,0,P|221:257|193:248,1,60,2|0,0:0|0:0,0:0:0:0:
121,282,140437,2,0,P|69:322|64:375,1,120,10|0,0:0|0:0,0:0:0:0:
63,372,140778,2,0,P|115:332|120:279,1,120,2|0,3:2|0:0,0:0:0:0:
85,211,141119,1,2,0:0:0:0:
73,179,141232,1,0,0:0:0:0:
55,180,141346,2,0,P|27:170|-6:148,1,60,10|2,0:0|0:0,0:0:0:0:
112,114,141573,2,0,P|96:88|85:50,1,60,2|2,0:0|0:0,0:0:0:0:
258,65,141801,6,0,P|282:48|299:11,1,60,0|0,3:2|0:0,0:0:0:0:
297,21,142028,2,0,P|288:47|295:88,1,60,2|0,0:0|0:0,0:0:0:0:
243,147,142255,2,0,P|297:180|355:164,1,120,10|0,0:0|0:0,0:0:0:0:
410,216,142596,2,0,P|406:280|341:288,1,120,2|0,3:2|0:0,0:0:0:0:
298,344,142937,2,0,P|274:328|233:332,1,60,2|0,0:0|0:0,0:0:0:0:
179,373,143164,1,8,0:0:0:0:
118,329,143278,1,2,0:0:0:0:
118,329,143619,6,0,P|86:343|72:364,1,60,2|0,3:2|0:0,0:0:0:0:
72,363,143846,2,0,P|84:330|79:305,1,60,2|0,0:0|0:0,0:0:0:0:
91,230,144073,2,0,P|84:175|75:91,1,120,10|0,0:0|0:0,0:0:0:0:
132,55,144414,2,0,P|159:4|222:19,1,120,2|0,3:2|0:0,0:0:0:0:
279,56,144755,1,2,0:0:0:0:
288,87,144869,1,0,0:0:0:0:
283,99,144982,2,0,P|273:129|266:166,1,60,10|2,0:0|0:0,0:0:0:0:
349,159,145210,2,0,P|361:188|379:221,1,60,2|2,0:0|0:0,0:0:0:0:
437,163,145437,6,0,P|465:177|500:191,1,60,0|0,3:2|0:0,0:0:0:0:
493,142,145664,2,0,P|465:153|436:162,1,60,2|0,0:0|0:0,0:0:0:0:
374,213,145892,2,0,P|337:261|282:237,1,120,10|0,0:0|0:0,0:0:0:0:
233,189,146232,2,0,P|236:130|261:42,1,120,2|0,3:2|0:0,0:0:0:0:
163,65,146572,1,0,3:2:0:0:
163,65,146686,2,0,P|159:123|134:211,1,120,2|2,0:0|0:0,0:0:0:0:
95,244,147028,2,0,P|88:273|86:303,1,60,2|2,0:0|0:0,0:0:0:0:
262,351,147255,6,0,P|299:360|319:375,1,60,4|0,3:2|0:0,0:0:0:0:
316,372,147482,2,0,P|296:339|292:314,1,60,2|0,0:0|0:0,0:0:0:0:
226,278,147710,2,0,P|242:225|309:234,1,120,10|0,0:0|0:0,0:0:0:0:
374,213,148051,2,0,P|427:225|478:178,1,120,2|0,3:2|0:0,0:0:0:0:
494,111,148392,1,2,0:0:0:0:
469,76,148505,1,0,0:0:0:0:
480,60,148619,2,0,P|497:35|497:-3,1,60,10|2,0:0|0:0,0:0:0:0:
371,24,148846,2,0,P|388:48|391:78,1,60,2|2,0:0|0:0,0:0:0:0:
312,146,149073,6,0,P|290:125|262:117,1,60,0|0,3:2|0:0,0:0:0:0:
262,117,149301,2,0,P|291:116|317:101,1,60,2|0,0:0|0:0,0:0:0:0:
186,98,149528,2,0,P|124:77|36:58,1,120,10|0,0:0|0:0,0:0:0:0:
4,108,149869,2,0,P|25:174|81:162,1,120,2|0,3:2|0:0,0:0:0:0:
132,218,150210,2,0,P|158:201|190:206,1,60,2|0,0:0|0:0,0:0:0:0:
252,241,150437,1,8,0:0:0:0:
306,293,150551,1,2,0:0:0:0:
306,293,150892,6,0,P|303:320|278:350,1,60,2|0,3:2|0:0,0:0:0:0:
283,345,151119,2,0,P|304:328|343:324,1,60,2|0,0:0|0:0,0:0:0:0:
376,255,151346,2,0,P|387:188|401:129,1,120,10|0,0:0|0:0,0:0:0:0:
464,96,151687,2,0,P|481:64|414:38,1,120,2|0,3:2|0:0,0:0:0:0:
350,64,152028,1,2,0:0:0:0:
316,77,152142,1,0,0:0:0:0:
296,65,152255,2,0,P|265:51|232:44,1,60,10|2,0:0|0:0,0:0:0:0:
221,122,152482,2,0,P|189:131|158:147,1,60,2|2,0:0|0:0,0:0:0:0:
257,232,152710,5,0,3:2:0:0:
215,208,152823,1,0,0:0:0:0:
200,213,152937,2,0,P|181:240|168:272,1,60,2|0,0:0|0:0,0:0:0:0:
91,248,153164,2,0,P|94:277|102:306,1,60,10|0,0:0|0:0,0:0:0:0:
22,354,153392,1,0,0:0:0:0:
93,381,153505,1,10,0:0:0:0:
93,381,153770,6,0,L|238:357,1,80,2|2,0:3|0:3,0:0:0:0:
293,270,154073,5,2,0:3:0:0:
238,324,154225,1,2,3:3:0:0:
221,248,154376,1,2,3:3:0:0:
426,333,154528,6,0,P|463:344|487:368,1,66.0000020141602,4|0,3:2|0:0,0:0:0:0:
482,362,154755,2,0,P|463:328|463:294,1,66.0000020141602,2|0,0:3|0:0,0:0:0:0:
403,255,154982,2,0,P|410:208|329:172,1,132.00000402832,10|0,0:0|0:3,0:0:0:0:
276,190,155323,2,0,P|206:203|146:231,1,132.00000402832,2|0,3:2|0:0,0:0:0:0:
82,195,155664,1,2,0:3:0:0:
40,168,155778,1,0,0:0:0:0:
35,150,155892,2,0,P|18:120|20:84,1,66.0000020141602,10|2,0:0|0:0,0:0:0:0:
112,91,156119,2,0,P|118:57|142:30,1,66.0000020141602,2|2,0:3|0:0,0:0:0:0:
210,117,156346,6,0,P|236:95|272:90,1,66.0000020141602,0|0,3:2|0:0,0:0:0:0:
266,90,156573,2,0,P|231:86|203:64,1,66.0000020141602,2|0,0:3|0:0,0:0:0:0:
112,91,156801,2,0,P|67:146|72:213,1,132.00000402832,10|2,0:0|0:3,0:0:0:0:
23,277,157142,2,0,P|88:287|166:307,1,132.00000402832,2|0,3:2|0:0,0:0:0:0:
201,364,157482,2,0,P|233:369|272:379,1,66.0000020141602,2|0,0:3|0:0,0:0:0:0:
340,351,157710,1,8,0:0:0:0:
366,279,157823,1,2,0:0:0:0:
366,279,158164,6,0,P|339:258|296:259,1,66.0000020141602,6|0,3:2|0:0,0:0:0:0:
308,255,158392,2,0,P|341:250|371:219,1,66.0000020141602,2|0,0:3|0:0,0:0:0:0:
439,198,158619,2,0,P|485:160|483:88,1,132.00000402832,10|2,0:0|0:3,0:0:0:0:
428,38,158960,2,0,P|382:76|384:148,1,132.00000402832,2|0,3:2|0:0,0:0:0:0:
439,198,159301,1,2,0:3:0:0:
474,231,159414,1,0,0:0:0:0:
473,249,159528,2,0,P|464:278|437:308,1,66.0000020141602,10|2,0:0|0:0,0:0:0:0:
366,279,159755,2,0,P|340:295|300:301,1,66.0000020141602,2|2,0:3|0:0,0:0:0:0:
264,233,159982,6,0,P|233:229|203:206,1,66.0000020141602,0|0,3:2|0:0,0:0:0:0:
205,208,160210,2,0,P|223:232|229:270,1,66.0000020141602,2|0,0:3|0:0,0:0:0:0:
168,317,160437,2,0,P|128:283|140:191,1,132.00000402832,10|0,0:0|0:0,0:0:0:0:
105,74,160778,2,0,P|163:125|217:110,1,132.00000402832,2|8,0:0|0:0,0:0:0:0:
277,73,161119,1,2,3:0:0:0:
320,98,161232,1,2,3:2:0:0:
334,94,161346,2,0,P|365:91|411:83,3,66.0000020141602,8|8|2|2,0:0|0:0|3:0|3:2,0:0:0:0:
471,181,161801,6,0,P|463:158|479:112,1,66.0000020141602,4|0,3:2|0:0,0:0:0:0:
474,118,162028,2,0,P|463:139|419:160,1,66.0000020141602,2|0,0:0|0:0,0:0:0:0:
415,239,162255,2,0,P|361:291|306:288,1,132.00000402832,10|2,0:0|0:3,0:0:0:0:
239,328,162596,2,0,P|229:264|211:184,1,132.00000402832,2|0,3:2|0:0,0:0:0:0:
164,137,162937,1,2,0:3:0:0:
147,100,163051,1,0,0:0:0:0:
153,85,163164,2,0,P|168:53|199:23,1,66.0000020141602,10|2,0:0|0:0,0:0:0:0:
255,77,163392,2,0,P|287:62|330:59,1,66.0000020141602,2|2,0:3|0:0,0:0:0:0:
350,134,163619,6,0,P|384:143|419:168,1,66.0000020141602,4|0,3:2|0:0,0:0:0:0:
409,159,163846,2,0,P|392:130|384:98,1,66.0000020141602,2|0,0:3|0:0,0:0:0:0:
475,213,164073,2,0,P|445:258|461:344,1,132.00000402832,10|2,0:0|0:3,0:0:0:0:
453,332,164414,2,0,P|420:288|334:274,1,132.00000402832,2|0,3:2|0:0,0:0:0:0:
286,318,164755,2,0,P|260:299|219:304,1,66.0000020141602,2|0,0:3|0:0,0:0:0:0:
157,333,164982,1,8,0:0:0:0:
98,286,165096,1,2,0:0:0:0:
98,286,165437,6,0,P|68:304|54:333,1,66.0000020141602,6|0,3:2|0:0,0:0:0:0:
54,330,165664,2,0,P|62:298|53:267,1,66.0000020141602,2|0,0:3|0:0,0:0:0:0:
104,208,165892,2,0,P|88:150|148:108,1,132.00000402832,10|2,0:0|0:3,0:0:0:0:
201,68,166232,2,0,P|268:94|331:102,1,132.00000402832,2|0,3:2|0:0,0:0:0:0:
392,58,166573,1,2,0:0:0:0:
430,37,166687,1,0,0:0:0:0:
448,43,166801,2,0,P|486:61|504:79,1,66.0000020141602,10|2,0:0|0:0,0:0:0:0:
458,143,167028,2,0,P|475:181|477:206,1,66.0000020141602,2|2,0:3|0:0,0:0:0:0:
406,239,167255,6,0,P|394:279|380:300,1,66.0000020141602,0|2,3:2|0:0,0:0:0:0:
381,298,167482,2,0,P|417:277|442:272,1,66.0000020141602,2|2,0:3|0:0,0:0:0:0:
315,342,167710,2,0,P|281:344|252:315,1,66.0000020141602,10|2,0:0|0:0,0:0:0:0:
219,259,167937,1,2,0:3:0:0:
150,290,168051,1,6,0:0:0:0:
256,192,168164,12,8,169982,0:0:0:0:
256,53,170437,6,0,B|270:122|220:114|230:180,1,132.00000402832,14|0,0:0|0:0,0:0:0:0:
277,237,170778,1,14,0:0:0:0:
