osu file format v14

[General]
AudioFilename: audio.mp3
AudioLeadIn: 0
PreviewTime: 102174
Countdown: 0
SampleSet: Drum
StackLeniency: 0.7
Mode: 3
LetterboxInBreaks: 0
SpecialStyle: 0
WidescreenStoryboard: 1

[Editor]
Bookmarks: 24689,27432,46632,49375,102174,113146
DistanceSpacing: 0.9
BeatDivisor: 4
GridSize: 32
TimelineZoom: 2.299999

[Metadata]
Title:Sapphire On Fire
TitleUnicode:燃えよサファイア
Artist:NIWASHI
ArtistUnicode:庭師
Creator:[WP]Danitskin
Version:elexire's Gem
Source:太鼓の達人
Tags:jazz instrumental taiko no tatsujin ドンだー!世界一決定戦2021 Donder! WORLD CHAMPIONSHIP 2021 moe yo ニジイロVer.2021 tech speedjack elexire Polarin olivertruck
BeatmapID:3960591
BeatmapSetID:1775437

[Difficulty]
HPDrainRate:8
CircleSize:4
OverallDifficulty:7.5
ApproachRate:5
SliderMultiplier:1.4
SliderTickRate:1

[Events]
//Background and Video events
0,0,"ajsd6e447d0864f46985.png",0,0
//Break Periods
//Storyboard Layer 0 (Background)
//Storyboard Layer 1 (Fail)
//Storyboard Layer 2 (Pass)
//Storyboard Layer 3 (Foreground)
//Storyboard Layer 4 (Overlay)
//Storyboard Sound Samples

[TimingPoints]
1375,342.857142857143,4,3,1,70,1,0
13546,-100,4,2,0,70,0,0
21946,-100,4,3,1,70,0,0
52117,-100,4,2,0,70,0,0
54860,-100,4,3,1,70,0,0
57603,-100,4,2,1,70,0,0
65403,-100,4,3,1,70,0,0
65832,-100,4,2,1,70,0,0
66860,-100,4,3,1,70,0,0
66946,-100,4,2,1,70,0,0
67203,-100,4,3,1,70,0,0
74060,-100,4,2,1,70,0,0
79003,-100,4,3,1,70,0,0
99432,342.857142857143,4,3,1,70,1,0
102174,-100,4,2,1,70,0,0
110403,-100,4,3,1,70,0,0
118632,-100,4,2,1,70,0,0
119232,-100,4,3,1,70,0,0
119317,-100,4,2,1,70,0,0
121374,-100,4,3,1,70,0,0

[HitObjects]
320,192,2060,5,0,0:0:0:0:
64,192,2060,1,0,0:0:0:0:
192,192,2060,1,0,0:0:0:0:
192,192,2175,1,0,0:0:0:0:
64,192,2175,1,0,0:0:0:0:
320,192,2175,1,0,0:0:0:0:
320,192,2289,1,0,0:0:0:0:
192,192,2289,1,0,0:0:0:0:
64,192,2289,1,0,0:0:0:0:
64,192,2403,1,0,0:0:0:0:
192,192,2403,1,0,0:0:0:0:
320,192,2403,1,0,0:0:0:0:
448,192,2575,1,0,0:0:0:0:
192,192,2660,1,0,0:0:0:0:
64,192,2746,128,0,2832:0:0:0:0:
320,192,2746,128,0,2917:0:0:0:0:
192,192,2832,1,0,0:0:0:0:
448,192,2917,1,0,0:0:0:0:
64,192,3003,128,0,3260:0:0:0:0:
320,192,3003,128,0,3175:0:0:0:0:
448,192,3089,1,0,0:0:0:0:
320,192,3260,128,0,3346:0:0:0:0:
448,192,3346,1,0,0:0:0:0:
64,192,3346,1,0,0:0:0:0:
192,192,3432,128,0,3603:0:0:0:0:
320,192,3432,128,0,3517:0:0:0:0:
448,192,3517,1,0,0:0:0:0:
320,192,3603,1,0,0:0:0:0:
64,192,3689,128,0,3946:0:0:0:0:
192,192,3689,128,0,3860:0:0:0:0:
320,192,3775,1,0,0:0:0:0:
448,192,3775,1,0,0:0:0:0:
320,192,3946,128,0,4032:0:0:0:0:
192,192,4117,128,0,4203:0:0:0:0:
64,192,4117,128,0,4289:0:0:0:0:
448,192,4203,1,0,0:0:0:0:
320,192,4289,1,0,0:0:0:0:
192,192,4375,128,0,4546:0:0:0:0:
448,192,4375,128,0,4632:0:0:0:0:
64,192,4460,1,0,0:0:0:0:
64,192,4632,128,0,4717:0:0:0:0:
320,192,4717,1,0,0:0:0:0:
448,192,4717,1,0,0:0:0:0:
192,192,4803,128,0,4975:0:0:0:0:
448,192,4889,128,0,4975:0:0:0:0:
320,192,4889,128,0,5060:0:0:0:0:
64,192,4975,1,0,0:0:0:0:
192,192,5060,128,0,5146:0:0:0:0:
320,192,5146,128,0,5232:0:0:0:0:
448,192,5146,128,0,5317:0:0:0:0:
192,192,5317,1,0,0:0:0:0:
64,192,5317,1,0,0:0:0:0:
320,192,5403,1,0,0:0:0:0:
448,192,5403,1,0,0:0:0:0:
192,192,5489,128,0,5575:0:0:0:0:
64,192,5489,128,0,5703:0:0:0:0:
320,192,5575,1,0,0:0:0:0:
192,192,5660,1,0,0:0:0:0:
320,192,5746,128,0,5917:0:0:0:0:
448,192,5746,128,0,6003:0:0:0:0:
64,192,5832,1,0,0:0:0:0:
192,192,6003,128,0,6089:0:0:0:0:
64,192,6089,1,0,0:0:0:0:
448,192,6089,1,0,0:0:0:0:
320,192,6175,128,0,6346:0:0:0:0:
192,192,6175,128,0,6260:0:0:0:0:
64,192,6260,1,0,0:0:0:0:
192,192,6346,1,0,0:0:0:0:
320,192,6432,128,0,6603:0:0:0:0:
448,192,6432,128,0,6689:0:0:0:0:
64,192,6517,1,0,0:0:0:0:
192,192,6517,1,0,0:0:0:0:
320,192,6689,128,0,6775:0:0:0:0:
192,192,6860,128,0,6946:0:0:0:0:
64,192,6860,128,0,7032:0:0:0:0:
320,192,6946,1,0,0:0:0:0:
192,192,7032,1,0,0:0:0:0:
448,192,7032,1,0,0:0:0:0:
320,192,7117,128,0,7289:0:0:0:0:
64,192,7117,128,0,7375:0:0:0:0:
192,192,7203,1,0,0:0:0:0:
448,192,7289,1,0,0:0:0:0:
192,192,7375,128,0,7460:0:0:0:0:
448,192,7460,1,0,0:0:0:0:
64,192,7460,1,0,0:0:0:0:
192,192,7546,128,0,7717:0:0:0:0:
64,192,7632,128,0,7717:0:0:0:0:
320,192,7632,128,0,7803:0:0:0:0:
448,192,7717,1,0,0:0:0:0:
192,192,7803,128,0,7889:0:0:0:0:
320,192,7889,128,0,8060:0:0:0:0:
64,192,7889,128,0,7975:0:0:0:0:
448,192,7946,1,0,0:0:0:0:
192,192,8003,1,0,0:0:0:0:
64,192,8060,1,0,0:0:0:0:
448,192,8146,1,0,0:0:0:0:
320,192,8146,1,0,0:0:0:0:
192,192,8232,128,0,8346:0:0:0:0:
64,192,8232,128,0,8346:0:0:0:0:
448,192,8346,128,0,8575:0:0:0:0:
192,192,8460,128,0,8575:0:0:0:0:
64,192,8460,128,0,8689:0:0:0:0:
320,192,8575,1,0,0:0:0:0:
192,192,8689,128,0,8803:0:0:0:0:
320,192,8803,1,0,0:0:0:0:
192,192,8917,128,0,9032:0:0:0:0:
448,192,8917,1,0,0:0:0:0:
64,192,8917,128,0,9032:0:0:0:0:
64,192,9146,128,0,9260:0:0:0:0:
320,192,9146,128,0,9375:0:0:0:0:
64,192,9375,128,0,9489:0:0:0:0:
448,192,9375,128,0,9489:0:0:0:0:
192,192,9489,128,0,9603:0:0:0:0:
64,192,9603,1,0,0:0:0:0:
448,192,9603,128,0,9717:0:0:0:0:
320,192,9603,128,0,9832:0:0:0:0:
448,192,9832,128,0,9946:0:0:0:0:
192,192,9832,128,0,9946:0:0:0:0:
192,192,10060,1,0,0:0:0:0:
448,192,10060,128,0,10175:0:0:0:0:
320,192,10117,1,0,0:0:0:0:
64,192,10160,1,0,0:0:0:0:
192,192,10203,1,0,0:0:0:0:
320,192,10246,1,0,0:0:0:0:
64,192,10289,128,0,10403:0:0:0:0:
448,192,10289,128,0,10517:0:0:0:0:
192,192,10403,128,0,10517:0:0:0:0:
64,192,10517,128,0,10632:0:0:0:0:
320,192,10517,128,0,10632:0:0:0:0:
448,192,10632,128,0,10746:0:0:0:0:
64,192,10746,128,0,10860:0:0:0:0:
192,192,10746,1,0,0:0:0:0:
320,192,10860,128,0,10975:0:0:0:0:
192,192,10917,1,0,0:0:0:0:
64,192,10975,128,0,11232:0:0:0:0:
448,192,10975,128,0,11060:0:0:0:0:
192,192,11232,1,0,0:0:0:0:
320,192,11317,1,0,0:0:0:0:
448,192,11317,1,0,0:0:0:0:
448,192,11403,1,0,0:0:0:0:
320,192,11403,1,0,0:0:0:0:
192,192,11489,128,0,11660:0:0:0:0:
64,192,11489,128,0,11832:0:0:0:0:
320,192,11746,1,0,0:0:0:0:
192,192,11832,1,0,0:0:0:0:
448,192,11832,1,0,0:0:0:0:
448,192,11917,1,0,0:0:0:0:
192,192,11917,1,0,0:0:0:0:
64,192,12003,128,0,12346:0:0:0:0:
320,192,12003,128,0,12517:0:0:0:0:
192,192,12517,1,0,0:0:0:0:
64,192,12517,1,0,0:0:0:0:
448,192,12575,1,0,0:0:0:0:
320,192,12632,1,0,0:0:0:0:
64,192,12689,1,0,0:0:0:0:
192,192,12746,1,0,0:0:0:0:
448,192,12746,1,0,0:0:0:0:
320,192,12803,1,0,0:0:0:0:
64,192,12860,1,0,0:0:0:0:
192,192,12917,1,0,0:0:0:0:
448,192,12975,1,0,0:0:0:0:
320,192,13032,1,0,0:0:0:0:
64,192,13032,1,0,0:0:0:0:
320,192,13546,1,0,0:0:0:0:
192,192,13632,1,0,0:0:0:0:
64,192,13717,128,0,14060:0:0:0:0:
448,192,13717,128,0,13832:0:0:0:0:
448,192,13946,128,0,14175:0:0:0:0:
320,192,13946,1,0,0:0:0:0:
192,192,14175,128,0,14403:0:0:0:0:
448,192,14289,1,0,0:0:0:0:
320,192,14403,128,0,14632:0:0:0:0:
448,192,14517,1,0,0:0:0:0:
64,192,14632,1,0,0:0:0:0:
192,192,14746,128,0,14975:0:0:0:0:
320,192,14860,1,0,0:0:0:0:
64,192,14975,1,0,0:0:0:0:
448,192,15089,128,0,15317:0:0:0:0:
192,192,15203,1,0,0:0:0:0:
320,192,15317,128,0,15546:0:0:0:0:
64,192,15432,1,0,0:0:0:0:
448,192,15546,1,0,0:0:0:0:
192,192,15660,1,0,0:0:0:0:
320,192,15775,128,0,16003:0:0:0:0:
448,192,15889,1,0,0:0:0:0:
192,192,16003,1,0,0:0:0:0:
64,192,16117,128,0,16346:0:0:0:0:
320,192,16232,1,0,0:0:0:0:
192,192,16346,1,0,0:0:0:0:
320,192,16460,128,0,16575:0:0:0:0:
448,192,16460,128,0,16689:0:0:0:0:
64,192,16689,128,0,16917:0:0:0:0:
192,192,16689,1,0,0:0:0:0:
320,192,16803,1,0,0:0:0:0:
448,192,16917,128,0,17146:0:0:0:0:
192,192,17032,1,0,0:0:0:0:
64,192,17146,128,0,17375:0:0:0:0:
448,192,17260,1,0,0:0:0:0:
192,192,17375,1,0,0:0:0:0:
448,192,17489,128,0,17717:0:0:0:0:
320,192,17603,1,0,0:0:0:0:
64,192,17717,1,0,0:0:0:0:
320,192,17832,128,0,18060:0:0:0:0:
192,192,17946,1,0,0:0:0:0:
64,192,18060,128,0,18403:0:0:0:0:
448,192,18175,1,0,0:0:0:0:
192,192,18289,1,0,0:0:0:0:
320,192,18403,1,0,0:0:0:0:
448,192,18460,1,0,0:0:0:0:
192,192,18517,128,0,18860:0:0:0:0:
64,192,18517,128,0,18632:0:0:0:0:
320,192,18746,1,0,0:0:0:0:
64,192,18746,1,0,0:0:0:0:
448,192,18860,1,0,0:0:0:0:
320,192,18975,1,0,0:0:0:0:
192,192,19203,128,0,19432:0:0:0:0:
320,192,19317,1,0,0:0:0:0:
64,192,19375,1,0,0:0:0:0:
448,192,19432,128,0,19632:0:0:0:0:
320,192,19546,1,0,0:0:0:0:
192,192,19632,128,0,19889:0:0:0:0:
448,192,19775,1,0,0:0:0:0:
320,192,19889,128,0,20232:0:0:0:0:
64,192,20003,1,0,0:0:0:0:
448,192,20117,128,0,20232:0:0:0:0:
192,192,20232,128,0,20375:0:0:0:0:
64,192,20232,128,0,20575:0:0:0:0:
448,192,20346,1,0,0:0:0:0:
192,192,20460,1,0,0:0:0:0:
320,192,20575,128,0,20746:0:0:0:0:
448,192,20575,128,0,20917:0:0:0:0:
192,192,20803,1,0,0:0:0:0:
64,192,20917,128,0,21089:0:0:0:0:
320,192,20917,128,0,21260:0:0:0:0:
448,192,21260,128,0,21432:0:0:0:0:
192,192,21260,128,0,21603:0:0:0:0:
320,192,21489,1,0,0:0:0:0:
64,192,21489,1,0,0:0:0:0:
448,192,21603,128,0,21775:0:0:0:0:
320,192,21775,128,0,21946:0:0:0:0:
192,192,21860,1,0,0:0:0:0:
64,192,21946,128,0,22203:0:0:0:0:
448,192,21946,128,0,22032:0:0:0:0:
192,192,22032,128,0,22117:0:0:0:0:
320,192,22117,128,0,22375:0:0:0:0:
448,192,22203,128,0,22289:0:0:0:0:
192,192,22203,128,0,22246:0:0:0:0:
192,192,22375,128,0,22546:0:0:0:0:
64,192,22375,128,0,22460:0:0:0:0:
448,192,22460,128,0,22546:0:0:0:0:
64,192,22546,128,0,22632:0:0:0:0:
320,192,22546,128,0,22589:0:0:0:0:
192,192,22717,128,0,22803:0:0:0:0:
320,192,22803,128,0,22975:0:0:0:0:
448,192,22889,128,0,22975:0:0:0:0:
192,192,22975,128,0,23146:0:0:0:0:
64,192,22975,128,0,23060:0:0:0:0:
320,192,23146,128,0,23232:0:0:0:0:
192,192,23232,128,0,23317:0:0:0:0:
64,192,23232,1,0,0:0:0:0:
448,192,23232,128,0,23489:0:0:0:0:
320,192,23489,1,0,0:0:0:0:
192,192,23546,1,0,0:0:0:0:
64,192,23603,1,0,0:0:0:0:
448,192,23660,1,0,0:0:0:0:
320,192,23660,128,0,23717:0:0:0:0:
192,192,23717,128,0,23775:0:0:0:0:
64,192,23746,1,0,0:0:0:0:
448,192,23775,128,0,23832:0:0:0:0:
320,192,23832,128,0,23917:0:0:0:0:
192,192,23917,128,0,24003:0:0:0:0:
64,192,24003,1,0,0:0:0:0:
320,192,24003,1,0,0:0:0:0:
192,192,24089,1,0,0:0:0:0:
448,192,24089,1,0,0:0:0:0:
320,192,24175,128,0,24260:0:0:0:0:
192,192,24260,128,0,24346:0:0:0:0:
64,192,24260,1,0,0:0:0:0:
448,192,24346,1,0,0:0:0:0:
320,192,24346,128,0,24432:0:0:0:0:
64,192,24432,128,0,24517:0:0:0:0:
192,192,24517,128,0,24603:0:0:0:0:
320,192,24603,128,0,24689:0:0:0:0:
448,192,24689,128,0,24860:0:0:0:0:
64,192,24689,128,0,24775:0:0:0:0:
192,192,24689,128,0,24775:0:0:0:0:
64,192,24860,1,0,0:0:0:0:
320,192,24946,128,0,25032:0:0:0:0:
448,192,24946,128,0,25117:0:0:0:0:
64,192,25117,128,0,25203:0:0:0:0:
192,192,25203,128,0,25289:0:0:0:0:
320,192,25203,128,0,25289:0:0:0:0:
448,192,25289,1,0,0:0:0:0:
192,192,25375,128,0,25460:0:0:0:0:
320,192,25375,128,0,25546:0:0:0:0:
64,192,25546,1,0,0:0:0:0:
192,192,25632,1,0,0:0:0:0:
320,192,25717,128,0,25889:0:0:0:0:
448,192,25717,128,0,25803:0:0:0:0:
64,192,25889,1,0,0:0:0:0:
320,192,25975,1,0,0:0:0:0:
64,192,26060,128,0,26146:0:0:0:0:
448,192,26060,128,0,26232:0:0:0:0:
192,192,26232,128,0,26317:0:0:0:0:
64,192,26317,128,0,26403:0:0:0:0:
320,192,26317,128,0,26575:0:0:0:0:
448,192,26403,1,0,0:0:0:0:
192,192,26489,1,0,0:0:0:0:
64,192,26575,128,0,26660:0:0:0:0:
320,192,26660,1,0,0:0:0:0:
192,192,26660,128,0,26746:0:0:0:0:
448,192,26746,128,0,26832:0:0:0:0:
64,192,26832,128,0,26917:0:0:0:0:
192,192,26832,128,0,26917:0:0:0:0:
320,192,26917,128,0,27003:0:0:0:0:
448,192,27003,128,0,27089:0:0:0:0:
64,192,27089,128,0,27175:0:0:0:0:
192,192,27089,128,0,27260:0:0:0:0:
320,192,27175,128,0,27260:0:0:0:0:
448,192,27260,128,0,27346:0:0:0:0:
64,192,27346,1,0,0:0:0:0:
320,192,27432,128,0,27689:0:0:0:0:
192,192,27432,128,0,27603:0:0:0:0:
448,192,27432,128,0,27517:0:0:0:0:
448,192,27689,128,0,27946:0:0:0:0:
64,192,27689,128,0,27860:0:0:0:0:
192,192,27946,128,0,28032:0:0:0:0:
64,192,27946,128,0,28032:0:0:0:0:
448,192,28032,1,0,0:0:0:0:
320,192,28032,1,0,0:0:0:0:
192,192,28117,128,0,28289:0:0:0:0:
64,192,28117,128,0,28375:0:0:0:0:
320,192,28289,1,0,0:0:0:0:
192,192,28375,1,0,0:0:0:0:
64,192,28460,128,0,28717:0:0:0:0:
320,192,28460,128,0,28632:0:0:0:0:
448,192,28632,1,0,0:0:0:0:
320,192,28717,1,0,0:0:0:0:
192,192,28803,128,0,28889:0:0:0:0:
64,192,28803,128,0,28975:0:0:0:0:
448,192,28975,1,0,0:0:0:0:
320,192,29060,128,0,29146:0:0:0:0:
192,192,29060,128,0,29232:0:0:0:0:
448,192,29146,1,0,0:0:0:0:
64,192,29232,1,0,0:0:0:0:
320,192,29317,128,0,29403:0:0:0:0:
448,192,29317,128,0,29403:0:0:0:0:
192,192,29403,1,0,0:0:0:0:
64,192,29403,1,0,0:0:0:0:
320,192,29489,128,0,29660:0:0:0:0:
448,192,29489,128,0,29746:0:0:0:0:
192,192,29575,1,0,0:0:0:0:
64,192,29660,1,0,0:0:0:0:
320,192,29746,128,0,29832:0:0:0:0:
64,192,29832,128,0,29917:0:0:0:0:
192,192,29832,128,0,30003:0:0:0:0:
448,192,29917,128,0,30003:0:0:0:0:
320,192,30003,128,0,30089:0:0:0:0:
64,192,30089,128,0,30175:0:0:0:0:
192,192,30175,128,0,30260:0:0:0:0:
448,192,30175,128,0,30346:0:0:0:0:
320,192,30175,128,0,30260:0:0:0:0:
320,192,30346,1,0,0:0:0:0:
448,192,30432,128,0,30517:0:0:0:0:
192,192,30432,128,0,30603:0:0:0:0:
320,192,30603,1,0,0:0:0:0:
192,192,30689,128,0,30775:0:0:0:0:
64,192,30689,128,0,30775:0:0:0:0:
320,192,30775,1,0,0:0:0:0:
448,192,30775,1,0,0:0:0:0:
64,192,30860,128,0,30946:0:0:0:0:
192,192,30860,128,0,31032:0:0:0:0:
320,192,31032,1,0,0:0:0:0:
192,192,31117,1,0,0:0:0:0:
448,192,31117,1,0,0:0:0:0:
320,192,31203,128,0,31289:0:0:0:0:
64,192,31203,128,0,31375:0:0:0:0:
192,192,31375,1,0,0:0:0:0:
320,192,31460,1,0,0:0:0:0:
448,192,31460,1,0,0:0:0:0:
192,192,31546,128,0,31717:0:0:0:0:
64,192,31546,128,0,31632:0:0:0:0:
448,192,31717,1,0,0:0:0:0:
192,192,31803,1,0,0:0:0:0:
320,192,31889,128,0,32060:0:0:0:0:
64,192,31889,128,0,31975:0:0:0:0:
192,192,32060,1,0,0:0:0:0:
320,192,32146,1,0,0:0:0:0:
448,192,32232,128,0,32403:0:0:0:0:
192,192,32232,128,0,32317:0:0:0:0:
64,192,32317,1,0,0:0:0:0:
320,192,32403,1,0,0:0:0:0:
192,192,32489,1,0,0:0:0:0:
64,192,32489,1,0,0:0:0:0:
320,192,32575,128,0,32746:0:0:0:0:
448,192,32575,128,0,32660:0:0:0:0:
64,192,32660,1,0,0:0:0:0:
448,192,32746,128,0,32917:0:0:0:0:
192,192,32746,128,0,32832:0:0:0:0:
320,192,32832,1,0,0:0:0:0:
192,192,32917,128,0,33003:0:0:0:0:
64,192,32917,128,0,33089:0:0:0:0:
320,192,33003,128,0,33175:0:0:0:0:
448,192,33089,128,0,33175:0:0:0:0:
192,192,33175,128,0,33217:0:0:0:0:
64,192,33175,128,0,33260:0:0:0:0:
448,192,33346,128,0,33517:0:0:0:0:
320,192,33346,128,0,33432:0:0:0:0:
192,192,33432,128,0,33517:0:0:0:0:
64,192,33517,128,0,33560:0:0:0:0:
320,192,33517,128,0,33603:0:0:0:0:
192,192,33689,128,0,33775:0:0:0:0:
320,192,33775,128,0,33860:0:0:0:0:
64,192,33860,128,0,33946:0:0:0:0:
192,192,33946,128,0,34032:0:0:0:0:
448,192,33946,128,0,34117:0:0:0:0:
320,192,34117,128,0,34203:0:0:0:0:
192,192,34203,128,0,34289:0:0:0:0:
64,192,34203,128,0,34632:0:0:0:0:
448,192,34203,1,0,0:0:0:0:
448,192,34632,1,0,0:0:0:0:
320,192,34632,128,0,34717:0:0:0:0:
192,192,34717,128,0,34803:0:0:0:0:
448,192,34803,128,0,34889:0:0:0:0:
64,192,34889,128,0,34975:0:0:0:0:
320,192,34975,128,0,35060:0:0:0:0:
192,192,35060,128,0,35146:0:0:0:0:
448,192,35146,128,0,35232:0:0:0:0:
320,192,35232,128,0,35317:0:0:0:0:
448,192,35317,128,0,35403:0:0:0:0:
192,192,35375,1,0,0:0:0:0:
320,192,35432,1,0,0:0:0:0:
64,192,35489,128,0,35575:0:0:0:0:
448,192,35532,1,0,0:0:0:0:
320,192,35603,1,0,0:0:0:0:
64,192,35660,128,0,35832:0:0:0:0:
192,192,35660,128,0,35746:0:0:0:0:
448,192,35660,128,0,35746:0:0:0:0:
448,192,35832,1,0,0:0:0:0:
320,192,35875,1,0,0:0:0:0:
192,192,35917,128,0,36003:0:0:0:0:
64,192,35917,128,0,36003:0:0:0:0:
320,192,36089,128,0,36260:0:0:0:0:
192,192,36089,128,0,36175:0:0:0:0:
448,192,36175,128,0,36260:0:0:0:0:
192,192,36260,128,0,36346:0:0:0:0:
64,192,36346,128,0,36432:0:0:0:0:
320,192,36432,128,0,36517:0:0:0:0:
192,192,36517,128,0,36603:0:0:0:0:
64,192,36603,128,0,36689:0:0:0:0:
320,192,36689,128,0,36775:0:0:0:0:
448,192,36689,128,0,36860:0:0:0:0:
192,192,36775,128,0,36860:0:0:0:0:
320,192,36860,128,0,36946:0:0:0:0:
64,192,36860,128,0,37032:0:0:0:0:
448,192,36946,128,0,37032:0:0:0:0:
192,192,37032,128,0,37117:0:0:0:0:
448,192,37117,128,0,37203:0:0:0:0:
320,192,37203,128,0,37375:0:0:0:0:
64,192,37289,1,0,0:0:0:0:
192,192,37375,128,0,37460:0:0:0:0:
448,192,37460,128,0,37546:0:0:0:0:
320,192,37460,128,0,37503:0:0:0:0:
64,192,37546,128,0,37632:0:0:0:0:
320,192,37632,128,0,37717:0:0:0:0:
448,192,37717,128,0,37803:0:0:0:0:
64,192,37717,1,0,0:0:0:0:
192,192,37803,1,0,0:0:0:0:
64,192,37889,128,0,37975:0:0:0:0:
320,192,37889,128,0,38060:0:0:0:0:
192,192,37975,128,0,38060:0:0:0:0:
448,192,38060,128,0,38146:0:0:0:0:
192,192,38146,128,0,38232:0:0:0:0:
64,192,38232,128,0,38317:0:0:0:0:
320,192,38317,1,0,0:0:0:0:
448,192,38317,128,0,38403:0:0:0:0:
192,192,38403,1,0,0:0:0:0:
64,192,38403,1,0,0:0:0:0:
192,192,38575,128,0,38660:0:0:0:0:
320,192,38575,128,0,38832:0:0:0:0:
448,192,38575,128,0,38746:0:0:0:0:
64,192,38575,1,0,0:0:0:0:
320,192,38917,128,0,38975:0:0:0:0:
192,192,38975,128,0,39032:0:0:0:0:
64,192,39032,128,0,39089:0:0:0:0:
320,192,39089,128,0,39175:0:0:0:0:
448,192,39089,128,0,39260:0:0:0:0:
192,192,39175,1,0,0:0:0:0:
64,192,39260,128,0,39346:0:0:0:0:
320,192,39260,128,0,39432:0:0:0:0:
192,192,39346,1,0,0:0:0:0:
64,192,39432,128,0,39603:0:0:0:0:
448,192,39432,128,0,39517:0:0:0:0:
320,192,39517,1,0,0:0:0:0:
192,192,39603,128,0,39689:0:0:0:0:
320,192,39689,128,0,39775:0:0:0:0:
192,192,39775,1,0,0:0:0:0:
64,192,39775,128,0,39860:0:0:0:0:
448,192,39817,128,0,39903:0:0:0:0:
320,192,39860,1,0,0:0:0:0:
192,192,39903,128,0,39989:0:0:0:0:
64,192,39946,128,0,40032:0:0:0:0:
448,192,40032,128,0,40203:0:0:0:0:
320,192,40032,1,0,0:0:0:0:
192,192,40117,128,0,40203:0:0:0:0:
64,192,40203,128,0,40289:0:0:0:0:
320,192,40289,128,0,40375:0:0:0:0:
192,192,40332,128,0,40417:0:0:0:0:
448,192,40375,1,0,0:0:0:0:
64,192,40417,128,0,40503:0:0:0:0:
320,192,40460,128,0,40546:0:0:0:0:
448,192,40546,1,0,0:0:0:0:
192,192,40546,128,0,40717:0:0:0:0:
64,192,40632,128,0,40717:0:0:0:0:
320,192,40717,128,0,40803:0:0:0:0:
448,192,40803,128,0,40889:0:0:0:0:
192,192,40803,1,0,0:0:0:0:
64,192,40889,128,0,40975:0:0:0:0:
320,192,40975,128,0,41060:0:0:0:0:
448,192,41060,128,0,41146:0:0:0:0:
192,192,41146,1,0,0:0:0:0:
64,192,41146,128,0,41317:0:0:0:0:
320,192,41232,128,0,41317:0:0:0:0:
448,192,41317,128,0,41403:0:0:0:0:
192,192,41403,1,0,0:0:0:0:
64,192,41403,1,0,0:0:0:0:
320,192,41489,128,0,41575:0:0:0:0:
448,192,41489,1,0,0:0:0:0:
192,192,41575,128,0,41660:0:0:0:0:
64,192,41660,128,0,41746:0:0:0:0:
320,192,41746,128,0,41832:0:0:0:0:
192,192,41832,128,0,41917:0:0:0:0:
320,192,41917,128,0,41960:0:0:0:0:
448,192,41917,128,0,42003:0:0:0:0:
192,192,42003,128,0,42089:0:0:0:0:
64,192,42089,128,0,42175:0:0:0:0:
448,192,42175,128,0,42217:0:0:0:0:
320,192,42175,128,0,42260:0:0:0:0:
192,192,42260,128,0,42346:0:0:0:0:
448,192,42346,128,0,42432:0:0:0:0:
64,192,42346,128,0,42389:0:0:0:0:
320,192,42432,128,0,42517:0:0:0:0:
192,192,42517,128,0,42560:0:0:0:0:
64,192,42517,128,0,42603:0:0:0:0:
448,192,42575,128,0,42660:0:0:0:0:
320,192,42632,128,0,42717:0:0:0:0:
192,192,42689,128,0,42775:0:0:0:0:
64,192,42746,128,0,42832:0:0:0:0:
448,192,42803,128,0,42889:0:0:0:0:
320,192,42860,128,0,42946:0:0:0:0:
192,192,42946,128,0,43117:0:0:0:0:
448,192,43032,128,0,43203:0:0:0:0:
320,192,43117,128,0,43203:0:0:0:0:
192,192,43203,128,0,43289:0:0:0:0:
64,192,43203,128,0,43375:0:0:0:0:
448,192,43289,128,0,43375:0:0:0:0:
320,192,43375,128,0,43546:0:0:0:0:
192,192,43375,128,0,43460:0:0:0:0:
448,192,43460,128,0,43546:0:0:0:0:
64,192,43460,128,0,43632:0:0:0:0:
448,192,43632,1,0,0:0:0:0:
320,192,43632,128,0,43717:0:0:0:0:
192,192,43717,128,0,43803:0:0:0:0:
64,192,43803,128,0,43889:0:0:0:0:
320,192,43889,128,0,43932:0:0:0:0:
448,192,43889,128,0,43975:0:0:0:0:
192,192,43946,1,0,0:0:0:0:
64,192,44003,1,0,0:0:0:0:
448,192,44060,1,0,0:0:0:0:
320,192,44146,128,0,44232:0:0:0:0:
64,192,44146,128,0,44317:0:0:0:0:
192,192,44232,128,0,44403:0:0:0:0:
448,192,44260,1,0,0:0:0:0:
320,192,44403,128,0,44575:0:0:0:0:
64,192,44489,128,0,44575:0:0:0:0:
448,192,44575,128,0,44746:0:0:0:0:
192,192,44575,128,0,44617:0:0:0:0:
320,192,44660,128,0,44746:0:0:0:0:
192,192,44746,128,0,44832:0:0:0:0:
64,192,44832,128,0,44917:0:0:0:0:
320,192,44832,128,0,45089:0:0:0:0:
64,192,45003,128,0,45089:0:0:0:0:
192,192,45089,128,0,45175:0:0:0:0:
448,192,45175,128,0,45260:0:0:0:0:
64,192,45260,1,0,0:0:0:0:
192,192,45260,128,0,45346:0:0:0:0:
448,192,45346,128,0,45389:0:0:0:0:
320,192,45346,128,0,45389:0:0:0:0:
448,192,45517,128,0,45560:0:0:0:0:
320,192,45517,128,0,45560:0:0:0:0:
448,192,45689,128,0,45732:0:0:0:0:
320,192,45689,128,0,45732:0:0:0:0:
448,192,45860,128,0,45903:0:0:0:0:
320,192,45860,128,0,45903:0:0:0:0:
448,192,46032,128,0,46075:0:0:0:0:
320,192,46032,128,0,46075:0:0:0:0:
320,192,46203,1,0,0:0:0:0:
448,192,46203,1,0,0:0:0:0:
448,192,46289,128,0,46332:0:0:0:0:
320,192,46289,128,0,46332:0:0:0:0:
64,192,46289,1,0,0:0:0:0:
192,192,46460,1,0,0:0:0:0:
320,192,46546,1,0,0:0:0:0:
192,192,46632,128,0,46803:0:0:0:0:
448,192,46632,128,0,46717:0:0:0:0:
64,192,46632,128,0,46889:0:0:0:0:
448,192,46803,128,0,46889:0:0:0:0:
192,192,46889,128,0,47032:0:0:0:0:
320,192,46889,128,0,46975:0:0:0:0:
64,192,47032,1,0,0:0:0:0:
320,192,47103,1,0,0:0:0:0:
448,192,47146,128,0,47232:0:0:0:0:
192,192,47146,128,0,47232:0:0:0:0:
64,192,47232,1,0,0:0:0:0:
320,192,47317,128,0,47489:0:0:0:0:
448,192,47317,128,0,47575:0:0:0:0:
64,192,47403,1,0,0:0:0:0:
192,192,47489,1,0,0:0:0:0:
320,192,47575,1,0,0:0:0:0:
192,192,47660,128,0,47746:0:0:0:0:
64,192,47660,128,0,47832:0:0:0:0:
320,192,47746,1,0,0:0:0:0:
192,192,47832,1,0,0:0:0:0:
64,192,47917,1,0,0:0:0:0:
448,192,48003,128,0,48175:0:0:0:0:
192,192,48003,128,0,48089:0:0:0:0:
64,192,48175,128,0,48260:0:0:0:0:
192,192,48260,128,0,48517:0:0:0:0:
448,192,48260,128,0,48432:0:0:0:0:
64,192,48346,1,0,0:0:0:0:
64,192,48517,128,0,48603:0:0:0:0:
448,192,48517,128,0,48689:0:0:0:0:
320,192,48603,128,0,48689:0:0:0:0:
192,192,48603,1,0,0:0:0:0:
64,192,48689,128,0,48775:0:0:0:0:
448,192,48775,128,0,48860:0:0:0:0:
192,192,48775,128,0,48946:0:0:0:0:
64,192,48860,128,0,48946:0:0:0:0:
320,192,48946,128,0,49032:0:0:0:0:
64,192,49032,128,0,49203:0:0:0:0:
448,192,49032,1,0,0:0:0:0:
320,192,49117,128,0,49203:0:0:0:0:
192,192,49203,128,0,49289:0:0:0:0:
64,192,49289,1,0,0:0:0:0:
448,192,49375,128,0,49546:0:0:0:0:
320,192,49375,128,0,49632:0:0:0:0:
192,192,49375,128,0,49460:0:0:0:0:
192,192,49632,128,0,49717:0:0:0:0:
64,192,49632,128,0,49889:0:0:0:0:
448,192,49717,1,0,0:0:0:0:
320,192,49889,128,0,49975:0:0:0:0:
448,192,49889,128,0,49975:0:0:0:0:
192,192,49975,1,0,0:0:0:0:
64,192,49975,1,0,0:0:0:0:
448,192,50060,128,0,50232:0:0:0:0:
320,192,50060,128,0,50146:0:0:0:0:
192,192,50232,1,0,0:0:0:0:
64,192,50317,1,0,0:0:0:0:
448,192,50403,128,0,50575:0:0:0:0:
320,192,50403,128,0,50660:0:0:0:0:
64,192,50575,1,0,0:0:0:0:
192,192,50575,1,0,0:0:0:0:
448,192,50660,1,0,0:0:0:0:
64,192,50746,128,0,50917:0:0:0:0:
192,192,50746,128,0,50832:0:0:0:0:
448,192,50832,1,0,0:0:0:0:
320,192,50917,1,0,0:0:0:0:
448,192,51003,128,0,51089:0:0:0:0:
192,192,51003,128,0,51175:0:0:0:0:
64,192,51089,1,0,0:0:0:0:
320,192,51175,1,0,0:0:0:0:
192,192,51260,128,0,51346:0:0:0:0:
448,192,51260,128,0,51346:0:0:0:0:
320,192,51346,1,0,0:0:0:0:
64,192,51346,1,0,0:0:0:0:
192,192,51432,128,0,51517:0:0:0:0:
448,192,51432,128,0,51603:0:0:0:0:
320,192,51517,1,0,0:0:0:0:
64,192,51603,1,0,0:0:0:0:
320,192,51689,1,0,0:0:0:0:
448,192,51775,1,0,0:0:0:0:
192,192,51775,128,0,51860:0:0:0:0:
320,192,51860,128,0,51946:0:0:0:0:
64,192,51946,1,0,0:0:0:0:
192,192,51946,128,0,52032:0:0:0:0:
448,192,52032,128,0,52117:0:0:0:0:
64,192,52117,1,0,0:0:0:0:
320,192,52117,128,0,52460:0:0:0:0:
448,192,52346,1,0,0:0:0:0:
192,192,52346,128,0,52460:0:0:0:0:
64,192,52460,1,0,0:0:0:0:
320,192,52575,128,0,52803:0:0:0:0:
448,192,52689,1,0,0:0:0:0:
64,192,52803,128,0,52975:0:0:0:0:
192,192,52803,1,0,0:0:0:0:
448,192,52917,1,0,0:0:0:0:
320,192,52975,1,0,0:0:0:0:
192,192,53032,1,0,0:0:0:0:
320,192,53146,128,0,53232:0:0:0:0:
448,192,53146,128,0,53317:0:0:0:0:
64,192,53260,1,0,0:0:0:0:
192,192,53375,1,0,0:0:0:0:
64,192,53489,128,0,53832:0:0:0:0:
320,192,53489,128,0,53660:0:0:0:0:
192,192,53603,1,0,0:0:0:0:
448,192,53717,128,0,53832:0:0:0:0:
320,192,53832,128,0,54003:0:0:0:0:
192,192,53832,128,0,54175:0:0:0:0:
64,192,54175,128,0,54346:0:0:0:0:
448,192,54175,128,0,54517:0:0:0:0:
320,192,54517,128,0,54603:0:0:0:0:
192,192,54517,128,0,54689:0:0:0:0:
64,192,54517,128,0,54775:0:0:0:0:
320,192,54689,128,0,54860:0:0:0:0:
64,192,54860,128,0,54946:0:0:0:0:
192,192,54860,128,0,55032:0:0:0:0:
448,192,54946,128,0,55032:0:0:0:0:
320,192,55032,128,0,55117:0:0:0:0:
64,192,55117,128,0,55160:0:0:0:0:
192,192,55117,128,0,55203:0:0:0:0:
320,192,55289,128,0,55375:0:0:0:0:
448,192,55289,1,0,0:0:0:0:
64,192,55375,1,0,0:0:0:0:
192,192,55375,128,0,55460:0:0:0:0:
448,192,55460,128,0,55503:0:0:0:0:
320,192,55460,128,0,55546:0:0:0:0:
192,192,55632,128,0,55717:0:0:0:0:
64,192,55717,128,0,55803:0:0:0:0:
320,192,55803,128,0,55889:0:0:0:0:
448,192,55889,128,0,55975:0:0:0:0:
192,192,55889,128,0,56060:0:0:0:0:
320,192,56060,128,0,56146:0:0:0:0:
192,192,56146,128,0,56232:0:0:0:0:
64,192,56146,128,0,56575:0:0:0:0:
448,192,56146,1,0,0:0:0:0:
448,192,56489,1,0,0:0:0:0:
320,192,56575,1,0,0:0:0:0:
64,192,56660,1,0,0:0:0:0:
320,192,56746,1,0,0:0:0:0:
448,192,56746,1,0,0:0:0:0:
448,192,56832,1,0,0:0:0:0:
320,192,56832,1,0,0:0:0:0:
192,192,56917,1,0,0:0:0:0:
64,192,56917,1,0,0:0:0:0:
64,192,57003,1,0,0:0:0:0:
192,192,57003,1,0,0:0:0:0:
320,192,57089,1,0,0:0:0:0:
320,192,57175,1,0,0:0:0:0:
192,192,57260,1,0,0:0:0:0:
64,192,57260,1,0,0:0:0:0:
448,192,57346,1,0,0:0:0:0:
320,192,57432,1,0,0:0:0:0:
64,192,57432,1,0,0:0:0:0:
192,192,57517,1,0,0:0:0:0:
320,192,57603,128,0,57775:0:0:0:0:
448,192,57603,128,0,57946:0:0:0:0:
192,192,57860,128,0,57946:0:0:0:0:
320,192,57946,128,0,58117:0:0:0:0:
64,192,57946,128,0,58117:0:0:0:0:
192,192,58203,128,0,58289:0:0:0:0:
320,192,58289,128,0,58460:0:0:0:0:
448,192,58289,128,0,58460:0:0:0:0:
192,192,58546,128,0,58632:0:0:0:0:
320,192,58632,128,0,58803:0:0:0:0:
64,192,58632,128,0,58803:0:0:0:0:
192,192,58803,128,0,58889:0:0:0:0:
448,192,58889,128,0,58975:0:0:0:0:
192,192,58975,128,0,59060:0:0:0:0:
320,192,58975,128,0,59146:0:0:0:0:
64,192,59146,128,0,59317:0:0:0:0:
192,192,59232,1,0,0:0:0:0:
320,192,59317,128,0,59489:0:0:0:0:
448,192,59317,128,0,59489:0:0:0:0:
192,192,59489,1,0,0:0:0:0:
64,192,59546,1,0,0:0:0:0:
320,192,59603,1,0,0:0:0:0:
64,192,59660,128,0,59746:0:0:0:0:
192,192,59660,128,0,59746:0:0:0:0:
320,192,59746,128,0,59832:0:0:0:0:
448,192,59832,1,0,0:0:0:0:
448,192,59917,1,0,0:0:0:0:
192,192,59917,128,0,60003:0:0:0:0:
320,192,60003,128,0,60089:0:0:0:0:
192,192,60089,128,0,60175:0:0:0:0:
320,192,60175,128,0,60260:0:0:0:0:
64,192,60175,1,0,0:0:0:0:
448,192,60260,128,0,60346:0:0:0:0:
64,192,60260,1,0,0:0:0:0:
320,192,60346,128,0,60517:0:0:0:0:
192,192,60346,128,0,60432:0:0:0:0:
64,192,60517,128,0,60689:0:0:0:0:
192,192,60575,1,0,0:0:0:0:
448,192,60632,1,0,0:0:0:0:
192,192,60689,128,0,60860:0:0:0:0:
320,192,60860,1,0,0:0:0:0:
64,192,60917,1,0,0:0:0:0:
448,192,60975,1,0,0:0:0:0:
320,192,61032,128,0,61203:0:0:0:0:
64,192,61203,1,0,0:0:0:0:
192,192,61260,1,0,0:0:0:0:
320,192,61317,1,0,0:0:0:0:
448,192,61375,128,0,61546:0:0:0:0:
320,192,61546,1,0,0:0:0:0:
192,192,61603,1,0,0:0:0:0:
448,192,61660,1,0,0:0:0:0:
64,192,61717,128,0,61889:0:0:0:0:
192,192,61803,1,0,0:0:0:0:
448,192,61889,1,0,0:0:0:0:
320,192,61889,128,0,61975:0:0:0:0:
64,192,61975,1,0,0:0:0:0:
192,192,61975,128,0,62060:0:0:0:0:
320,192,62060,128,0,62232:0:0:0:0:
64,192,62232,128,0,62403:0:0:0:0:
192,192,62317,1,0,0:0:0:0:
448,192,62403,128,0,62746:0:0:0:0:
320,192,62575,128,0,62660:0:0:0:0:
192,192,62660,1,0,0:0:0:0:
320,192,62746,128,0,62917:0:0:0:0:
192,192,62917,1,0,0:0:0:0:
64,192,62917,1,0,0:0:0:0:
448,192,63089,128,0,63317:0:0:0:0:
192,192,63089,128,0,63203:0:0:0:0:
320,192,63317,1,0,0:0:0:0:
64,192,63317,128,0,63432:0:0:0:0:
192,192,63432,1,0,0:0:0:0:
320,192,63432,128,0,63603:0:0:0:0:
192,192,63603,128,0,63775:0:0:0:0:
64,192,63603,1,0,0:0:0:0:
320,192,63775,128,0,64032:0:0:0:0:
448,192,63775,128,0,63860:0:0:0:0:
64,192,63817,1,0,0:0:0:0:
192,192,63946,1,0,0:0:0:0:
448,192,64032,128,0,64117:0:0:0:0:
320,192,64117,128,0,64203:0:0:0:0:
64,192,64117,1,0,0:0:0:0:
320,192,64289,1,0,0:0:0:0:
64,192,64289,128,0,64375:0:0:0:0:
448,192,64375,1,0,0:0:0:0:
320,192,64460,128,0,64632:0:0:0:0:
192,192,64460,128,0,64546:0:0:0:0:
448,192,64632,128,0,64717:0:0:0:0:
320,192,64717,128,0,64803:0:0:0:0:
64,192,64717,1,0,0:0:0:0:
448,192,64803,1,0,0:0:0:0:
192,192,64803,128,0,64975:0:0:0:0:
448,192,64975,128,0,65146:0:0:0:0:
320,192,64975,1,0,0:0:0:0:
192,192,65060,128,0,65146:0:0:0:0:
64,192,65146,128,0,65232:0:0:0:0:
320,192,65146,128,0,65232:0:0:0:0:
448,192,65317,1,0,0:0:0:0:
64,192,65403,128,0,65489:0:0:0:0:
192,192,65446,1,0,0:0:0:0:
448,192,65489,128,0,65832:0:0:0:0:
320,192,65489,128,0,65660:0:0:0:0:
320,192,65832,128,0,66003:0:0:0:0:
192,192,65832,128,0,65917:0:0:0:0:
64,192,66003,1,0,0:0:0:0:
448,192,66060,1,0,0:0:0:0:
192,192,66117,1,0,0:0:0:0:
64,192,66175,1,0,0:0:0:0:
320,192,66232,1,0,0:0:0:0:
448,192,66289,1,0,0:0:0:0:
192,192,66346,128,0,66517:0:0:0:0:
64,192,66432,1,0,0:0:0:0:
320,192,66517,1,0,0:0:0:0:
448,192,66575,1,0,0:0:0:0:
192,192,66632,1,0,0:0:0:0:
320,192,66689,1,0,0:0:0:0:
64,192,66746,1,0,0:0:0:0:
448,192,66803,1,0,0:0:0:0:
320,192,66860,1,0,0:0:0:0:
192,192,66860,128,0,67032:0:0:0:0:
320,192,67032,128,0,67203:0:0:0:0:
192,192,67117,128,0,67203:0:0:0:0:
448,192,67203,128,0,67375:0:0:0:0:
64,192,67203,1,0,0:0:0:0:
320,192,67289,128,0,67375:0:0:0:0:
64,192,67375,1,0,0:0:0:0:
192,192,67375,128,0,67546:0:0:0:0:
320,192,67460,1,0,0:0:0:0:
448,192,67460,1,0,0:0:0:0:
64,192,67546,128,0,67717:0:0:0:0:
320,192,67632,1,0,0:0:0:0:
448,192,67632,1,0,0:0:0:0:
192,192,67717,128,0,67889:0:0:0:0:
320,192,67803,128,0,67889:0:0:0:0:
64,192,67889,1,0,0:0:0:0:
448,192,67889,128,0,68060:0:0:0:0:
320,192,67975,128,0,68060:0:0:0:0:
192,192,68060,128,0,68232:0:0:0:0:
320,192,68146,128,0,68232:0:0:0:0:
448,192,68232,1,0,0:0:0:0:
64,192,68232,128,0,68317:0:0:0:0:
320,192,68317,1,0,0:0:0:0:
192,192,68317,128,0,68403:0:0:0:0:
448,192,68403,1,0,0:0:0:0:
64,192,68403,128,0,68489:0:0:0:0:
320,192,68489,128,0,68575:0:0:0:0:
192,192,68575,128,0,68746:0:0:0:0:
448,192,68575,128,0,68660:0:0:0:0:
64,192,68575,128,0,68746:0:0:0:0:
448,192,68746,1,0,0:0:0:0:
320,192,68832,1,0,0:0:0:0:
192,192,68917,128,0,69175:0:0:0:0:
64,192,68917,128,0,69089:0:0:0:0:
320,192,69089,128,0,69260:0:0:0:0:
448,192,69175,1,0,0:0:0:0:
64,192,69260,1,0,0:0:0:0:
192,192,69260,128,0,69432:0:0:0:0:
320,192,69432,128,0,69603:0:0:0:0:
448,192,69432,128,0,69517:0:0:0:0:
64,192,69517,128,0,69603:0:0:0:0:
448,192,69603,1,0,0:0:0:0:
192,192,69603,128,0,69775:0:0:0:0:
320,192,69775,128,0,69946:0:0:0:0:
192,192,69946,128,0,70203:0:0:0:0:
64,192,69946,128,0,70032:0:0:0:0:
64,192,70117,1,0,0:0:0:0:
320,192,70203,128,0,70375:0:0:0:0:
448,192,70289,1,0,0:0:0:0:
192,192,70289,128,0,70375:0:0:0:0:
64,192,70460,128,0,70632:0:0:0:0:
192,192,70546,1,0,0:0:0:0:
320,192,70546,1,0,0:0:0:0:
448,192,70632,128,0,70803:0:0:0:0:
64,192,70803,128,0,70975:0:0:0:0:
320,192,70889,128,0,70975:0:0:0:0:
192,192,70975,1,0,0:0:0:0:
448,192,70975,128,0,71146:0:0:0:0:
320,192,71060,128,0,71146:0:0:0:0:
192,192,71146,128,0,71232:0:0:0:0:
64,192,71232,128,0,71317:0:0:0:0:
448,192,71317,1,0,0:0:0:0:
320,192,71317,128,0,71403:0:0:0:0:
192,192,71403,128,0,71489:0:0:0:0:
64,192,71489,128,0,71575:0:0:0:0:
320,192,71575,128,0,71660:0:0:0:0:
192,192,71660,128,0,71746:0:0:0:0:
448,192,71660,1,0,0:0:0:0:
320,192,71746,128,0,71832:0:0:0:0:
448,192,71832,128,0,71917:0:0:0:0:
192,192,71917,128,0,72003:0:0:0:0:
64,192,71917,1,0,0:0:0:0:
448,192,72003,1,0,0:0:0:0:
320,192,72003,128,0,72089:0:0:0:0:
192,192,72060,1,0,0:0:0:0:
64,192,72117,1,0,0:0:0:0:
320,192,72175,1,0,0:0:0:0:
192,192,72232,1,0,0:0:0:0:
448,192,72289,1,0,0:0:0:0:
64,192,72346,1,0,0:0:0:0:
320,192,72346,128,0,72432:0:0:0:0:
448,192,72432,128,0,72517:0:0:0:0:
192,192,72517,128,0,72603:0:0:0:0:
64,192,72603,128,0,72689:0:0:0:0:
448,192,72689,1,0,0:0:0:0:
320,192,72689,128,0,72775:0:0:0:0:
192,192,72775,128,0,72860:0:0:0:0:
320,192,72860,128,0,72946:0:0:0:0:
448,192,72946,128,0,73032:0:0:0:0:
64,192,73032,1,0,0:0:0:0:
192,192,73032,128,0,73117:0:0:0:0:
320,192,73117,128,0,73203:0:0:0:0:
192,192,73203,128,0,73289:0:0:0:0:
64,192,73289,128,0,73375:0:0:0:0:
320,192,73375,128,0,73460:0:0:0:0:
448,192,73375,1,0,0:0:0:0:
64,192,73460,1,0,0:0:0:0:
192,192,73460,1,0,0:0:0:0:
448,192,73546,1,0,0:0:0:0:
320,192,73546,128,0,73717:0:0:0:0:
64,192,73717,1,0,0:0:0:0:
192,192,73717,128,0,73889:0:0:0:0:
320,192,73803,1,0,0:0:0:0:
64,192,73889,128,0,74060:0:0:0:0:
448,192,73889,1,0,0:0:0:0:
320,192,73975,1,0,0:0:0:0:
448,192,74060,128,0,74232:0:0:0:0:
192,192,74060,128,0,74146:0:0:0:0:
192,192,74289,1,0,0:0:0:0:
448,192,74403,128,0,74575:0:0:0:0:
320,192,74403,1,0,0:0:0:0:
320,192,74517,128,0,74689:0:0:0:0:
192,192,74517,1,0,0:0:0:0:
192,192,74632,128,0,74746:0:0:0:0:
64,192,74746,128,0,74975:0:0:0:0:
448,192,74746,128,0,74832:0:0:0:0:
320,192,74975,1,0,0:0:0:0:
64,192,75089,128,0,75260:0:0:0:0:
192,192,75089,1,0,0:0:0:0:
192,192,75203,128,0,75346:0:0:0:0:
320,192,75203,1,0,0:0:0:0:
448,192,75317,1,0,0:0:0:0:
320,192,75317,128,0,75432:0:0:0:0:
64,192,75432,128,0,75517:0:0:0:0:
192,192,75432,128,0,75660:0:0:0:0:
448,192,75660,1,0,0:0:0:0:
320,192,75775,1,0,0:0:0:0:
64,192,75775,128,0,75946:0:0:0:0:
192,192,75889,1,0,0:0:0:0:
448,192,76003,128,0,76117:0:0:0:0:
192,192,76117,1,0,0:0:0:0:
64,192,76117,128,0,76203:0:0:0:0:
448,192,76203,128,0,76289:0:0:0:0:
320,192,76289,128,0,76375:0:0:0:0:
448,192,76375,1,0,0:0:0:0:
192,192,76375,128,0,76460:0:0:0:0:
64,192,76460,128,0,76546:0:0:0:0:
320,192,76460,1,0,0:0:0:0:
192,192,76546,128,0,76632:0:0:0:0:
320,192,76632,128,0,76717:0:0:0:0:
64,192,76632,1,0,0:0:0:0:
448,192,76717,128,0,76803:0:0:0:0:
192,192,76803,128,0,76860:0:0:0:0:
64,192,76803,128,0,76860:0:0:0:0:
448,192,76946,1,0,0:0:0:0:
64,192,77032,128,0,77089:0:0:0:0:
320,192,77032,128,0,77089:0:0:0:0:
448,192,77175,1,0,0:0:0:0:
320,192,77260,1,0,0:0:0:0:
192,192,77260,128,0,77317:0:0:0:0:
64,192,77260,128,0,77317:0:0:0:0:
448,192,77403,1,0,0:0:0:0:
192,192,77489,128,0,77546:0:0:0:0:
320,192,77489,128,0,77546:0:0:0:0:
320,192,77660,1,0,0:0:0:0:
192,192,77717,128,0,77775:0:0:0:0:
64,192,77717,128,0,77775:0:0:0:0:
320,192,77860,1,0,0:0:0:0:
192,192,77946,128,0,78003:0:0:0:0:
64,192,77946,128,0,78003:0:0:0:0:
448,192,78089,128,0,78175:0:0:0:0:
64,192,78175,128,0,78232:0:0:0:0:
192,192,78175,1,0,0:0:0:0:
320,192,78175,128,0,78232:0:0:0:0:
448,192,78317,1,0,0:0:0:0:
192,192,78403,128,0,78460:0:0:0:0:
64,192,78403,128,0,78460:0:0:0:0:
320,192,78546,1,0,0:0:0:0:
64,192,78632,128,0,78775:0:0:0:0:
192,192,78632,128,0,78689:0:0:0:0:
448,192,78775,128,0,78860:0:0:0:0:
192,192,78860,128,0,79003:0:0:0:0:
320,192,78860,128,0,78917:0:0:0:0:
64,192,79003,1,0,0:0:0:0:
448,192,79003,128,0,79089:0:0:0:0:
320,192,79089,1,0,0:0:0:0:
192,192,79146,1,0,0:0:0:0:
448,192,79203,1,0,0:0:0:0:
64,192,79203,1,0,0:0:0:0:
320,192,79260,1,0,0:0:0:0:
192,192,79332,1,0,0:0:0:0:
64,192,79417,1,0,0:0:0:0:
320,192,79489,1,0,0:0:0:0:
448,192,79546,128,0,79717:0:0:0:0:
64,192,79546,128,0,79803:0:0:0:0:
192,192,79546,128,0,79632:0:0:0:0:
448,192,79803,128,0,79889:0:0:0:0:
192,192,79803,128,0,79975:0:0:0:0:
320,192,79803,128,0,79975:0:0:0:0:
64,192,79889,128,0,80060:0:0:0:0:
448,192,80060,128,0,80232:0:0:0:0:
192,192,80060,128,0,80146:0:0:0:0:
320,192,80060,128,0,80232:0:0:0:0:
192,192,80232,128,0,80317:0:0:0:0:
64,192,80232,128,0,80403:0:0:0:0:
192,192,80403,128,0,80575:0:0:0:0:
320,192,80403,128,0,80489:0:0:0:0:
448,192,80489,1,0,0:0:0:0:
320,192,80575,128,0,80660:0:0:0:0:
64,192,80575,128,0,80660:0:0:0:0:
320,192,80746,128,0,80832:0:0:0:0:
192,192,80746,128,0,80832:0:0:0:0:
448,192,80832,128,0,80917:0:0:0:0:
64,192,80832,128,0,81003:0:0:0:0:
320,192,81003,128,0,81089:0:0:0:0:
448,192,81003,128,0,81175:0:0:0:0:
64,192,81089,1,0,0:0:0:0:
192,192,81175,128,0,81260:0:0:0:0:
320,192,81175,128,0,81260:0:0:0:0:
448,192,81260,128,0,81346:0:0:0:0:
64,192,81260,128,0,81432:0:0:0:0:
320,192,81432,128,0,81517:0:0:0:0:
192,192,81432,128,0,81603:0:0:0:0:
448,192,81517,1,0,0:0:0:0:
320,192,81603,128,0,81775:0:0:0:0:
64,192,81603,128,0,81689:0:0:0:0:
448,192,81775,1,0,0:0:0:0:
192,192,81860,1,0,0:0:0:0:
64,192,81946,128,0,82032:0:0:0:0:
320,192,81946,128,0,82117:0:0:0:0:
448,192,81946,128,0,82032:0:0:0:0:
64,192,82117,128,0,82203:0:0:0:0:
448,192,82117,128,0,82203:0:0:0:0:
320,192,82203,128,0,82289:0:0:0:0:
192,192,82203,128,0,82375:0:0:0:0:
448,192,82375,128,0,82460:0:0:0:0:
320,192,82375,128,0,82546:0:0:0:0:
64,192,82460,1,0,0:0:0:0:
192,192,82546,128,0,82632:0:0:0:0:
448,192,82546,128,0,82717:0:0:0:0:
320,192,82632,128,0,82717:0:0:0:0:
64,192,82632,128,0,82803:0:0:0:0:
192,192,82803,128,0,82889:0:0:0:0:
448,192,82803,128,0,82975:0:0:0:0:
320,192,82889,1,0,0:0:0:0:
192,192,82975,128,0,83060:0:0:0:0:
64,192,82975,128,0,83146:0:0:0:0:
320,192,83146,1,0,0:0:0:0:
192,192,83232,1,0,0:0:0:0:
320,192,83317,128,0,83403:0:0:0:0:
64,192,83317,128,0,83489:0:0:0:0:
448,192,83317,128,0,83403:0:0:0:0:
192,192,83489,128,0,83575:0:0:0:0:
320,192,83489,128,0,83575:0:0:0:0:
448,192,83575,128,0,83746:0:0:0:0:
64,192,83575,128,0,83660:0:0:0:0:
64,192,83746,128,0,83832:0:0:0:0:
192,192,83746,128,0,83917:0:0:0:0:
448,192,83832,1,0,0:0:0:0:
320,192,83917,128,0,84003:0:0:0:0:
64,192,83917,128,0,84003:0:0:0:0:
448,192,84003,128,0,84175:0:0:0:0:
192,192,84003,128,0,84089:0:0:0:0:
64,192,84175,128,0,84346:0:0:0:0:
320,192,84175,128,0,84260:0:0:0:0:
192,192,84260,1,0,0:0:0:0:
320,192,84346,128,0,84517:0:0:0:0:
448,192,84346,128,0,84517:0:0:0:0:
192,192,84517,1,0,0:0:0:0:
448,192,84603,128,0,84689:0:0:0:0:
64,192,84603,128,0,84946:0:0:0:0:
320,192,84603,128,0,84775:0:0:0:0:
448,192,84860,1,0,0:0:0:0:
192,192,84860,128,0,85032:0:0:0:0:
320,192,84946,128,0,85032:0:0:0:0:
64,192,85032,128,0,85117:0:0:0:0:
448,192,85032,128,0,85203:0:0:0:0:
192,192,85117,128,0,85203:0:0:0:0:
320,192,85203,128,0,85375:0:0:0:0:
448,192,85289,128,0,85375:0:0:0:0:
64,192,85375,1,0,0:0:0:0:
192,192,85375,128,0,85460:0:0:0:0:
448,192,85460,128,0,85632:0:0:0:0:
320,192,85546,128,0,85632:0:0:0:0:
64,192,85632,128,0,85717:0:0:0:0:
320,192,85717,1,0,0:0:0:0:
192,192,85717,128,0,85889:0:0:0:0:
448,192,85803,128,0,85889:0:0:0:0:
320,192,85889,128,0,85975:0:0:0:0:
192,192,85975,1,0,0:0:0:0:
64,192,85975,128,0,86146:0:0:0:0:
448,192,86060,128,0,86146:0:0:0:0:
192,192,86146,1,0,0:0:0:0:
320,192,86146,128,0,86232:0:0:0:0:
64,192,86232,1,0,0:0:0:0:
448,192,86232,128,0,86403:0:0:0:0:
192,192,86317,128,0,86403:0:0:0:0:
320,192,86403,128,0,86489:0:0:0:0:
64,192,86489,1,0,0:0:0:0:
192,192,86489,128,0,86660:0:0:0:0:
448,192,86575,128,0,86660:0:0:0:0:
320,192,86660,128,0,86746:0:0:0:0:
64,192,86746,128,0,86917:0:0:0:0:
192,192,86746,1,0,0:0:0:0:
448,192,86832,128,0,86917:0:0:0:0:
320,192,86917,128,0,87003:0:0:0:0:
64,192,87003,1,0,0:0:0:0:
192,192,87003,128,0,87175:0:0:0:0:
448,192,87089,128,0,87175:0:0:0:0:
320,192,87175,128,0,87260:0:0:0:0:
64,192,87175,128,0,87432:0:0:0:0:
192,192,87260,1,0,0:0:0:0:
320,192,87432,128,0,87517:0:0:0:0:
448,192,87432,128,0,87603:0:0:0:0:
192,192,87603,128,0,87689:0:0:0:0:
64,192,87603,128,0,87775:0:0:0:0:
320,192,87775,1,0,0:0:0:0:
448,192,87775,128,0,87946:0:0:0:0:
192,192,87860,128,0,88032:0:0:0:0:
320,192,87946,128,0,88032:0:0:0:0:
64,192,88032,128,0,88146:0:0:0:0:
448,192,88032,1,0,0:0:0:0:
320,192,88203,128,0,88289:0:0:0:0:
192,192,88289,128,0,88375:0:0:0:0:
64,192,88375,128,0,88460:0:0:0:0:
448,192,88375,128,0,88460:0:0:0:0:
320,192,88460,1,0,0:0:0:0:
192,192,88460,1,0,0:0:0:0:
64,192,88546,128,0,88632:0:0:0:0:
192,192,88632,128,0,88717:0:0:0:0:
448,192,88632,1,0,0:0:0:0:
320,192,88717,128,0,88803:0:0:0:0:
64,192,88717,1,0,0:0:0:0:
192,192,88803,128,0,88860:0:0:0:0:
448,192,88803,128,0,88860:0:0:0:0:
320,192,88975,1,0,0:0:0:0:
448,192,88975,1,0,0:0:0:0:
64,192,89060,128,0,89232:0:0:0:0:
192,192,89060,128,0,89489:0:0:0:0:
448,192,89489,1,0,0:0:0:0:
448,192,89832,1,0,0:0:0:0:
64,192,89946,1,0,0:0:0:0:
192,192,89946,1,0,0:0:0:0:
320,192,89946,1,0,0:0:0:0:
320,192,90175,1,0,0:0:0:0:
192,192,90175,1,0,0:0:0:0:
64,192,90175,1,0,0:0:0:0:
320,192,90346,1,0,0:0:0:0:
192,192,90346,1,0,0:0:0:0:
64,192,90346,1,0,0:0:0:0:
448,192,90517,128,0,90689:0:0:0:0:
64,192,90517,1,0,0:0:0:0:
320,192,90689,128,0,90860:0:0:0:0:
192,192,90775,128,0,90860:0:0:0:0:
448,192,90860,1,0,0:0:0:0:
64,192,90860,1,0,0:0:0:0:
320,192,91117,128,0,91289:0:0:0:0:
192,192,91289,128,0,91375:0:0:0:0:
64,192,91375,128,0,91546:0:0:0:0:
320,192,91460,128,0,91546:0:0:0:0:
448,192,91546,128,0,91717:0:0:0:0:
192,192,91589,1,0,0:0:0:0:
64,192,91632,1,0,0:0:0:0:
320,192,91632,1,0,0:0:0:0:
192,192,91717,128,0,91889:0:0:0:0:
320,192,91803,1,0,0:0:0:0:
64,192,91889,1,0,0:0:0:0:
448,192,91889,128,0,91975:0:0:0:0:
320,192,92060,1,0,0:0:0:0:
448,192,92060,128,0,92146:0:0:0:0:
192,192,92146,128,0,92317:0:0:0:0:
64,192,92232,1,0,0:0:0:0:
448,192,92317,128,0,92403:0:0:0:0:
320,192,92403,1,0,0:0:0:0:
64,192,92446,1,0,0:0:0:0:
192,192,92489,128,0,92575:0:0:0:0:
448,192,92575,1,0,0:0:0:0:
320,192,92617,1,0,0:0:0:0:
64,192,92660,128,0,92746:0:0:0:0:
448,192,92746,128,0,92832:0:0:0:0:
320,192,92789,1,0,0:0:0:0:
64,192,92832,1,0,0:0:0:0:
192,192,92832,1,0,0:0:0:0:
448,192,92917,128,0,93089:0:0:0:0:
320,192,93003,1,0,0:0:0:0:
192,192,93089,1,0,0:0:0:0:
64,192,93089,1,0,0:0:0:0:
448,192,93175,1,0,0:0:0:0:
320,192,93175,128,0,93260:0:0:0:0:
192,192,93260,128,0,93346:0:0:0:0:
64,192,93260,128,0,93346:0:0:0:0:
448,192,93346,1,0,0:0:0:0:
320,192,93375,128,0,93489:0:0:0:0:
64,192,93432,1,0,0:0:0:0:
192,192,93489,128,0,93603:0:0:0:0:
64,192,93603,1,0,0:0:0:0:
448,192,93689,1,0,0:0:0:0:
192,192,93775,128,0,93860:0:0:0:0:
320,192,93860,128,0,93946:0:0:0:0:
448,192,93946,1,0,0:0:0:0:
64,192,94032,1,0,0:0:0:0:
192,192,94032,128,0,94117:0:0:0:0:
448,192,94117,128,0,94203:0:0:0:0:
320,192,94203,1,0,0:0:0:0:
64,192,94203,128,0,94289:0:0:0:0:
192,192,94289,128,0,94375:0:0:0:0:
64,192,94375,1,0,0:0:0:0:
320,192,94460,1,0,0:0:0:0:
448,192,94460,128,0,94632:0:0:0:0:
192,192,94546,1,0,0:0:0:0:
320,192,94632,1,0,0:0:0:0:
64,192,94632,128,0,94803:0:0:0:0:
192,192,94717,1,0,0:0:0:0:
320,192,94803,1,0,0:0:0:0:
448,192,94803,1,0,0:0:0:0:
64,192,94889,128,0,95146:0:0:0:0:
192,192,94932,128,0,95317:0:0:0:0:
448,192,95060,128,0,95146:0:0:0:0:
320,192,95232,128,0,95317:0:0:0:0:
448,192,95403,128,0,95489:0:0:0:0:
64,192,95403,1,0,0:0:0:0:
320,192,95489,128,0,95575:0:0:0:0:
192,192,95489,1,0,0:0:0:0:
64,192,95575,128,0,95660:0:0:0:0:
320,192,95660,1,0,0:0:0:0:
448,192,95660,128,0,95832:0:0:0:0:
192,192,95775,1,0,0:0:0:0:
64,192,95832,1,0,0:0:0:0:
320,192,95832,128,0,95917:0:0:0:0:
448,192,95917,128,0,96003:0:0:0:0:
64,192,96003,1,0,0:0:0:0:
192,192,96003,128,0,96089:0:0:0:0:
448,192,96175,128,0,96260:0:0:0:0:
192,192,96260,1,0,0:0:0:0:
64,192,96260,1,0,0:0:0:0:
320,192,96432,1,0,0:0:0:0:
64,192,96432,128,0,96517:0:0:0:0:
448,192,96603,128,0,96689:0:0:0:0:
192,192,96689,128,0,96775:0:0:0:0:
64,192,96689,1,0,0:0:0:0:
192,192,96860,1,0,0:0:0:0:
448,192,96860,128,0,96946:0:0:0:0:
320,192,96860,128,0,96946:0:0:0:0:
64,192,97032,128,0,97117:0:0:0:0:
320,192,97117,128,0,97203:0:0:0:0:
448,192,97117,1,0,0:0:0:0:
192,192,97289,128,0,97375:0:0:0:0:
64,192,97289,1,0,0:0:0:0:
448,192,97460,128,0,97546:0:0:0:0:
192,192,97546,1,0,0:0:0:0:
64,192,97546,1,0,0:0:0:0:
320,192,97632,1,0,0:0:0:0:
192,192,97717,128,0,97803:0:0:0:0:
448,192,97717,128,0,97803:0:0:0:0:
320,192,97889,1,0,0:0:0:0:
192,192,97953,1,0,0:0:0:0:
64,192,97953,128,0,98039:0:0:0:0:
448,192,98146,128,0,98232:0:0:0:0:
192,192,98146,1,0,0:0:0:0:
64,192,98317,128,0,98403:0:0:0:0:
320,192,98403,128,0,98489:0:0:0:0:
448,192,98403,1,0,0:0:0:0:
448,192,98575,128,0,98746:0:0:0:0:
192,192,98575,128,0,98660:0:0:0:0:
64,192,98575,128,0,98660:0:0:0:0:
320,192,98746,128,0,98832:0:0:0:0:
192,192,98832,1,0,0:0:0:0:
64,192,98832,128,0,98917:0:0:0:0:
320,192,99003,1,0,0:0:0:0:
448,192,99003,128,0,99089:0:0:0:0:
64,192,99089,128,0,99175:0:0:0:0:
192,192,99175,128,0,99260:0:0:0:0:
448,192,99175,1,0,0:0:0:0:
320,192,99260,1,0,0:0:0:0:
64,192,99260,1,0,0:0:0:0:
192,192,99346,1,0,0:0:0:0:
448,192,99346,128,0,99432:0:0:0:0:
320,192,99432,128,0,99603:0:0:0:0:
64,192,99432,128,0,99517:0:0:0:0:
192,192,99603,128,0,99689:0:0:0:0:
64,192,99689,128,0,99774:0:0:0:0:
320,192,99774,1,0,0:0:0:0:
448,192,99774,1,0,0:0:0:0:
192,192,99860,128,0,99946:0:0:0:0:
448,192,99946,1,0,0:0:0:0:
64,192,100032,128,0,100117:0:0:0:0:
320,192,100117,1,0,0:0:0:0:
192,192,100203,128,0,100289:0:0:0:0:
64,192,100289,128,0,100374:0:0:0:0:
192,192,100374,128,0,100546:0:0:0:0:
448,192,100460,1,0,0:0:0:0:
320,192,100460,128,0,100546:0:0:0:0:
320,192,100632,128,0,100803:0:0:0:0:
192,192,100632,1,0,0:0:0:0:
192,192,100803,1,0,0:0:0:0:
448,192,100803,128,0,100889:0:0:0:0:
64,192,100803,128,0,100974:0:0:0:0:
320,192,100974,128,0,101060:0:0:0:0:
64,192,101060,1,0,0:0:0:0:
192,192,101060,128,0,101146:0:0:0:0:
448,192,101146,1,0,0:0:0:0:
320,192,101232,128,0,101317:0:0:0:0:
64,192,101260,1,0,0:0:0:0:
448,192,101403,1,0,0:0:0:0:
192,192,101403,128,0,101489:0:0:0:0:
320,192,101489,1,0,0:0:0:0:
192,192,101603,1,0,0:0:0:0:
64,192,101660,1,0,0:0:0:0:
448,192,101689,1,0,0:0:0:0:
320,192,101717,1,0,0:0:0:0:
192,192,101746,1,0,0:0:0:0:
64,192,101789,1,0,0:0:0:0:
448,192,101832,128,0,102060:0:0:0:0:
320,192,101946,1,0,0:0:0:0:
192,192,102060,1,0,0:0:0:0:
64,192,102174,1,0,0:0:0:0:
320,192,102174,128,0,102260:0:0:0:0:
448,192,102217,128,0,102346:0:0:0:0:
192,192,102432,128,0,102517:0:0:0:0:
320,192,102689,128,0,102774:0:0:0:0:
192,192,102746,1,0,0:0:0:0:
448,192,102803,1,0,0:0:0:0:
320,192,102860,128,0,102946:0:0:0:0:
192,192,103203,128,0,103289:0:0:0:0:
320,192,103374,1,0,0:0:0:0:
64,192,103432,1,0,0:0:0:0:
448,192,103489,1,0,0:0:0:0:
192,192,103546,128,0,103632:0:0:0:0:
320,192,103803,128,0,103889:0:0:0:0:
448,192,104060,1,0,0:0:0:0:
192,192,104117,1,0,0:0:0:0:
320,192,104174,1,0,0:0:0:0:
448,192,104232,128,0,104403:0:0:0:0:
192,192,104317,1,0,0:0:0:0:
64,192,104403,1,0,0:0:0:0:
448,192,104489,1,0,0:0:0:0:
320,192,104489,128,0,104660:0:0:0:0:
192,192,104574,1,0,0:0:0:0:
64,192,104660,1,0,0:0:0:0:
448,192,104746,1,0,0:0:0:0:
192,192,104746,128,0,104917:0:0:0:0:
64,192,104917,128,0,105089:0:0:0:0:
320,192,104917,1,0,0:0:0:0:
192,192,105089,128,0,105174:0:0:0:0:
320,192,105174,128,0,105432:0:0:0:0:
448,192,105432,128,0,105603:0:0:0:0:
64,192,105489,1,0,0:0:0:0:
192,192,105546,1,0,0:0:0:0:
320,192,105603,128,0,105774:0:0:0:0:
192,192,105774,128,0,105946:0:0:0:0:
64,192,105946,128,0,106117:0:0:0:0:
192,192,106117,128,0,106289:0:0:0:0:
448,192,106174,1,0,0:0:0:0:
320,192,106232,1,0,0:0:0:0:
64,192,106289,128,0,106460:0:0:0:0:
320,192,106460,128,0,106632:0:0:0:0:
64,192,106546,128,0,106632:0:0:0:0:
192,192,106632,128,0,106803:0:0:0:0:
448,192,106632,1,0,0:0:0:0:
64,192,106803,128,0,106974:0:0:0:0:
448,192,106803,128,0,106889:0:0:0:0:
320,192,106974,128,0,107146:0:0:0:0:
192,192,106974,128,0,107060:0:0:0:0:
192,192,107146,128,0,107317:0:0:0:0:
448,192,107317,128,0,107489:0:0:0:0:
320,192,107317,1,0,0:0:0:0:
192,192,107403,128,0,107489:0:0:0:0:
64,192,107489,128,0,107660:0:0:0:0:
320,192,107574,128,0,107660:0:0:0:0:
448,192,107660,128,0,107832:0:0:0:0:
192,192,107660,1,0,0:0:0:0:
320,192,107746,128,0,107832:0:0:0:0:
192,192,107832,128,0,107917:0:0:0:0:
320,192,107917,128,0,108003:0:0:0:0:
64,192,108003,128,0,108174:0:0:0:0:
192,192,108089,128,0,108174:0:0:0:0:
448,192,108174,128,0,108260:0:0:0:0:
320,192,108260,128,0,108346:0:0:0:0:
192,192,108346,128,0,108403:0:0:0:0:
64,192,108403,128,0,108460:0:0:0:0:
448,192,108460,128,0,108517:0:0:0:0:
320,192,108517,128,0,108574:0:0:0:0:
64,192,108574,128,0,108632:0:0:0:0:
448,192,108632,128,0,108689:0:0:0:0:
320,192,108689,128,0,108860:0:0:0:0:
192,192,108689,128,0,108774:0:0:0:0:
64,192,108774,128,0,108860:0:0:0:0:
448,192,108860,128,0,108946:0:0:0:0:
192,192,108946,128,0,109032:0:0:0:0:
64,192,109032,128,0,109203:0:0:0:0:
320,192,109117,128,0,109203:0:0:0:0:
192,192,109203,128,0,109260:0:0:0:0:
448,192,109260,128,0,109317:0:0:0:0:
320,192,109317,128,0,109374:0:0:0:0:
192,192,109374,128,0,109546:0:0:0:0:
64,192,109374,128,0,109460:0:0:0:0:
448,192,109460,128,0,109546:0:0:0:0:
320,192,109546,128,0,109603:0:0:0:0:
64,192,109603,128,0,109660:0:0:0:0:
192,192,109660,128,0,109717:0:0:0:0:
448,192,109717,128,0,109889:0:0:0:0:
64,192,109889,1,0,0:0:0:0:
320,192,109889,128,0,110060:0:0:0:0:
192,192,110060,128,0,110317:0:0:0:0:
448,192,110060,128,0,110146:0:0:0:0:
320,192,110146,1,0,0:0:0:0:
64,192,110232,128,0,110317:0:0:0:0:
448,192,110317,1,0,0:0:0:0:
320,192,110403,128,0,110517:0:0:0:0:
192,192,110403,128,0,110460:0:0:0:0:
192,192,110517,128,0,110632:0:0:0:0:
64,192,110517,128,0,110574:0:0:0:0:
64,192,110632,128,0,110746:0:0:0:0:
320,192,110632,128,0,110689:0:0:0:0:
448,192,110746,128,0,110974:0:0:0:0:
192,192,110746,128,0,110860:0:0:0:0:
320,192,110974,128,0,111089:0:0:0:0:
192,192,111089,128,0,111203:0:0:0:0:
64,192,111089,128,0,111146:0:0:0:0:
320,192,111203,128,0,111317:0:0:0:0:
448,192,111203,128,0,111260:0:0:0:0:
448,192,111317,128,0,111432:0:0:0:0:
192,192,111317,128,0,111374:0:0:0:0:
64,192,111432,128,0,111546:0:0:0:0:
320,192,111432,128,0,111489:0:0:0:0:
192,192,111546,128,0,111660:0:0:0:0:
448,192,111546,128,0,111603:0:0:0:0:
320,192,111660,128,0,111774:0:0:0:0:
64,192,111660,128,0,111717:0:0:0:0:
192,192,111774,1,0,0:0:0:0:
448,192,111774,128,0,111889:0:0:0:0:
320,192,111889,128,0,111946:0:0:0:0:
64,192,111946,1,0,0:0:0:0:
192,192,112003,128,0,112060:0:0:0:0:
320,192,112060,128,0,112117:0:0:0:0:
64,192,112117,1,0,0:0:0:0:
448,192,112174,128,0,112232:0:0:0:0:
320,192,112232,128,0,112289:0:0:0:0:
64,192,112289,1,0,0:0:0:0:
192,192,112346,128,0,112403:0:0:0:0:
448,192,112403,128,0,112460:0:0:0:0:
320,192,112460,128,0,112546:0:0:0:0:
64,192,112503,128,0,112632:0:0:0:0:
192,192,112546,128,0,112632:0:0:0:0:
320,192,112632,128,0,112717:0:0:0:0:
192,192,112717,128,0,112803:0:0:0:0:
64,192,112803,128,0,112889:0:0:0:0:
448,192,112803,1,0,0:0:0:0:
320,192,112860,1,0,0:0:0:0:
192,192,112917,1,0,0:0:0:0:
448,192,112974,1,0,0:0:0:0:
64,192,113032,1,0,0:0:0:0:
320,192,113089,1,0,0:0:0:0:
64,192,113146,128,0,113403:0:0:0:0:
448,192,113146,128,0,113232:0:0:0:0:
192,192,113146,128,0,113317:0:0:0:0:
320,192,113317,128,0,113403:0:0:0:0:
448,192,113403,128,0,113489:0:0:0:0:
192,192,113403,128,0,113546:0:0:0:0:
320,192,113546,1,0,0:0:0:0:
64,192,113617,1,0,0:0:0:0:
192,192,113660,128,0,113746:0:0:0:0:
448,192,113660,128,0,113746:0:0:0:0:
320,192,113746,1,0,0:0:0:0:
64,192,113832,128,0,114003:0:0:0:0:
192,192,113832,128,0,114089:0:0:0:0:
448,192,113917,1,0,0:0:0:0:
320,192,114003,1,0,0:0:0:0:
64,192,114089,1,0,0:0:0:0:
320,192,114174,128,0,114346:0:0:0:0:
448,192,114174,128,0,114260:0:0:0:0:
64,192,114260,1,0,0:0:0:0:
192,192,114346,1,0,0:0:0:0:
320,192,114432,1,0,0:0:0:0:
448,192,114517,128,0,114689:0:0:0:0:
64,192,114517,128,0,114603:0:0:0:0:
192,192,114689,128,0,114774:0:0:0:0:
64,192,114774,128,0,115032:0:0:0:0:
320,192,114774,128,0,114946:0:0:0:0:
448,192,114860,1,0,0:0:0:0:
192,192,115032,128,0,115117:0:0:0:0:
320,192,115089,1,0,0:0:0:0:
448,192,115146,1,0,0:0:0:0:
64,192,115203,1,0,0:0:0:0:
320,192,115260,1,0,0:0:0:0:
448,192,115289,128,0,115374:0:0:0:0:
192,192,115317,1,0,0:0:0:0:
64,192,115374,1,0,0:0:0:0:
320,192,115460,1,0,0:0:0:0:
448,192,115546,128,0,115632:0:0:0:0:
192,192,115546,128,0,115717:0:0:0:0:
64,192,115632,128,0,115717:0:0:0:0:
448,192,115717,1,0,0:0:0:0:
320,192,115717,128,0,115803:0:0:0:0:
192,192,115803,128,0,115889:0:0:0:0:
320,192,115889,128,0,116060:0:0:0:0:
64,192,115889,128,0,115974:0:0:0:0:
448,192,115974,128,0,116060:0:0:0:0:
192,192,116060,128,0,116146:0:0:0:0:
320,192,116146,128,0,116232:0:0:0:0:
64,192,116146,1,0,0:0:0:0:
192,192,116232,128,0,116317:0:0:0:0:
448,192,116317,128,0,116403:0:0:0:0:
320,192,116403,1,0,0:0:0:0:
64,192,116403,128,0,116489:0:0:0:0:
192,192,116489,128,0,116574:0:0:0:0:
448,192,116489,1,0,0:0:0:0:
320,192,116574,128,0,116632:0:0:0:0:
448,192,116632,128,0,116689:0:0:0:0:
64,192,116689,128,0,116746:0:0:0:0:
320,192,116746,128,0,116803:0:0:0:0:
192,192,116803,128,0,116860:0:0:0:0:
64,192,116860,128,0,116917:0:0:0:0:
320,192,116917,1,0,0:0:0:0:
448,192,116917,128,0,117003:0:0:0:0:
192,192,117003,128,0,117089:0:0:0:0:
64,192,117089,128,0,117174:0:0:0:0:
320,192,117174,128,0,117260:0:0:0:0:
448,192,117260,128,0,117517:0:0:0:0:
192,192,117260,128,0,117432:0:0:0:0:
64,192,117260,128,0,117346:0:0:0:0:
320,192,117432,1,0,0:0:0:0:
192,192,117517,128,0,117603:0:0:0:0:
64,192,117517,128,0,117774:0:0:0:0:
448,192,117603,1,0,0:0:0:0:
192,192,117774,128,0,117860:0:0:0:0:
320,192,117774,128,0,117946:0:0:0:0:
64,192,117860,1,0,0:0:0:0:
192,192,117946,128,0,118117:0:0:0:0:
448,192,117946,128,0,118032:0:0:0:0:
320,192,118032,1,0,0:0:0:0:
64,192,118117,1,0,0:0:0:0:
320,192,118203,1,0,0:0:0:0:
64,192,118289,128,0,118374:0:0:0:0:
192,192,118289,1,0,0:0:0:0:
320,192,118374,1,0,0:0:0:0:
448,192,118374,128,0,118460:0:0:0:0:
64,192,118460,1,0,0:0:0:0:
192,192,118460,128,0,118546:0:0:0:0:
448,192,118546,1,0,0:0:0:0:
320,192,118546,1,0,0:0:0:0:
64,192,118632,128,0,118803:0:0:0:0:
192,192,118674,128,0,118889:0:0:0:0:
320,192,118889,128,0,119060:0:0:0:0:
448,192,118974,1,0,0:0:0:0:
448,192,119146,128,0,119232:0:0:0:0:
192,192,119232,1,0,0:0:0:0:
64,192,119232,1,0,0:0:0:0:
448,192,119317,1,0,0:0:0:0:
320,192,119374,128,0,119603:0:0:0:0:
64,192,119660,1,0,0:0:0:0:
192,192,119660,128,0,119774:0:0:0:0:
448,192,119717,128,0,119832:0:0:0:0:
192,192,119889,1,0,0:0:0:0:
320,192,120003,128,0,120117:0:0:0:0:
448,192,120060,128,0,120174:0:0:0:0:
64,192,120117,1,0,0:0:0:0:
192,192,120346,128,0,120460:0:0:0:0:
320,192,120374,128,0,120517:0:0:0:0:
192,192,120574,1,0,0:0:0:0:
320,192,120689,128,0,120860:0:0:0:0:
448,192,120710,128,0,120946:0:0:0:0:
64,192,121032,128,0,121203:0:0:0:0:
192,192,121032,128,0,121289:0:0:0:0:
448,192,121203,1,0,0:0:0:0:
320,192,121203,1,0,0:0:0:0:
448,192,121289,1,0,0:0:0:0:
320,192,121289,1,0,0:0:0:0:
192,192,121374,1,0,0:0:0:0:
64,192,121374,128,0,121460:0:0:0:0:
320,192,121460,128,0,121546:0:0:0:0:
448,192,121546,128,0,121632:0:0:0:0:
64,192,121632,128,0,121674:0:0:0:0:
192,192,121632,128,0,121717:0:0:0:0:
448,192,121803,128,0,121889:0:0:0:0:
320,192,121803,1,0,0:0:0:0:
192,192,121889,128,0,121974:0:0:0:0:
64,192,121974,128,0,122060:0:0:0:0:
320,192,121974,128,0,122017:0:0:0:0:
192,192,122146,128,0,122232:0:0:0:0:
320,192,122232,128,0,122317:0:0:0:0:
448,192,122317,128,0,122403:0:0:0:0:
192,192,122403,128,0,122489:0:0:0:0:
64,192,122403,128,0,122574:0:0:0:0:
320,192,122574,128,0,122660:0:0:0:0:
192,192,122660,128,0,122746:0:0:0:0:
448,192,122660,128,0,122832:0:0:0:0:
320,192,122746,128,0,122832:0:0:0:0:
192,192,122832,128,0,122917:0:0:0:0:
64,192,122917,128,0,123003:0:0:0:0:
448,192,123003,1,0,0:0:0:0:
320,192,123089,128,0,123174:0:0:0:0:
192,192,123174,128,0,123260:0:0:0:0:
448,192,123217,1,0,0:0:0:0:
320,192,123260,128,0,123346:0:0:0:0:
64,192,123260,128,0,123432:0:0:0:0:
192,192,123432,128,0,123517:0:0:0:0:
320,192,123517,128,0,123603:0:0:0:0:
448,192,123603,128,0,123689:0:0:0:0:
64,192,123646,1,0,0:0:0:0:
192,192,123689,128,0,123860:0:0:0:0:
320,192,123732,1,0,0:0:0:0:
448,192,123774,1,0,0:0:0:0:
64,192,123860,1,0,0:0:0:0:
192,192,123946,128,0,124032:0:0:0:0:
320,192,123946,128,0,124117:0:0:0:0:
448,192,124032,128,0,124117:0:0:0:0:
192,192,124117,128,0,124289:0:0:0:0:
320,192,124203,128,0,124374:0:0:0:0:
64,192,124203,128,0,124289:0:0:0:0:
192,192,124374,128,0,124460:0:0:0:0:
448,192,124460,128,0,124546:0:0:0:0:
64,192,124460,128,0,124632:0:0:0:0:
320,192,124546,128,0,124632:0:0:0:0:
192,192,124632,128,0,124717:0:0:0:0:
64,192,124717,128,0,124803:0:0:0:0:
448,192,124717,128,0,124889:0:0:0:0:
192,192,124889,128,0,124974:0:0:0:0:
64,192,124974,128,0,125146:0:0:0:0:
448,192,124974,128,0,125060:0:0:0:0:
320,192,125060,128,0,125146:0:0:0:0:
192,192,125146,128,0,125232:0:0:0:0:
64,192,125232,128,0,125403:0:0:0:0:
448,192,125232,128,0,125317:0:0:0:0:
320,192,125317,1,0,0:0:0:0:
192,192,125403,128,0,125489:0:0:0:0:
448,192,125489,1,0,0:0:0:0:
320,192,125489,1,0,0:0:0:0:
64,192,125546,128,0,125603:0:0:0:0:
192,192,125603,128,0,125660:0:0:0:0:
320,192,125660,128,0,125717:0:0:0:0:
448,192,125717,128,0,125774:0:0:0:0:
64,192,125774,128,0,125832:0:0:0:0:
320,192,125832,128,0,125889:0:0:0:0:
192,192,125889,128,0,125946:0:0:0:0:
448,192,125946,128,0,126003:0:0:0:0:
64,192,126003,128,0,126060:0:0:0:0:
320,192,126060,128,0,126117:0:0:0:0:
448,192,126117,128,0,126174:0:0:0:0:
192,192,126174,128,0,126232:0:0:0:0:
320,192,126232,128,0,126289:0:0:0:0:
192,192,126289,128,0,126346:0:0:0:0:
64,192,126346,128,0,126403:0:0:0:0:
448,192,126403,128,0,126460:0:0:0:0:
192,192,126460,128,0,126517:0:0:0:0:
320,192,126517,128,0,126689:0:0:0:0:
192,192,126689,128,0,126774:0:0:0:0:
64,192,126774,128,0,127203:0:0:0:0:
320,192,126774,128,0,127546:0:0:0:0:
448,192,126774,128,0,128117:0:0:0:0:
64,192,127546,1,0,0:0:0:0:
192,192,127632,1,0,0:0:0:0:
320,192,127717,1,0,0:0:0:0:
64,192,127803,1,0,0:0:0:0:
192,192,127889,1,0,0:0:0:0:
320,192,127946,1,0,0:0:0:0:
64,192,128003,1,0,0:0:0:0:
192,192,128060,1,0,0:0:0:0:
320,192,128117,1,0,0:0:0:0:
64,192,128174,1,0,0:0:0:0:
192,192,128232,128,0,128403:0:0:0:0:
320,192,128232,128,0,128460:0:0:0:0:
448,192,128232,128,0,128517:0:0:0:0:
64,192,128517,128,0,128660:0:0:0:0:
192,192,128546,128,0,128660:0:0:0:0:
320,192,128574,128,0,128660:0:0:0:0:
448,192,128603,128,0,128660:0:0:0:0:
