osu file format v14

[General]
AudioFilename: audio.mp3
AudioLeadIn: 0
PreviewTime: 102174
Countdown: 0
SampleSet: Soft
StackLeniency: 0.7
Mode: 3
LetterboxInBreaks: 0
SpecialStyle: 0
WidescreenStoryboard: 1

[Editor]
Bookmarks: 102174
DistanceSpacing: 0.9
BeatDivisor: 12
GridSize: 32
TimelineZoom: 2.199999

[Metadata]
Title:Sapphire On Fire
TitleUnicode:燃えよサファイア
Artist:NIWASHI
ArtistUnicode:庭師
Creator:[WP]Danitskin
Version:Polarin's Hyper
Source:太鼓の達人
Tags:jazz instrumental taiko no tatsujin ドンだー!世界一決定戦2021 Donder! WORLD CHAMPIONSHIP 2021 moe yo ニジイロVer.2021 tech speedjack elexire Polarin olivertruck
BeatmapID:4066001
BeatmapSetID:1775437

[Difficulty]
HPDrainRate:7.5
CircleSize:4
OverallDifficulty:7.5
ApproachRate:5
SliderMultiplier:1.4
SliderTickRate:1

[Events]
//Background and Video events
0,0,"sincerely-media-gPnHi8AmO5k-unsplash.jpg",0,0
//Break Periods
//Storyboard Layer 0 (Background)
//Storyboard Layer 1 (Fail)
//Storyboard Layer 2 (Pass)
//Storyboard Layer 3 (Foreground)
//Storyboard Layer 4 (Overlay)
//Storyboard Sound Samples

[TimingPoints]
1375,342.857142857143,4,3,1,70,1,0
13546,-100,4,2,0,70,0,0
21946,-100,4,3,1,70,0,0
52117,-100,4,2,0,70,0,0
54860,-100,4,3,1,70,0,0
57603,-100,4,2,1,70,0,0
65403,-100,4,3,1,70,0,0
65832,-100,4,2,1,70,0,0
66860,-100,4,3,1,70,0,0
66946,-100,4,2,1,70,0,0
67203,-100,4,3,1,70,0,0
74060,-100,4,2,1,70,0,0
79003,-100,4,3,1,70,0,0
99432,342.857142857143,4,3,1,70,1,0
102174,-100,4,2,1,70,0,0
110403,-100,4,3,1,70,0,0
118632,-100,4,2,1,70,0,0
119232,-100,4,3,1,70,0,0
119317,-100,4,2,1,70,0,0
121374,-100,4,3,1,70,0,0

[HitObjects]
192,192,2060,5,0,0:0:0:0:
64,192,2060,1,0,0:0:0:0:
320,192,2175,1,0,0:0:0:0:
448,192,2175,1,0,0:0:0:0:
192,192,2289,1,0,0:0:0:0:
64,192,2289,1,0,0:0:0:0:
448,192,2403,1,0,0:0:0:0:
320,192,2403,1,0,0:0:0:0:
64,192,2575,1,0,0:0:0:0:
448,192,2746,1,0,0:0:0:0:
192,192,2746,1,0,0:0:0:0:
64,192,2832,1,0,0:0:0:0:
192,192,2917,1,0,0:0:0:0:
320,192,3003,1,0,0:0:0:0:
448,192,3003,1,0,0:0:0:0:
448,192,3260,1,0,0:0:0:0:
64,192,3260,1,0,0:0:0:0:
320,192,3346,1,0,0:0:0:0:
192,192,3432,1,0,0:0:0:0:
64,192,3432,1,0,0:0:0:0:
448,192,3517,1,0,0:0:0:0:
320,192,3603,1,0,0:0:0:0:
64,192,3689,1,0,0:0:0:0:
448,192,3689,1,0,0:0:0:0:
192,192,3775,1,0,0:0:0:0:
64,192,3946,1,0,0:0:0:0:
320,192,3946,1,0,0:0:0:0:
192,192,4117,1,0,0:0:0:0:
448,192,4117,1,0,0:0:0:0:
64,192,4203,1,0,0:0:0:0:
192,192,4289,1,0,0:0:0:0:
320,192,4375,1,0,0:0:0:0:
448,192,4375,1,0,0:0:0:0:
448,192,4632,1,0,0:0:0:0:
64,192,4632,1,0,0:0:0:0:
320,192,4717,1,0,0:0:0:0:
192,192,4803,1,0,0:0:0:0:
64,192,4803,1,0,0:0:0:0:
448,192,4889,1,0,0:0:0:0:
448,192,5060,1,0,0:0:0:0:
192,192,5146,1,0,0:0:0:0:
64,192,5146,1,0,0:0:0:0:
320,192,5317,1,0,0:0:0:0:
64,192,5403,1,0,0:0:0:0:
448,192,5489,1,0,0:0:0:0:
192,192,5489,1,0,0:0:0:0:
320,192,5575,1,0,0:0:0:0:
64,192,5660,1,0,0:0:0:0:
320,192,5746,1,0,0:0:0:0:
448,192,5746,1,0,0:0:0:0:
448,192,6003,1,0,0:0:0:0:
64,192,6003,1,0,0:0:0:0:
320,192,6089,1,0,0:0:0:0:
192,192,6175,1,0,0:0:0:0:
64,192,6175,1,0,0:0:0:0:
320,192,6260,1,0,0:0:0:0:
192,192,6346,1,0,0:0:0:0:
64,192,6432,1,0,0:0:0:0:
448,192,6432,1,0,0:0:0:0:
192,192,6517,1,0,0:0:0:0:
320,192,6689,1,0,0:0:0:0:
64,192,6689,1,0,0:0:0:0:
192,192,6860,1,0,0:0:0:0:
448,192,6860,1,0,0:0:0:0:
320,192,6946,1,0,0:0:0:0:
64,192,7032,1,0,0:0:0:0:
320,192,7117,1,0,0:0:0:0:
448,192,7117,1,0,0:0:0:0:
192,192,7289,1,0,0:0:0:0:
64,192,7375,1,0,0:0:0:0:
448,192,7375,1,0,0:0:0:0:
320,192,7460,1,0,0:0:0:0:
192,192,7546,1,0,0:0:0:0:
64,192,7546,1,0,0:0:0:0:
448,192,7632,1,0,0:0:0:0:
448,192,7803,1,0,0:0:0:0:
64,192,7889,1,0,0:0:0:0:
320,192,7946,1,0,0:0:0:0:
192,192,8003,1,0,0:0:0:0:
448,192,8060,1,0,0:0:0:0:
64,192,8146,1,0,0:0:0:0:
320,192,8232,1,0,0:0:0:0:
448,192,8232,1,0,0:0:0:0:
192,192,8346,1,0,0:0:0:0:
64,192,8460,1,0,0:0:0:0:
320,192,8460,1,0,0:0:0:0:
192,192,8689,1,0,0:0:0:0:
448,192,8689,1,0,0:0:0:0:
320,192,8917,1,0,0:0:0:0:
448,192,8917,1,0,0:0:0:0:
64,192,8917,1,0,0:0:0:0:
320,192,9146,1,0,0:0:0:0:
192,192,9146,1,0,0:0:0:0:
192,192,9375,1,0,0:0:0:0:
448,192,9375,1,0,0:0:0:0:
64,192,9489,1,0,0:0:0:0:
192,192,9603,1,0,0:0:0:0:
320,192,9603,1,0,0:0:0:0:
448,192,9603,1,0,0:0:0:0:
320,192,9832,1,0,0:0:0:0:
64,192,9832,1,0,0:0:0:0:
192,192,10060,1,0,0:0:0:0:
448,192,10060,1,0,0:0:0:0:
192,192,10289,1,0,0:0:0:0:
320,192,10289,1,0,0:0:0:0:
448,192,10289,1,0,0:0:0:0:
320,192,10517,1,0,0:0:0:0:
448,192,10517,1,0,0:0:0:0:
192,192,10632,1,0,0:0:0:0:
64,192,10746,1,0,0:0:0:0:
320,192,10746,1,0,0:0:0:0:
448,192,10860,1,0,0:0:0:0:
192,192,10975,1,0,0:0:0:0:
64,192,10975,1,0,0:0:0:0:
64,192,11232,1,0,0:0:0:0:
448,192,11317,1,0,0:0:0:0:
320,192,11403,1,0,0:0:0:0:
448,192,11489,1,0,0:0:0:0:
64,192,11489,1,0,0:0:0:0:
448,192,11746,1,0,0:0:0:0:
64,192,11832,1,0,0:0:0:0:
192,192,11917,1,0,0:0:0:0:
64,192,12003,1,0,0:0:0:0:
448,192,12003,1,0,0:0:0:0:
320,192,12003,1,0,0:0:0:0:
320,192,12517,128,0,12746:0:0:0:0:
192,192,12746,128,0,13032:0:0:0:0:
320,192,13032,1,0,0:0:0:0:
448,192,13032,1,0,0:0:0:0:
64,192,13546,1,0,0:0:0:0:
192,192,13632,1,0,0:0:0:0:
320,192,13717,1,0,0:0:0:0:
448,192,13717,1,0,0:0:0:0:
320,192,13946,1,0,0:0:0:0:
64,192,13946,1,0,0:0:0:0:
192,192,14175,1,0,0:0:0:0:
448,192,14175,1,0,0:0:0:0:
448,192,14403,1,0,0:0:0:0:
64,192,14403,1,0,0:0:0:0:
192,192,14517,1,0,0:0:0:0:
320,192,14632,1,0,0:0:0:0:
192,192,14746,1,0,0:0:0:0:
64,192,14746,1,0,0:0:0:0:
192,192,14975,1,0,0:0:0:0:
64,192,15089,1,0,0:0:0:0:
320,192,15089,1,0,0:0:0:0:
448,192,15203,1,0,0:0:0:0:
64,192,15317,1,0,0:0:0:0:
192,192,15317,1,0,0:0:0:0:
320,192,15432,1,0,0:0:0:0:
192,192,15546,1,0,0:0:0:0:
448,192,15546,1,0,0:0:0:0:
448,192,15775,1,0,0:0:0:0:
320,192,15775,1,0,0:0:0:0:
64,192,15889,1,0,0:0:0:0:
192,192,15889,1,0,0:0:0:0:
448,192,16003,1,0,0:0:0:0:
320,192,16117,1,0,0:0:0:0:
192,192,16117,1,0,0:0:0:0:
64,192,16232,1,0,0:0:0:0:
320,192,16346,1,0,0:0:0:0:
192,192,16460,1,0,0:0:0:0:
64,192,16460,1,0,0:0:0:0:
320,192,16689,1,0,0:0:0:0:
448,192,16689,1,0,0:0:0:0:
192,192,16917,1,0,0:0:0:0:
448,192,17032,1,0,0:0:0:0:
64,192,17146,1,0,0:0:0:0:
192,192,17146,1,0,0:0:0:0:
320,192,17489,1,0,0:0:0:0:
64,192,17489,1,0,0:0:0:0:
192,192,17832,1,0,0:0:0:0:
64,192,17832,1,0,0:0:0:0:
448,192,17946,1,0,0:0:0:0:
320,192,18060,1,0,0:0:0:0:
64,192,18060,1,0,0:0:0:0:
448,192,18175,1,0,0:0:0:0:
192,192,18175,1,0,0:0:0:0:
192,192,18403,1,0,0:0:0:0:
320,192,18460,1,0,0:0:0:0:
64,192,18517,1,0,0:0:0:0:
448,192,18517,1,0,0:0:0:0:
320,192,18746,1,0,0:0:0:0:
448,192,18746,1,0,0:0:0:0:
192,192,18860,1,0,0:0:0:0:
64,192,18860,1,0,0:0:0:0:
320,192,18975,1,0,0:0:0:0:
64,192,19203,1,0,0:0:0:0:
448,192,19203,1,0,0:0:0:0:
320,192,19317,1,0,0:0:0:0:
192,192,19432,1,0,0:0:0:0:
64,192,19432,1,0,0:0:0:0:
320,192,19546,1,0,0:0:0:0:
192,192,19660,1,0,0:0:0:0:
448,192,19660,1,0,0:0:0:0:
64,192,19775,1,0,0:0:0:0:
320,192,19889,1,0,0:0:0:0:
448,192,19889,1,0,0:0:0:0:
64,192,20003,1,0,0:0:0:0:
192,192,20117,1,0,0:0:0:0:
320,192,20232,1,0,0:0:0:0:
448,192,20232,1,0,0:0:0:0:
64,192,20346,1,0,0:0:0:0:
320,192,20460,1,0,0:0:0:0:
192,192,20575,1,0,0:0:0:0:
448,192,20575,1,0,0:0:0:0:
64,192,20917,1,0,0:0:0:0:
448,192,20917,1,0,0:0:0:0:
320,192,21260,1,0,0:0:0:0:
64,192,21260,1,0,0:0:0:0:
448,192,21489,1,0,0:0:0:0:
320,192,21489,1,0,0:0:0:0:
192,192,21603,1,0,0:0:0:0:
64,192,21603,1,0,0:0:0:0:
320,192,21775,1,0,0:0:0:0:
448,192,21946,1,0,0:0:0:0:
64,192,21946,1,0,0:0:0:0:
320,192,22032,1,0,0:0:0:0:
192,192,22117,1,0,0:0:0:0:
448,192,22203,128,0,22375:0:0:0:0:
64,192,22203,1,0,0:0:0:0:
192,192,22375,1,0,0:0:0:0:
64,192,22460,1,0,0:0:0:0:
320,192,22546,128,0,22717:0:0:0:0:
448,192,22546,1,0,0:0:0:0:
64,192,22717,1,0,0:0:0:0:
192,192,22803,1,0,0:0:0:0:
320,192,22889,1,0,0:0:0:0:
448,192,22975,1,0,0:0:0:0:
64,192,22975,1,0,0:0:0:0:
320,192,23146,1,0,0:0:0:0:
64,192,23232,1,0,0:0:0:0:
192,192,23232,128,0,23489:0:0:0:0:
320,192,23489,1,0,0:0:0:0:
64,192,23546,1,0,0:0:0:0:
448,192,23603,1,0,0:0:0:0:
192,192,23660,1,0,0:0:0:0:
320,192,23746,1,0,0:0:0:0:
64,192,23832,1,0,0:0:0:0:
320,192,23917,1,0,0:0:0:0:
192,192,24003,1,0,0:0:0:0:
448,192,24089,1,0,0:0:0:0:
64,192,24260,1,0,0:0:0:0:
320,192,24346,1,0,0:0:0:0:
448,192,24346,1,0,0:0:0:0:
192,192,24517,1,0,0:0:0:0:
448,192,24603,1,0,0:0:0:0:
320,192,24689,1,0,0:0:0:0:
64,192,24689,1,0,0:0:0:0:
192,192,24689,1,0,0:0:0:0:
448,192,24860,1,0,0:0:0:0:
192,192,24946,1,0,0:0:0:0:
64,192,24946,1,0,0:0:0:0:
320,192,25089,1,0,0:0:0:0:
448,192,25203,1,0,0:0:0:0:
64,192,25203,1,0,0:0:0:0:
320,192,25375,1,0,0:0:0:0:
448,192,25375,1,0,0:0:0:0:
192,192,25546,1,0,0:0:0:0:
64,192,25717,1,0,0:0:0:0:
320,192,25717,1,0,0:0:0:0:
320,192,25889,1,0,0:0:0:0:
192,192,25975,1,0,0:0:0:0:
64,192,26060,1,0,0:0:0:0:
448,192,26060,1,0,0:0:0:0:
320,192,26232,1,0,0:0:0:0:
64,192,26317,1,0,0:0:0:0:
192,192,26317,1,0,0:0:0:0:
64,192,26575,1,0,0:0:0:0:
448,192,26575,1,0,0:0:0:0:
320,192,26660,1,0,0:0:0:0:
192,192,26746,1,0,0:0:0:0:
320,192,26832,1,0,0:0:0:0:
192,192,26917,1,0,0:0:0:0:
64,192,27003,1,0,0:0:0:0:
320,192,27089,1,0,0:0:0:0:
192,192,27175,1,0,0:0:0:0:
320,192,27260,1,0,0:0:0:0:
192,192,27432,1,0,0:0:0:0:
64,192,27432,1,0,0:0:0:0:
448,192,27432,1,0,0:0:0:0:
320,192,27689,1,0,0:0:0:0:
448,192,27689,1,0,0:0:0:0:
192,192,27946,1,0,0:0:0:0:
64,192,27946,1,0,0:0:0:0:
320,192,28032,1,0,0:0:0:0:
64,192,28117,1,0,0:0:0:0:
448,192,28117,1,0,0:0:0:0:
192,192,28375,1,0,0:0:0:0:
320,192,28460,1,0,0:0:0:0:
448,192,28460,1,0,0:0:0:0:
64,192,28632,1,0,0:0:0:0:
192,192,28803,1,0,0:0:0:0:
448,192,28803,1,0,0:0:0:0:
192,192,29060,1,0,0:0:0:0:
320,192,29060,1,0,0:0:0:0:
320,192,29317,1,0,0:0:0:0:
448,192,29317,1,0,0:0:0:0:
64,192,29489,1,0,0:0:0:0:
192,192,29489,1,0,0:0:0:0:
64,192,29746,1,0,0:0:0:0:
320,192,29832,1,0,0:0:0:0:
448,192,29832,1,0,0:0:0:0:
192,192,29917,1,0,0:0:0:0:
320,192,30003,1,0,0:0:0:0:
64,192,30175,1,0,0:0:0:0:
192,192,30175,1,0,0:0:0:0:
448,192,30175,1,0,0:0:0:0:
320,192,30346,1,0,0:0:0:0:
192,192,30432,1,0,0:0:0:0:
64,192,30432,1,0,0:0:0:0:
448,192,30575,1,0,0:0:0:0:
320,192,30689,1,0,0:0:0:0:
64,192,30689,1,0,0:0:0:0:
448,192,30860,1,0,0:0:0:0:
64,192,30860,1,0,0:0:0:0:
192,192,31117,1,0,0:0:0:0:
320,192,31203,1,0,0:0:0:0:
448,192,31203,1,0,0:0:0:0:
64,192,31375,1,0,0:0:0:0:
192,192,31546,1,0,0:0:0:0:
448,192,31546,1,0,0:0:0:0:
448,192,31803,1,0,0:0:0:0:
320,192,31889,1,0,0:0:0:0:
192,192,31889,1,0,0:0:0:0:
64,192,32060,1,0,0:0:0:0:
448,192,32146,1,0,0:0:0:0:
64,192,32232,1,0,0:0:0:0:
320,192,32232,1,0,0:0:0:0:
448,192,32489,1,0,0:0:0:0:
192,192,32575,1,0,0:0:0:0:
64,192,32575,1,0,0:0:0:0:
320,192,32746,1,0,0:0:0:0:
448,192,32917,1,0,0:0:0:0:
64,192,32917,1,0,0:0:0:0:
320,192,33003,1,0,0:0:0:0:
192,192,33089,1,0,0:0:0:0:
448,192,33175,128,0,33346:0:0:0:0:
64,192,33175,1,0,0:0:0:0:
192,192,33346,1,0,0:0:0:0:
64,192,33432,1,0,0:0:0:0:
320,192,33517,128,0,33689:0:0:0:0:
448,192,33517,1,0,0:0:0:0:
64,192,33689,1,0,0:0:0:0:
192,192,33775,1,0,0:0:0:0:
320,192,33860,1,0,0:0:0:0:
448,192,33946,1,0,0:0:0:0:
64,192,33946,1,0,0:0:0:0:
320,192,34117,1,0,0:0:0:0:
64,192,34203,1,0,0:0:0:0:
192,192,34203,128,0,34632:0:0:0:0:
320,192,34632,1,0,0:0:0:0:
64,192,34717,1,0,0:0:0:0:
448,192,34803,1,0,0:0:0:0:
192,192,34889,1,0,0:0:0:0:
320,192,34975,1,0,0:0:0:0:
64,192,35060,1,0,0:0:0:0:
448,192,35146,1,0,0:0:0:0:
192,192,35232,1,0,0:0:0:0:
320,192,35317,1,0,0:0:0:0:
64,192,35403,1,0,0:0:0:0:
320,192,35489,1,0,0:0:0:0:
448,192,35575,1,0,0:0:0:0:
192,192,35660,1,0,0:0:0:0:
64,192,35660,1,0,0:0:0:0:
448,192,35832,1,0,0:0:0:0:
320,192,35875,1,0,0:0:0:0:
192,192,35917,1,0,0:0:0:0:
64,192,36089,1,0,0:0:0:0:
448,192,36175,1,0,0:0:0:0:
320,192,36260,1,0,0:0:0:0:
192,192,36346,1,0,0:0:0:0:
320,192,36432,1,0,0:0:0:0:
64,192,36517,1,0,0:0:0:0:
192,192,36603,1,0,0:0:0:0:
64,192,36689,128,0,36860:0:0:0:0:
320,192,36775,1,0,0:0:0:0:
448,192,36860,128,0,37032:0:0:0:0:
192,192,36946,1,0,0:0:0:0:
64,192,37032,1,0,0:0:0:0:
320,192,37117,1,0,0:0:0:0:
448,192,37203,1,0,0:0:0:0:
320,192,37375,1,0,0:0:0:0:
192,192,37460,1,0,0:0:0:0:
320,192,37546,1,0,0:0:0:0:
64,192,37632,1,0,0:0:0:0:
192,192,37717,1,0,0:0:0:0:
64,192,37889,1,0,0:0:0:0:
320,192,37975,1,0,0:0:0:0:
448,192,38060,1,0,0:0:0:0:
192,192,38146,1,0,0:0:0:0:
64,192,38232,1,0,0:0:0:0:
320,192,38317,1,0,0:0:0:0:
192,192,38403,1,0,0:0:0:0:
448,192,38403,1,0,0:0:0:0:
64,192,38575,128,0,38746:0:0:0:0:
448,192,38575,128,0,38746:0:0:0:0:
320,192,38575,128,0,38746:0:0:0:0:
448,192,38917,1,0,0:0:0:0:
192,192,38975,1,0,0:0:0:0:
64,192,39032,1,0,0:0:0:0:
448,192,39089,1,0,0:0:0:0:
320,192,39089,1,0,0:0:0:0:
320,192,39260,1,0,0:0:0:0:
192,192,39260,1,0,0:0:0:0:
192,192,39432,1,0,0:0:0:0:
64,192,39432,1,0,0:0:0:0:
320,192,39603,1,0,0:0:0:0:
64,192,39689,1,0,0:0:0:0:
192,192,39775,1,0,0:0:0:0:
320,192,39775,1,0,0:0:0:0:
448,192,39860,1,0,0:0:0:0:
192,192,39946,1,0,0:0:0:0:
320,192,40032,1,0,0:0:0:0:
192,192,40117,1,0,0:0:0:0:
64,192,40203,1,0,0:0:0:0:
320,192,40289,1,0,0:0:0:0:
448,192,40289,1,0,0:0:0:0:
64,192,40375,1,0,0:0:0:0:
320,192,40460,1,0,0:0:0:0:
192,192,40546,1,0,0:0:0:0:
320,192,40632,1,0,0:0:0:0:
64,192,40717,1,0,0:0:0:0:
192,192,40803,1,0,0:0:0:0:
448,192,40803,1,0,0:0:0:0:
192,192,40975,1,0,0:0:0:0:
448,192,41060,1,0,0:0:0:0:
320,192,41146,1,0,0:0:0:0:
64,192,41146,1,0,0:0:0:0:
448,192,41232,1,0,0:0:0:0:
192,192,41317,1,0,0:0:0:0:
320,192,41403,1,0,0:0:0:0:
192,192,41489,1,0,0:0:0:0:
448,192,41575,1,0,0:0:0:0:
64,192,41660,1,0,0:0:0:0:
192,192,41746,1,0,0:0:0:0:
64,192,41832,1,0,0:0:0:0:
320,192,41917,1,0,0:0:0:0:
448,192,41917,1,0,0:0:0:0:
192,192,42175,1,0,0:0:0:0:
64,192,42175,1,0,0:0:0:0:
320,192,42346,1,0,0:0:0:0:
448,192,42346,1,0,0:0:0:0:
64,192,42517,1,0,0:0:0:0:
192,192,42575,1,0,0:0:0:0:
320,192,42632,1,0,0:0:0:0:
448,192,42689,1,0,0:0:0:0:
64,192,42746,1,0,0:0:0:0:
192,192,42803,1,0,0:0:0:0:
320,192,42860,1,0,0:0:0:0:
64,192,42946,1,0,0:0:0:0:
448,192,43032,1,0,0:0:0:0:
192,192,43117,1,0,0:0:0:0:
320,192,43203,1,0,0:0:0:0:
448,192,43203,1,0,0:0:0:0:
448,192,43375,1,0,0:0:0:0:
64,192,43375,1,0,0:0:0:0:
320,192,43460,1,0,0:0:0:0:
192,192,43460,1,0,0:0:0:0:
448,192,43632,1,0,0:0:0:0:
192,192,43717,1,0,0:0:0:0:
320,192,43803,1,0,0:0:0:0:
64,192,43889,1,0,0:0:0:0:
448,192,43889,1,0,0:0:0:0:
192,192,44060,1,0,0:0:0:0:
320,192,44146,1,0,0:0:0:0:
448,192,44146,1,0,0:0:0:0:
64,192,44232,1,0,0:0:0:0:
320,192,44403,1,0,0:0:0:0:
192,192,44489,1,0,0:0:0:0:
448,192,44575,1,0,0:0:0:0:
64,192,44575,1,0,0:0:0:0:
192,192,44746,1,0,0:0:0:0:
320,192,44832,1,0,0:0:0:0:
448,192,44832,1,0,0:0:0:0:
64,192,45003,1,0,0:0:0:0:
192,192,45089,1,0,0:0:0:0:
320,192,45175,1,0,0:0:0:0:
448,192,45260,1,0,0:0:0:0:
192,192,45260,1,0,0:0:0:0:
64,192,45346,1,0,0:0:0:0:
64,192,45517,1,0,0:0:0:0:
64,192,45689,1,0,0:0:0:0:
64,192,45860,1,0,0:0:0:0:
320,192,46032,1,0,0:0:0:0:
448,192,46032,1,0,0:0:0:0:
192,192,46203,1,0,0:0:0:0:
64,192,46203,1,0,0:0:0:0:
320,192,46289,1,0,0:0:0:0:
448,192,46289,1,0,0:0:0:0:
192,192,46460,1,0,0:0:0:0:
320,192,46546,1,0,0:0:0:0:
64,192,46632,1,0,0:0:0:0:
448,192,46632,1,0,0:0:0:0:
320,192,46803,1,0,0:0:0:0:
192,192,46889,1,0,0:0:0:0:
64,192,46889,1,0,0:0:0:0:
320,192,47032,1,0,0:0:0:0:
448,192,47146,1,0,0:0:0:0:
64,192,47146,1,0,0:0:0:0:
192,192,47232,1,0,0:0:0:0:
320,192,47317,1,0,0:0:0:0:
448,192,47317,1,0,0:0:0:0:
192,192,47489,1,0,0:0:0:0:
64,192,47660,1,0,0:0:0:0:
320,192,47660,1,0,0:0:0:0:
448,192,47832,1,0,0:0:0:0:
64,192,48003,1,0,0:0:0:0:
448,192,48003,1,0,0:0:0:0:
320,192,48175,1,0,0:0:0:0:
64,192,48260,1,0,0:0:0:0:
192,192,48260,1,0,0:0:0:0:
64,192,48517,1,0,0:0:0:0:
448,192,48517,1,0,0:0:0:0:
320,192,48603,1,0,0:0:0:0:
192,192,48689,1,0,0:0:0:0:
320,192,48775,1,0,0:0:0:0:
192,192,48860,1,0,0:0:0:0:
64,192,48946,1,0,0:0:0:0:
320,192,49032,1,0,0:0:0:0:
192,192,49117,1,0,0:0:0:0:
320,192,49203,1,0,0:0:0:0:
192,192,49375,1,0,0:0:0:0:
64,192,49375,1,0,0:0:0:0:
448,192,49375,1,0,0:0:0:0:
320,192,49632,1,0,0:0:0:0:
448,192,49632,1,0,0:0:0:0:
192,192,49889,1,0,0:0:0:0:
64,192,49889,1,0,0:0:0:0:
320,192,49975,1,0,0:0:0:0:
64,192,50060,1,0,0:0:0:0:
448,192,50060,1,0,0:0:0:0:
192,192,50317,1,0,0:0:0:0:
320,192,50403,1,0,0:0:0:0:
448,192,50403,1,0,0:0:0:0:
64,192,50575,1,0,0:0:0:0:
192,192,50746,1,0,0:0:0:0:
448,192,50746,1,0,0:0:0:0:
192,192,51003,1,0,0:0:0:0:
320,192,51003,1,0,0:0:0:0:
320,192,51260,1,0,0:0:0:0:
448,192,51260,1,0,0:0:0:0:
64,192,51346,1,0,0:0:0:0:
448,192,51432,1,0,0:0:0:0:
192,192,51517,1,0,0:0:0:0:
64,192,51689,1,0,0:0:0:0:
320,192,51775,1,0,0:0:0:0:
448,192,51775,1,0,0:0:0:0:
192,192,51946,1,0,0:0:0:0:
64,192,52117,1,0,0:0:0:0:
448,192,52117,1,0,0:0:0:0:
192,192,52346,1,0,0:0:0:0:
320,192,52575,1,0,0:0:0:0:
448,192,52803,1,0,0:0:0:0:
64,192,52803,1,0,0:0:0:0:
320,192,53146,1,0,0:0:0:0:
448,192,53146,1,0,0:0:0:0:
320,192,53489,1,0,0:0:0:0:
64,192,53489,1,0,0:0:0:0:
192,192,53832,1,0,0:0:0:0:
64,192,53832,1,0,0:0:0:0:
64,192,54175,1,0,0:0:0:0:
448,192,54175,1,0,0:0:0:0:
192,192,54517,1,0,0:0:0:0:
64,192,54517,1,0,0:0:0:0:
320,192,54689,1,0,0:0:0:0:
448,192,54860,1,0,0:0:0:0:
64,192,54860,1,0,0:0:0:0:
320,192,54946,1,0,0:0:0:0:
192,192,55032,1,0,0:0:0:0:
448,192,55117,128,0,55289:0:0:0:0:
192,192,55289,1,0,0:0:0:0:
64,192,55375,1,0,0:0:0:0:
320,192,55460,128,0,55632:0:0:0:0:
64,192,55632,1,0,0:0:0:0:
192,192,55717,1,0,0:0:0:0:
320,192,55803,1,0,0:0:0:0:
448,192,55889,1,0,0:0:0:0:
64,192,55889,1,0,0:0:0:0:
320,192,56060,1,0,0:0:0:0:
192,192,56146,1,0,0:0:0:0:
64,192,56146,1,0,0:0:0:0:
320,192,56575,1,0,0:0:0:0:
64,192,56660,1,0,0:0:0:0:
448,192,56746,1,0,0:0:0:0:
192,192,56832,1,0,0:0:0:0:
320,192,56917,1,0,0:0:0:0:
64,192,57003,1,0,0:0:0:0:
192,192,57175,1,0,0:0:0:0:
320,192,57260,1,0,0:0:0:0:
448,192,57260,1,0,0:0:0:0:
192,192,57432,1,0,0:0:0:0:
64,192,57603,1,0,0:0:0:0:
448,192,57603,1,0,0:0:0:0:
448,192,57860,1,0,0:0:0:0:
64,192,57946,1,0,0:0:0:0:
320,192,58203,1,0,0:0:0:0:
64,192,58289,1,0,0:0:0:0:
448,192,58546,1,0,0:0:0:0:
64,192,58632,1,0,0:0:0:0:
192,192,58803,1,0,0:0:0:0:
448,192,58889,1,0,0:0:0:0:
64,192,58975,1,0,0:0:0:0:
320,192,59146,1,0,0:0:0:0:
448,192,59317,1,0,0:0:0:0:
192,192,59489,1,0,0:0:0:0:
448,192,59546,1,0,0:0:0:0:
64,192,59603,1,0,0:0:0:0:
320,192,59660,1,0,0:0:0:0:
192,192,59832,1,0,0:0:0:0:
448,192,59917,1,0,0:0:0:0:
64,192,60003,1,0,0:0:0:0:
192,192,60089,1,0,0:0:0:0:
320,192,60175,1,0,0:0:0:0:
64,192,60260,1,0,0:0:0:0:
448,192,60346,1,0,0:0:0:0:
192,192,60517,1,0,0:0:0:0:
64,192,60575,1,0,0:0:0:0:
320,192,60632,1,0,0:0:0:0:
192,192,60689,1,0,0:0:0:0:
320,192,60860,1,0,0:0:0:0:
448,192,60917,1,0,0:0:0:0:
192,192,60975,1,0,0:0:0:0:
320,192,61032,1,0,0:0:0:0:
64,192,61203,1,0,0:0:0:0:
192,192,61260,1,0,0:0:0:0:
320,192,61317,1,0,0:0:0:0:
64,192,61375,1,0,0:0:0:0:
448,192,61546,1,0,0:0:0:0:
192,192,61603,1,0,0:0:0:0:
320,192,61660,1,0,0:0:0:0:
448,192,61717,1,0,0:0:0:0:
64,192,61803,1,0,0:0:0:0:
192,192,61889,1,0,0:0:0:0:
448,192,61975,1,0,0:0:0:0:
192,192,62060,1,0,0:0:0:0:
64,192,62060,1,0,0:0:0:0:
64,192,62232,1,0,0:0:0:0:
448,192,62403,1,0,0:0:0:0:
320,192,62403,1,0,0:0:0:0:
192,192,62575,1,0,0:0:0:0:
192,192,62746,1,0,0:0:0:0:
448,192,62917,1,0,0:0:0:0:
64,192,63089,1,0,0:0:0:0:
192,192,63089,1,0,0:0:0:0:
64,192,63346,1,0,0:0:0:0:
192,192,63432,1,0,0:0:0:0:
448,192,63432,1,0,0:0:0:0:
320,192,63603,1,0,0:0:0:0:
64,192,63775,1,0,0:0:0:0:
448,192,63817,1,0,0:0:0:0:
320,192,64032,1,0,0:0:0:0:
192,192,64117,1,0,0:0:0:0:
448,192,64117,1,0,0:0:0:0:
64,192,64289,1,0,0:0:0:0:
320,192,64460,1,0,0:0:0:0:
448,192,64460,1,0,0:0:0:0:
192,192,64632,1,0,0:0:0:0:
448,192,64717,1,0,0:0:0:0:
320,192,64803,1,0,0:0:0:0:
64,192,64803,1,0,0:0:0:0:
192,192,64975,1,0,0:0:0:0:
320,192,65060,1,0,0:0:0:0:
64,192,65146,1,0,0:0:0:0:
448,192,65146,1,0,0:0:0:0:
192,192,65403,1,0,0:0:0:0:
448,192,65489,1,0,0:0:0:0:
320,192,65489,1,0,0:0:0:0:
448,192,65832,1,0,0:0:0:0:
64,192,65832,1,0,0:0:0:0:
320,192,66003,1,0,0:0:0:0:
192,192,66060,1,0,0:0:0:0:
64,192,66117,1,0,0:0:0:0:
448,192,66175,1,0,0:0:0:0:
192,192,66232,1,0,0:0:0:0:
320,192,66289,1,0,0:0:0:0:
64,192,66346,1,0,0:0:0:0:
320,192,66517,1,0,0:0:0:0:
64,192,66575,1,0,0:0:0:0:
448,192,66632,1,0,0:0:0:0:
192,192,66689,1,0,0:0:0:0:
320,192,66746,1,0,0:0:0:0:
64,192,66803,1,0,0:0:0:0:
448,192,66860,1,0,0:0:0:0:
192,192,66860,1,0,0:0:0:0:
320,192,67032,1,0,0:0:0:0:
64,192,67117,1,0,0:0:0:0:
320,192,67203,1,0,0:0:0:0:
192,192,67289,1,0,0:0:0:0:
320,192,67375,1,0,0:0:0:0:
64,192,67460,1,0,0:0:0:0:
192,192,67546,1,0,0:0:0:0:
448,192,67632,1,0,0:0:0:0:
320,192,67632,1,0,0:0:0:0:
64,192,67717,1,0,0:0:0:0:
448,192,67803,1,0,0:0:0:0:
192,192,67889,1,0,0:0:0:0:
320,192,67975,1,0,0:0:0:0:
192,192,68060,1,0,0:0:0:0:
64,192,68146,1,0,0:0:0:0:
448,192,68232,1,0,0:0:0:0:
320,192,68317,1,0,0:0:0:0:
64,192,68403,1,0,0:0:0:0:
448,192,68489,1,0,0:0:0:0:
192,192,68575,1,0,0:0:0:0:
64,192,68575,1,0,0:0:0:0:
320,192,68746,1,0,0:0:0:0:
64,192,68860,1,0,0:0:0:0:
320,192,68917,1,0,0:0:0:0:
448,192,68917,1,0,0:0:0:0:
64,192,69089,1,0,0:0:0:0:
192,192,69175,1,0,0:0:0:0:
320,192,69175,1,0,0:0:0:0:
448,192,69260,1,0,0:0:0:0:
448,192,69432,1,0,0:0:0:0:
320,192,69517,1,0,0:0:0:0:
192,192,69603,1,0,0:0:0:0:
64,192,69603,1,0,0:0:0:0:
320,192,69775,1,0,0:0:0:0:
64,192,69946,1,0,0:0:0:0:
448,192,69946,1,0,0:0:0:0:
64,192,70117,1,0,0:0:0:0:
320,192,70203,1,0,0:0:0:0:
192,192,70289,1,0,0:0:0:0:
448,192,70289,1,0,0:0:0:0:
192,192,70460,1,0,0:0:0:0:
320,192,70546,1,0,0:0:0:0:
448,192,70546,1,0,0:0:0:0:
64,192,70632,1,0,0:0:0:0:
192,192,70889,1,0,0:0:0:0:
320,192,70975,1,0,0:0:0:0:
448,192,70975,1,0,0:0:0:0:
192,192,71060,1,0,0:0:0:0:
64,192,71146,1,0,0:0:0:0:
448,192,71232,1,0,0:0:0:0:
320,192,71317,1,0,0:0:0:0:
192,192,71317,1,0,0:0:0:0:
448,192,71403,1,0,0:0:0:0:
192,192,71489,1,0,0:0:0:0:
320,192,71575,1,0,0:0:0:0:
448,192,71660,1,0,0:0:0:0:
64,192,71660,1,0,0:0:0:0:
192,192,71746,1,0,0:0:0:0:
320,192,71832,1,0,0:0:0:0:
448,192,71917,1,0,0:0:0:0:
64,192,72003,1,0,0:0:0:0:
320,192,72060,1,0,0:0:0:0:
192,192,72117,1,0,0:0:0:0:
64,192,72175,1,0,0:0:0:0:
448,192,72232,1,0,0:0:0:0:
320,192,72289,1,0,0:0:0:0:
192,192,72346,1,0,0:0:0:0:
64,192,72346,1,0,0:0:0:0:
448,192,72432,1,0,0:0:0:0:
192,192,72517,1,0,0:0:0:0:
320,192,72603,1,0,0:0:0:0:
64,192,72689,1,0,0:0:0:0:
320,192,72775,1,0,0:0:0:0:
192,192,72860,1,0,0:0:0:0:
448,192,72946,1,0,0:0:0:0:
192,192,73032,1,0,0:0:0:0:
64,192,73032,1,0,0:0:0:0:
320,192,73117,1,0,0:0:0:0:
64,192,73203,1,0,0:0:0:0:
448,192,73289,1,0,0:0:0:0:
320,192,73375,1,0,0:0:0:0:
192,192,73460,1,0,0:0:0:0:
64,192,73460,1,0,0:0:0:0:
448,192,73546,1,0,0:0:0:0:
64,192,73717,1,0,0:0:0:0:
192,192,73717,1,0,0:0:0:0:
320,192,73803,1,0,0:0:0:0:
192,192,73975,1,0,0:0:0:0:
448,192,74060,1,0,0:0:0:0:
320,192,74060,1,0,0:0:0:0:
192,192,74289,1,0,0:0:0:0:
448,192,74403,1,0,0:0:0:0:
320,192,74517,1,0,0:0:0:0:
192,192,74632,1,0,0:0:0:0:
64,192,74746,1,0,0:0:0:0:
448,192,74746,1,0,0:0:0:0:
64,192,75089,1,0,0:0:0:0:
192,192,75203,1,0,0:0:0:0:
320,192,75317,1,0,0:0:0:0:
192,192,75432,1,0,0:0:0:0:
64,192,75432,1,0,0:0:0:0:
320,192,75660,1,0,0:0:0:0:
64,192,75775,1,0,0:0:0:0:
448,192,75775,1,0,0:0:0:0:
192,192,75889,1,0,0:0:0:0:
64,192,76003,1,0,0:0:0:0:
320,192,76117,1,0,0:0:0:0:
448,192,76117,1,0,0:0:0:0:
192,192,76203,1,0,0:0:0:0:
64,192,76289,1,0,0:0:0:0:
320,192,76375,1,0,0:0:0:0:
192,192,76460,1,0,0:0:0:0:
64,192,76460,1,0,0:0:0:0:
448,192,76546,1,0,0:0:0:0:
320,192,76632,1,0,0:0:0:0:
64,192,76717,1,0,0:0:0:0:
320,192,76803,1,0,0:0:0:0:
448,192,76803,1,0,0:0:0:0:
192,192,76946,1,0,0:0:0:0:
320,192,77032,1,0,0:0:0:0:
64,192,77032,1,0,0:0:0:0:
448,192,77175,1,0,0:0:0:0:
320,192,77260,1,0,0:0:0:0:
192,192,77260,1,0,0:0:0:0:
64,192,77260,1,0,0:0:0:0:
448,192,77403,1,0,0:0:0:0:
64,192,77489,1,0,0:0:0:0:
192,192,77489,1,0,0:0:0:0:
320,192,77632,1,0,0:0:0:0:
448,192,77717,1,0,0:0:0:0:
64,192,77717,1,0,0:0:0:0:
192,192,77860,1,0,0:0:0:0:
320,192,77946,1,0,0:0:0:0:
448,192,77946,1,0,0:0:0:0:
448,192,78089,1,0,0:0:0:0:
64,192,78175,1,0,0:0:0:0:
192,192,78175,1,0,0:0:0:0:
320,192,78317,1,0,0:0:0:0:
192,192,78403,1,0,0:0:0:0:
448,192,78403,1,0,0:0:0:0:
64,192,78546,1,0,0:0:0:0:
192,192,78632,1,0,0:0:0:0:
320,192,78632,1,0,0:0:0:0:
448,192,78775,1,0,0:0:0:0:
192,192,78860,1,0,0:0:0:0:
64,192,78860,1,0,0:0:0:0:
320,192,79003,1,0,0:0:0:0:
64,192,79089,1,0,0:0:0:0:
448,192,79146,1,0,0:0:0:0:
192,192,79203,1,0,0:0:0:0:
320,192,79260,1,0,0:0:0:0:
64,192,79346,1,0,0:0:0:0:
448,192,79432,1,0,0:0:0:0:
192,192,79489,1,0,0:0:0:0:
64,192,79546,1,0,0:0:0:0:
320,192,79546,1,0,0:0:0:0:
448,192,79803,1,0,0:0:0:0:
64,192,79803,1,0,0:0:0:0:
320,192,79889,1,0,0:0:0:0:
192,192,79889,1,0,0:0:0:0:
192,192,80060,1,0,0:0:0:0:
448,192,80060,1,0,0:0:0:0:
64,192,80232,1,0,0:0:0:0:
448,192,80232,1,0,0:0:0:0:
64,192,80403,1,0,0:0:0:0:
192,192,80403,1,0,0:0:0:0:
64,192,80575,1,0,0:0:0:0:
448,192,80575,1,0,0:0:0:0:
320,192,80746,1,0,0:0:0:0:
448,192,80746,1,0,0:0:0:0:
192,192,80832,1,0,0:0:0:0:
64,192,80832,1,0,0:0:0:0:
192,192,81003,1,0,0:0:0:0:
64,192,81003,1,0,0:0:0:0:
192,192,81175,1,0,0:0:0:0:
64,192,81260,1,0,0:0:0:0:
448,192,81260,1,0,0:0:0:0:
192,192,81432,1,0,0:0:0:0:
448,192,81432,1,0,0:0:0:0:
320,192,81603,1,0,0:0:0:0:
64,192,81603,1,0,0:0:0:0:
192,192,81860,1,0,0:0:0:0:
320,192,81946,1,0,0:0:0:0:
448,192,81946,1,0,0:0:0:0:
64,192,82117,1,0,0:0:0:0:
448,192,82117,1,0,0:0:0:0:
320,192,82203,1,0,0:0:0:0:
192,192,82203,1,0,0:0:0:0:
192,192,82375,1,0,0:0:0:0:
320,192,82375,1,0,0:0:0:0:
64,192,82546,1,0,0:0:0:0:
192,192,82632,1,0,0:0:0:0:
448,192,82632,1,0,0:0:0:0:
320,192,82803,1,0,0:0:0:0:
448,192,82803,1,0,0:0:0:0:
192,192,82975,1,0,0:0:0:0:
64,192,82975,1,0,0:0:0:0:
320,192,83232,1,0,0:0:0:0:
64,192,83317,1,0,0:0:0:0:
448,192,83317,1,0,0:0:0:0:
320,192,83489,1,0,0:0:0:0:
448,192,83489,1,0,0:0:0:0:
192,192,83575,1,0,0:0:0:0:
64,192,83575,1,0,0:0:0:0:
192,192,83746,1,0,0:0:0:0:
64,192,83746,1,0,0:0:0:0:
64,192,83917,1,0,0:0:0:0:
192,192,84003,1,0,0:0:0:0:
448,192,84003,1,0,0:0:0:0:
320,192,84175,1,0,0:0:0:0:
192,192,84175,1,0,0:0:0:0:
320,192,84346,1,0,0:0:0:0:
448,192,84346,1,0,0:0:0:0:
192,192,84603,1,0,0:0:0:0:
64,192,84603,1,0,0:0:0:0:
448,192,84603,1,0,0:0:0:0:
320,192,84860,1,0,0:0:0:0:
64,192,84946,1,0,0:0:0:0:
448,192,85032,1,0,0:0:0:0:
192,192,85032,1,0,0:0:0:0:
320,192,85117,1,0,0:0:0:0:
448,192,85203,1,0,0:0:0:0:
192,192,85375,1,0,0:0:0:0:
64,192,85375,1,0,0:0:0:0:
320,192,85460,1,0,0:0:0:0:
320,192,85632,1,0,0:0:0:0:
192,192,85717,1,0,0:0:0:0:
448,192,85717,1,0,0:0:0:0:
192,192,85889,1,0,0:0:0:0:
64,192,85975,1,0,0:0:0:0:
448,192,85975,1,0,0:0:0:0:
320,192,86146,1,0,0:0:0:0:
192,192,86146,1,0,0:0:0:0:
64,192,86232,1,0,0:0:0:0:
192,192,86403,1,0,0:0:0:0:
320,192,86489,1,0,0:0:0:0:
448,192,86489,1,0,0:0:0:0:
192,192,86660,1,0,0:0:0:0:
320,192,86660,1,0,0:0:0:0:
64,192,86746,1,0,0:0:0:0:
448,192,86746,1,0,0:0:0:0:
192,192,86917,1,0,0:0:0:0:
320,192,87003,1,0,0:0:0:0:
448,192,87003,1,0,0:0:0:0:
320,192,87175,1,0,0:0:0:0:
64,192,87175,1,0,0:0:0:0:
192,192,87260,1,0,0:0:0:0:
192,192,87432,1,0,0:0:0:0:
448,192,87432,1,0,0:0:0:0:
320,192,87603,1,0,0:0:0:0:
192,192,87775,1,0,0:0:0:0:
448,192,87860,1,0,0:0:0:0:
192,192,87946,1,0,0:0:0:0:
64,192,87946,1,0,0:0:0:0:
320,192,88032,1,0,0:0:0:0:
448,192,88203,1,0,0:0:0:0:
192,192,88289,1,0,0:0:0:0:
64,192,88375,1,0,0:0:0:0:
320,192,88375,1,0,0:0:0:0:
448,192,88460,1,0,0:0:0:0:
192,192,88546,1,0,0:0:0:0:
320,192,88632,1,0,0:0:0:0:
64,192,88717,1,0,0:0:0:0:
320,192,88803,1,0,0:0:0:0:
448,192,88803,1,0,0:0:0:0:
192,192,88975,1,0,0:0:0:0:
64,192,89060,1,0,0:0:0:0:
448,192,89060,1,0,0:0:0:0:
320,192,89060,1,0,0:0:0:0:
192,192,89489,1,0,0:0:0:0:
192,192,89832,1,0,0:0:0:0:
448,192,89946,1,0,0:0:0:0:
320,192,89946,1,0,0:0:0:0:
448,192,90175,1,0,0:0:0:0:
320,192,90175,1,0,0:0:0:0:
448,192,90346,1,0,0:0:0:0:
320,192,90346,1,0,0:0:0:0:
192,192,90517,1,0,0:0:0:0:
64,192,90517,1,0,0:0:0:0:
320,192,90860,1,0,0:0:0:0:
448,192,90860,1,0,0:0:0:0:
448,192,91632,1,0,0:0:0:0:
192,192,91632,1,0,0:0:0:0:
64,192,91803,1,0,0:0:0:0:
448,192,91889,1,0,0:0:0:0:
320,192,91889,1,0,0:0:0:0:
448,192,92060,1,0,0:0:0:0:
320,192,92060,1,0,0:0:0:0:
64,192,92917,1,0,0:0:0:0:
192,192,93003,1,0,0:0:0:0:
320,192,93089,1,0,0:0:0:0:
448,192,93089,1,0,0:0:0:0:
192,192,93175,1,0,0:0:0:0:
64,192,93260,1,0,0:0:0:0:
448,192,93260,1,0,0:0:0:0:
320,192,93375,1,0,0:0:0:0:
192,192,93375,1,0,0:0:0:0:
64,192,93489,1,0,0:0:0:0:
448,192,93489,1,0,0:0:0:0:
320,192,93603,1,0,0:0:0:0:
192,192,93689,1,0,0:0:0:0:
192,192,93946,1,0,0:0:0:0:
320,192,94032,1,0,0:0:0:0:
320,192,94203,1,0,0:0:0:0:
64,192,94460,1,0,0:0:0:0:
448,192,94546,1,0,0:0:0:0:
192,192,94632,1,0,0:0:0:0:
448,192,94803,1,0,0:0:0:0:
64,192,94889,1,0,0:0:0:0:
192,192,94889,1,0,0:0:0:0:
320,192,95403,1,0,0:0:0:0:
64,192,95660,1,0,0:0:0:0:
192,192,95660,1,0,0:0:0:0:
192,192,95832,1,0,0:0:0:0:
320,192,95917,1,0,0:0:0:0:
448,192,96003,1,0,0:0:0:0:
64,192,96003,1,0,0:0:0:0:
320,192,96175,1,0,0:0:0:0:
192,192,96260,1,0,0:0:0:0:
64,192,96260,1,0,0:0:0:0:
448,192,96432,1,0,0:0:0:0:
320,192,96432,1,0,0:0:0:0:
64,192,96689,1,0,0:0:0:0:
448,192,96689,1,0,0:0:0:0:
192,192,96860,1,0,0:0:0:0:
64,192,96860,1,0,0:0:0:0:
320,192,97032,1,0,0:0:0:0:
192,192,97117,1,0,0:0:0:0:
448,192,97289,1,0,0:0:0:0:
320,192,97460,1,0,0:0:0:0:
192,192,97546,1,0,0:0:0:0:
64,192,97546,1,0,0:0:0:0:
320,192,97717,1,0,0:0:0:0:
448,192,97717,1,0,0:0:0:0:
192,192,97889,1,0,0:0:0:0:
448,192,97946,1,0,0:0:0:0:
64,192,97946,1,0,0:0:0:0:
320,192,98146,1,0,0:0:0:0:
448,192,98146,1,0,0:0:0:0:
320,192,98317,1,0,0:0:0:0:
192,192,98403,1,0,0:0:0:0:
64,192,98575,1,0,0:0:0:0:
448,192,98575,1,0,0:0:0:0:
192,192,98746,1,0,0:0:0:0:
64,192,98832,1,0,0:0:0:0:
320,192,99003,1,0,0:0:0:0:
448,192,99003,1,0,0:0:0:0:
64,192,99089,1,0,0:0:0:0:
192,192,99175,1,0,0:0:0:0:
320,192,99260,1,0,0:0:0:0:
64,192,99346,1,0,0:0:0:0:
320,192,99432,1,0,0:0:0:0:
448,192,99432,1,0,0:0:0:0:
448,192,99603,1,0,0:0:0:0:
320,192,99689,1,0,0:0:0:0:
64,192,99774,1,0,0:0:0:0:
192,192,99774,1,0,0:0:0:0:
448,192,99860,1,0,0:0:0:0:
320,192,100032,1,0,0:0:0:0:
192,192,100117,1,0,0:0:0:0:
448,192,100117,1,0,0:0:0:0:
320,192,100203,1,0,0:0:0:0:
64,192,100289,1,0,0:0:0:0:
320,192,100374,1,0,0:0:0:0:
448,192,100460,1,0,0:0:0:0:
192,192,100460,1,0,0:0:0:0:
320,192,100632,1,0,0:0:0:0:
64,192,100632,1,0,0:0:0:0:
64,192,100803,1,0,0:0:0:0:
448,192,100803,1,0,0:0:0:0:
320,192,100974,1,0,0:0:0:0:
192,192,101060,1,0,0:0:0:0:
448,192,101146,1,0,0:0:0:0:
320,192,101146,1,0,0:0:0:0:
64,192,101260,1,0,0:0:0:0:
192,192,101260,1,0,0:0:0:0:
448,192,101374,1,0,0:0:0:0:
320,192,101374,1,0,0:0:0:0:
64,192,101489,1,0,0:0:0:0:
448,192,101603,1,0,0:0:0:0:
192,192,101717,1,0,0:0:0:0:
320,192,101832,1,0,0:0:0:0:
64,192,101946,1,0,0:0:0:0:
192,192,102060,1,0,0:0:0:0:
64,192,102174,1,0,0:0:0:0:
448,192,102174,1,0,0:0:0:0:
320,192,102174,1,0,0:0:0:0:
192,192,102432,1,0,0:0:0:0:
320,192,102689,1,0,0:0:0:0:
448,192,102860,1,0,0:0:0:0:
64,192,102860,1,0,0:0:0:0:
64,192,103203,1,0,0:0:0:0:
320,192,103546,1,0,0:0:0:0:
448,192,103546,1,0,0:0:0:0:
320,192,103803,1,0,0:0:0:0:
448,192,104232,1,0,0:0:0:0:
320,192,104317,1,0,0:0:0:0:
192,192,104403,1,0,0:0:0:0:
448,192,104489,1,0,0:0:0:0:
320,192,104574,1,0,0:0:0:0:
64,192,104660,1,0,0:0:0:0:
320,192,104746,1,0,0:0:0:0:
64,192,104917,1,0,0:0:0:0:
448,192,104917,1,0,0:0:0:0:
192,192,105089,1,0,0:0:0:0:
320,192,105174,128,0,105432:0:0:0:0:
448,192,105432,128,0,105603:0:0:0:0:
320,192,105603,1,0,0:0:0:0:
64,192,105603,128,0,105774:0:0:0:0:
192,192,105774,1,0,0:0:0:0:
320,192,105946,128,0,106117:0:0:0:0:
64,192,106117,1,0,0:0:0:0:
448,192,106289,1,0,0:0:0:0:
192,192,106289,128,0,106460:0:0:0:0:
64,192,106460,1,0,0:0:0:0:
448,192,106546,1,0,0:0:0:0:
320,192,106632,128,0,106803:0:0:0:0:
192,192,106803,128,0,106974:0:0:0:0:
320,192,106974,128,0,107146:0:0:0:0:
64,192,107146,1,0,0:0:0:0:
320,192,107317,1,0,0:0:0:0:
64,192,107403,1,0,0:0:0:0:
192,192,107489,1,0,0:0:0:0:
320,192,107574,1,0,0:0:0:0:
448,192,107660,1,0,0:0:0:0:
64,192,107660,1,0,0:0:0:0:
192,192,107746,1,0,0:0:0:0:
64,192,107832,1,0,0:0:0:0:
320,192,107917,1,0,0:0:0:0:
192,192,108003,1,0,0:0:0:0:
448,192,108089,1,0,0:0:0:0:
192,192,108174,1,0,0:0:0:0:
64,192,108260,1,0,0:0:0:0:
448,192,108346,1,0,0:0:0:0:
192,192,108403,1,0,0:0:0:0:
320,192,108460,1,0,0:0:0:0:
64,192,108517,1,0,0:0:0:0:
448,192,108574,1,0,0:0:0:0:
320,192,108632,1,0,0:0:0:0:
192,192,108689,1,0,0:0:0:0:
64,192,108774,1,0,0:0:0:0:
448,192,108860,1,0,0:0:0:0:
192,192,108946,1,0,0:0:0:0:
320,192,109032,1,0,0:0:0:0:
64,192,109117,1,0,0:0:0:0:
320,192,109203,1,0,0:0:0:0:
448,192,109260,1,0,0:0:0:0:
64,192,109317,1,0,0:0:0:0:
192,192,109374,1,0,0:0:0:0:
448,192,109460,1,0,0:0:0:0:
192,192,109546,1,0,0:0:0:0:
64,192,109603,1,0,0:0:0:0:
448,192,109660,1,0,0:0:0:0:
320,192,109717,1,0,0:0:0:0:
64,192,109889,1,0,0:0:0:0:
320,192,110060,1,0,0:0:0:0:
448,192,110060,1,0,0:0:0:0:
64,192,110232,1,0,0:0:0:0:
448,192,110232,1,0,0:0:0:0:
192,192,110403,1,0,0:0:0:0:
64,192,110403,1,0,0:0:0:0:
320,192,110517,1,0,0:0:0:0:
192,192,110632,1,0,0:0:0:0:
64,192,110746,1,0,0:0:0:0:
320,192,110746,128,0,110974:0:0:0:0:
448,192,110746,128,0,110974:0:0:0:0:
64,192,110974,1,0,0:0:0:0:
192,192,111089,1,0,0:0:0:0:
448,192,111089,1,0,0:0:0:0:
64,192,111203,1,0,0:0:0:0:
320,192,111317,1,0,0:0:0:0:
448,192,111432,1,0,0:0:0:0:
192,192,111432,128,0,111660:0:0:0:0:
64,192,111432,128,0,111660:0:0:0:0:
320,192,111546,1,0,0:0:0:0:
448,192,111660,1,0,0:0:0:0:
192,192,111774,1,0,0:0:0:0:
64,192,111774,1,0,0:0:0:0:
448,192,111860,1,0,0:0:0:0:
64,192,111946,1,0,0:0:0:0:
448,192,112032,1,0,0:0:0:0:
64,192,112117,1,0,0:0:0:0:
448,192,112203,1,0,0:0:0:0:
64,192,112289,1,0,0:0:0:0:
448,192,112374,1,0,0:0:0:0:
320,192,112460,1,0,0:0:0:0:
192,192,112546,1,0,0:0:0:0:
448,192,112632,1,0,0:0:0:0:
64,192,112717,1,0,0:0:0:0:
320,192,112803,1,0,0:0:0:0:
192,192,112860,1,0,0:0:0:0:
448,192,112917,1,0,0:0:0:0:
64,192,112974,1,0,0:0:0:0:
320,192,113032,1,0,0:0:0:0:
448,192,113089,1,0,0:0:0:0:
64,192,113146,1,0,0:0:0:0:
192,192,113146,1,0,0:0:0:0:
320,192,113317,1,0,0:0:0:0:
192,192,113403,1,0,0:0:0:0:
448,192,113403,1,0,0:0:0:0:
64,192,113574,1,0,0:0:0:0:
320,192,113660,1,0,0:0:0:0:
448,192,113660,1,0,0:0:0:0:
64,192,113832,1,0,0:0:0:0:
448,192,113832,1,0,0:0:0:0:
320,192,114089,1,0,0:0:0:0:
192,192,114174,1,0,0:0:0:0:
64,192,114174,1,0,0:0:0:0:
64,192,114346,1,0,0:0:0:0:
320,192,114517,1,0,0:0:0:0:
448,192,114517,1,0,0:0:0:0:
192,192,114689,1,0,0:0:0:0:
64,192,114774,1,0,0:0:0:0:
320,192,114774,1,0,0:0:0:0:
320,192,115032,1,0,0:0:0:0:
448,192,115032,1,0,0:0:0:0:
192,192,115089,1,0,0:0:0:0:
64,192,115146,1,0,0:0:0:0:
448,192,115203,1,0,0:0:0:0:
192,192,115260,1,0,0:0:0:0:
320,192,115317,1,0,0:0:0:0:
64,192,115374,1,0,0:0:0:0:
448,192,115460,1,0,0:0:0:0:
192,192,115546,1,0,0:0:0:0:
64,192,115546,1,0,0:0:0:0:
320,192,115632,1,0,0:0:0:0:
448,192,115717,1,0,0:0:0:0:
64,192,115803,1,0,0:0:0:0:
320,192,115889,1,0,0:0:0:0:
448,192,115889,1,0,0:0:0:0:
192,192,115974,1,0,0:0:0:0:
320,192,116060,1,0,0:0:0:0:
64,192,116146,1,0,0:0:0:0:
192,192,116232,1,0,0:0:0:0:
448,192,116317,1,0,0:0:0:0:
64,192,116403,1,0,0:0:0:0:
320,192,116489,1,0,0:0:0:0:
64,192,116574,1,0,0:0:0:0:
192,192,116632,1,0,0:0:0:0:
448,192,116689,1,0,0:0:0:0:
320,192,116746,1,0,0:0:0:0:
192,192,116803,1,0,0:0:0:0:
64,192,116860,1,0,0:0:0:0:
320,192,116917,1,0,0:0:0:0:
448,192,116917,1,0,0:0:0:0:
192,192,117003,1,0,0:0:0:0:
448,192,117089,1,0,0:0:0:0:
64,192,117174,1,0,0:0:0:0:
320,192,117260,1,0,0:0:0:0:
192,192,117260,1,0,0:0:0:0:
320,192,117517,1,0,0:0:0:0:
448,192,117517,1,0,0:0:0:0:
64,192,117774,1,0,0:0:0:0:
448,192,117774,1,0,0:0:0:0:
192,192,117946,1,0,0:0:0:0:
64,192,117946,1,0,0:0:0:0:
448,192,118032,1,0,0:0:0:0:
320,192,118117,1,0,0:0:0:0:
64,192,118203,1,0,0:0:0:0:
448,192,118289,1,0,0:0:0:0:
192,192,118374,1,0,0:0:0:0:
320,192,118460,1,0,0:0:0:0:
448,192,118546,1,0,0:0:0:0:
192,192,118632,1,0,0:0:0:0:
64,192,118632,1,0,0:0:0:0:
320,192,118917,1,0,0:0:0:0:
448,192,119146,1,0,0:0:0:0:
64,192,119232,1,0,0:0:0:0:
320,192,119232,1,0,0:0:0:0:
192,192,119374,1,0,0:0:0:0:
64,192,119660,1,0,0:0:0:0:
448,192,119717,1,0,0:0:0:0:
320,192,120003,1,0,0:0:0:0:
64,192,120060,1,0,0:0:0:0:
320,192,120346,1,0,0:0:0:0:
448,192,120346,1,0,0:0:0:0:
64,192,120689,1,0,0:0:0:0:
448,192,120689,1,0,0:0:0:0:
64,192,121032,1,0,0:0:0:0:
192,192,121032,1,0,0:0:0:0:
448,192,121203,1,0,0:0:0:0:
64,192,121289,1,0,0:0:0:0:
448,192,121374,1,0,0:0:0:0:
192,192,121460,1,0,0:0:0:0:
320,192,121546,1,0,0:0:0:0:
192,192,121632,1,0,0:0:0:0:
64,192,121632,1,0,0:0:0:0:
320,192,121803,1,0,0:0:0:0:
192,192,121889,1,0,0:0:0:0:
320,192,121974,1,0,0:0:0:0:
448,192,121974,1,0,0:0:0:0:
64,192,122146,1,0,0:0:0:0:
192,192,122232,1,0,0:0:0:0:
320,192,122317,1,0,0:0:0:0:
192,192,122403,1,0,0:0:0:0:
64,192,122403,1,0,0:0:0:0:
448,192,122574,1,0,0:0:0:0:
192,192,122660,1,0,0:0:0:0:
64,192,122660,1,0,0:0:0:0:
320,192,122746,1,0,0:0:0:0:
192,192,122832,1,0,0:0:0:0:
64,192,122917,1,0,0:0:0:0:
448,192,123089,1,0,0:0:0:0:
320,192,123174,1,0,0:0:0:0:
192,192,123260,1,0,0:0:0:0:
64,192,123260,1,0,0:0:0:0:
64,192,123432,1,0,0:0:0:0:
320,192,123517,1,0,0:0:0:0:
448,192,123603,1,0,0:0:0:0:
192,192,123689,1,0,0:0:0:0:
64,192,123689,1,0,0:0:0:0:
448,192,123860,1,0,0:0:0:0:
320,192,123946,1,0,0:0:0:0:
64,192,123946,1,0,0:0:0:0:
192,192,124032,1,0,0:0:0:0:
448,192,124117,1,0,0:0:0:0:
192,192,124203,1,0,0:0:0:0:
64,192,124203,1,0,0:0:0:0:
320,192,124374,1,0,0:0:0:0:
448,192,124460,1,0,0:0:0:0:
64,192,124460,1,0,0:0:0:0:
192,192,124546,1,0,0:0:0:0:
320,192,124632,1,0,0:0:0:0:
192,192,124717,1,0,0:0:0:0:
64,192,124717,1,0,0:0:0:0:
64,192,124889,1,0,0:0:0:0:
320,192,124974,1,0,0:0:0:0:
448,192,124974,1,0,0:0:0:0:
192,192,125060,1,0,0:0:0:0:
448,192,125146,1,0,0:0:0:0:
192,192,125232,1,0,0:0:0:0:
64,192,125232,1,0,0:0:0:0:
320,192,125317,1,0,0:0:0:0:
192,192,125403,1,0,0:0:0:0:
320,192,125489,1,0,0:0:0:0:
448,192,125489,1,0,0:0:0:0:
64,192,125574,1,0,0:0:0:0:
320,192,125660,1,0,0:0:0:0:
192,192,125746,1,0,0:0:0:0:
448,192,125832,1,0,0:0:0:0:
192,192,125917,1,0,0:0:0:0:
320,192,126003,1,0,0:0:0:0:
64,192,126089,1,0,0:0:0:0:
448,192,126174,1,0,0:0:0:0:
320,192,126260,1,0,0:0:0:0:
192,192,126346,1,0,0:0:0:0:
64,192,126432,1,0,0:0:0:0:
320,192,126517,1,0,0:0:0:0:
320,192,126689,1,0,0:0:0:0:
192,192,126774,128,0,128060:0:0:0:0:
64,192,126774,128,0,128060:0:0:0:0:
448,192,126774,128,0,128060:0:0:0:0:
64,192,128232,1,0,0:0:0:0:
320,192,128232,128,0,128489:0:0:0:0:
448,192,128232,128,0,128489:0:0:0:0:
192,192,128489,1,0,0:0:0:0:
64,192,128574,1,0,0:0:0:0:
