osu file format v14

[General]
AudioFilename: audio.mp3
AudioLeadIn: 0
PreviewTime: 65702
Countdown: 0
SampleSet: Normal
StackLeniency: 0.7
Mode: 1
LetterboxInBreaks: 0
WidescreenStoryboard: 1

[Editor]
Bookmarks: 23369,44702,66035,87369,95369,116702,138035,159368,184034,205367,226700
DistanceSpacing: 1.2
BeatDivisor: 3
GridSize: 32
TimelineZoom: 2.099993

[Metadata]
Title:Playing with Ruby
TitleUnicode:ルビーと遊ぶ
Artist:NIWASHI
ArtistUnicode:庭師
Creator:Cychloryn
Version:Muzukashii
Source:
Tags:latin jazz instrumental axer fusion jewels island 宝石島 houseki shima rubii to asobu
BeatmapID:2764682
BeatmapSetID:1328323

[Difficulty]
HPDrainRate:6
CircleSize:2
OverallDifficulty:5
ApproachRate:10
SliderMultiplier:1.4
SliderTickRate:1

[Events]
//Background and Video events
0,0,"bg.jpg",0,0
//Break Periods
//Storyboard Layer 0 (Background)
//Storyboard Layer 1 (Fail)
//Storyboard Layer 2 (Pass)
//Storyboard Layer 3 (Foreground)
//Storyboard Layer 4 (Overlay)
//Storyboard Sound Samples

[TimingPoints]
703,333.333333333333,4,1,0,70,1,0
2036,333.333333333333,4,1,0,70,1,0
2369,-107.52688172043,4,1,0,50,0,0
5702,-106.382978723404,4,1,0,50,0,0
5785,-105.263157894737,4,1,0,50,0,0
5952,-100,4,1,0,70,0,0
7702,-107.52688172043,4,1,0,50,0,0
11285,-100,4,1,0,70,0,0
23369,-100,4,1,0,70,0,0
34035,-90.9090909090909,4,1,0,80,0,1
43952,-90.9090909090909,4,1,0,80,0,0
44452,-94.3396226415094,4,1,0,70,0,0
44702,-97.0873786407767,4,1,0,70,0,0
44785,-100,4,1,0,70,0,0
58952,-98.5221674876847,4,1,0,70,0,0
59202,-95.2380952380952,4,1,0,70,0,0
59369,-100,4,1,0,70,0,0
62952,-99.009900990099,4,1,0,70,0,0
63035,-98.0392156862745,4,1,0,70,0,0
63119,-97.0873786407767,4,1,0,70,0,0
63202,-96.1538461538461,4,1,0,70,0,0
63369,-91.0780821506086,4,1,0,70,0,0
65369,-90.9090909090909,4,1,0,70,0,0
65702,-93.0232558139535,4,1,0,70,0,0
65785,-93.5672514619883,4,1,0,70,0,0
65869,-94.1176470588235,4,1,0,70,0,0
66035,-95.2380952380952,4,1,0,75,0,1
75952,-95.2380952380952,4,1,0,75,0,0
76452,-93.4579439252336,4,1,0,75,0,0
76702,-90.9090909090909,4,1,0,80,0,1
80702,-86.9565217391304,4,1,0,80,0,1
81702,-83.3333333333333,4,1,0,80,0,0
82035,-90.9090909090909,4,1,0,80,0,1
86619,-90.9090909090909,4,1,0,80,0,0
87119,-95.2380952380952,4,1,0,80,0,0
87369,-95.2380952380952,4,1,0,70,0,0
93035,-97.0873786407767,4,1,0,70,0,0
94369,-99.009900990099,4,1,0,70,0,0
95258,-99.009900990099,4,1,0,65,0,0
95369,333.333333333333,4,1,0,60,1,0
95369,-99.009900990099,4,1,0,60,0,0
95535,-100,4,1,0,60,0,0
106035,-99.9448304535896,4,1,0,70,0,0
111452,-99.9448304535896,4,1,0,60,0,0
112702,-99.9448304535896,4,1,0,65,0,0
116285,-100,4,1,0,70,0,0
116368,-99.0259804562325,4,1,0,70,0,0
116452,-98.0707521634408,4,1,0,70,0,0
116535,-97.1337765223777,4,1,0,70,0,0
116618,-96.2145353222802,4,1,0,70,0,0
116702,-95.3125297851656,4,1,0,70,0,0
137702,-94.3396226415094,4,1,0,70,0,0
137785,-93.4579439252336,4,1,0,70,0,0
137868,-92.5925925925926,4,1,0,70,0,0
138035,-90.9090909090909,4,1,0,75,0,1
158702,-91.743119266055,4,1,0,70,0,1
158813,-92.5925925925926,4,1,0,70,0,1
158924,-93.4579439252336,4,1,0,70,0,1
159035,-94.3396226415094,4,1,0,70,0,1
159146,-95.2380952380952,4,1,0,70,0,1
159368,-95.2380952380952,4,1,0,70,0,0
167452,-95.2380952380952,4,1,0,60,0,0
170035,-95.2380952380952,4,1,0,70,0,0
174868,-95.2380952380952,4,1,0,60,0,0
175368,-95.2380952380952,4,1,0,50,0,0
175618,-95.2380952380952,4,1,0,55,0,0
175868,-95.2380952380952,4,1,0,60,0,0
176118,-95.2380952380952,4,1,0,65,0,0
176368,-95.2380952380952,4,1,0,55,0,0
176702,-95.2380952380952,4,1,0,55,0,0
176952,-95.2380952380952,4,1,0,60,0,0
177202,-95.2380952380952,4,1,0,65,0,0
177452,-95.2380952380952,4,1,0,70,0,0
177702,-95.2380952380952,4,1,0,60,0,0
178035,-95.2380952380952,4,1,0,70,0,0
178285,-95.2380952380952,4,1,0,33,0,0
178535,-95.2380952380952,4,1,0,39,0,0
178785,-95.2380952380952,4,1,0,45,0,0
179035,-95.2380952380952,4,1,0,51,0,0
179285,-95.2380952380952,4,1,0,57,0,0
179535,-95.2380952380952,4,1,0,63,0,0
179785,-95.2380952380952,4,1,0,69,0,0
180035,-95.2380952380952,4,1,0,70,0,0
181035,-95.2380952380952,4,1,0,75,0,0
181202,-94.3396226415094,4,1,0,75,0,0
181285,-93.4579439252336,4,1,0,78,0,0
181452,-91.743119266055,4,1,0,78,0,0
181535,-90.9090909090909,4,1,0,71,0,0
181702,-89.2857142857143,4,1,0,71,0,0
181785,-88.4955752212389,4,1,0,83,0,0
182035,333.333333333333,6,1,0,20,1,0
182035,-86.2068965517241,6,1,0,20,0,0
184034,333.333333333333,4,1,0,75,1,1
184034,-95.2380952380952,4,1,0,75,0,1
193950,-95.2380952380952,4,1,0,75,0,0
194700,-90.9090909090909,4,1,0,80,0,1
204617,-90.9090909090909,4,1,0,80,0,0
205116,-94.3396226415094,4,1,0,70,0,0
205366,-97.0873786407767,4,1,0,70,0,0
205449,-100,4,1,0,70,0,0
219617,-98.5221674876847,4,1,0,70,0,0
219866,-95.2380952380952,4,1,0,70,0,0
220033,-100,4,1,0,70,0,0
223616,-99.009900990099,4,1,0,70,0,0
223699,-98.0392156862745,4,1,0,70,0,0
223783,-97.0873786407767,4,1,0,70,0,0
223866,-96.1538461538461,4,1,0,70,0,0
224033,-91.0780821506086,4,1,0,70,0,0
226033,-90.9090909090909,4,1,0,70,0,0
226199,-91.9540229885058,4,1,0,70,0,0
226366,-93.0232558139535,4,1,0,70,0,0
226449,-93.5672514619883,4,1,0,70,0,0
226533,-94.1176470588235,4,1,0,70,0,0
226616,-94.6745562130178,4,1,0,70,0,0
226700,-95.2380952380952,4,1,0,75,0,1
236617,-95.2380952380952,4,1,0,75,0,0
237117,-93.4579439252336,4,1,0,75,0,0
237367,-90.9090909090909,4,1,0,80,0,1
241367,-86.9565217391304,4,1,0,80,0,1
242367,-83.3333333333333,4,1,0,80,0,0
242700,-90.9090909090909,4,1,0,80,0,1
247283,-90.9090909090909,4,1,0,80,0,0
248033,-100,4,1,0,65,0,0
250033,-97.0873786407767,4,1,0,65,0,0
250367,-94.3396226415094,4,1,0,75,0,0
250700,-90.9090909090909,4,1,0,85,0,1
252033,-90.0900900900901,4,1,0,85,0,1
252117,-89.2857142857143,4,1,0,85,0,1
252200,-88.4955752212389,4,1,0,85,0,1
252283,-87.719298245614,4,1,0,85,0,1
252367,-86.9565217391304,4,1,0,85,0,1
252617,-83.3333333333333,4,1,0,85,0,0

[HitObjects]
256,192,703,5,8,0:0:0:0:
256,192,869,1,0,0:0:0:0:
256,192,952,1,0,0:0:0:0:
256,192,1036,1,0,0:0:0:0:
256,192,1202,1,8,0:0:0:0:
256,192,1369,1,0,0:0:0:0:
256,192,1536,1,8,0:0:0:0:
256,192,1702,1,0,0:0:0:0:
256,192,1786,1,0,0:0:0:0:
256,192,1869,1,0,0:0:0:0:
256,192,2036,1,8,0:0:0:0:
256,192,3369,1,8,0:0:0:0:
256,192,4702,1,8,0:0:0:0:
256,192,5952,1,4,0:0:0:0:
256,192,6285,1,8,0:0:0:0:
256,192,6535,1,0,0:0:0:0:
256,192,6702,1,8,0:0:0:0:
256,192,6869,1,8,0:0:0:0:
256,192,6952,1,8,0:0:0:0:
256,192,7035,1,8,0:0:0:0:
256,192,7202,1,0,0:0:0:0:
256,192,7369,1,8,0:0:0:0:
256,192,8702,1,8,0:0:0:0:
256,192,10035,1,8,0:0:0:0:
256,192,11285,1,4,0:0:0:0:
256,192,11535,1,0,0:0:0:0:
256,192,11702,1,8,0:0:0:0:
256,192,11869,1,0,0:0:0:0:
256,192,12035,1,8,0:0:0:0:
256,192,12369,1,8,0:0:0:0:
256,192,12702,1,4,0:0:0:0:
256,192,12952,1,8,0:0:0:0:
256,192,13202,1,0,0:0:0:0:
256,192,13369,1,8,0:0:0:0:
256,192,13535,1,8,0:0:0:0:
256,192,13702,1,0,0:0:0:0:
256,192,13785,1,0,0:0:0:0:
256,192,14035,1,0,0:0:0:0:
256,192,14285,1,8,0:0:0:0:
256,192,14535,1,0,0:0:0:0:
256,192,14702,1,8,0:0:0:0:
256,192,14869,1,0,0:0:0:0:
256,192,14952,1,0,0:0:0:0:
256,192,15119,1,8,0:0:0:0:
256,192,15369,1,0,0:0:0:0:
256,192,15619,1,8,0:0:0:0:
256,192,15869,1,0,0:0:0:0:
256,192,16036,1,8,0:0:0:0:
256,192,16203,1,8,0:0:0:0:
256,192,16369,1,0,0:0:0:0:
256,192,16452,1,0,0:0:0:0:
256,192,16619,1,12,0:0:0:0:
256,192,17202,1,8,0:0:0:0:
256,192,17369,1,0,0:0:0:0:
256,192,17535,1,8,0:0:0:0:
256,192,17619,1,8,0:0:0:0:
256,192,17702,1,8,0:0:0:0:
256,192,17869,1,8,0:0:0:0:
256,192,18035,1,4,0:0:0:0:
256,192,18285,1,8,0:0:0:0:
256,192,18535,1,0,0:0:0:0:
256,192,18702,1,8,0:0:0:0:
256,192,18869,1,8,0:0:0:0:
256,192,19035,1,0,0:0:0:0:
256,192,19119,1,0,0:0:0:0:
256,192,19369,1,0,0:0:0:0:
256,192,19619,1,8,0:0:0:0:
256,192,19869,1,0,0:0:0:0:
256,192,20035,1,8,0:0:0:0:
256,192,20202,1,0,0:0:0:0:
256,192,20285,1,0,0:0:0:0:
256,192,20452,1,0,0:0:0:0:
256,192,20619,1,8,0:0:0:0:
256,192,20813,1,8,0:0:0:0:
256,192,20924,1,8,0:0:0:0:
256,192,21035,1,8,0:0:0:0:
256,192,21258,1,0,0:0:0:0:
256,192,21480,1,8,0:0:0:0:
256,192,21702,1,0,0:0:0:0:
256,192,21813,1,0,0:0:0:0:
256,192,21924,1,0,0:0:0:0:
256,192,22147,1,8,0:0:0:0:
256,192,22258,1,8,0:0:0:0:
256,192,22369,1,8,0:0:0:0:
256,192,22591,1,8,0:0:0:0:
256,192,22813,1,8,0:0:0:0:
256,192,22924,1,8,0:0:0:0:
256,192,23035,1,8,0:0:0:0:
256,192,23369,1,4,0:0:0:0:
256,192,23702,1,0,0:0:0:0:
256,192,23869,1,0,0:0:0:0:
256,192,24035,1,8,0:0:0:0:
256,192,24535,1,0,0:0:0:0:
256,192,24702,1,8,0:0:0:0:
256,192,24869,1,0,0:0:0:0:
256,192,25035,1,8,0:0:0:0:
256,192,25119,1,8,0:0:0:0:
256,192,25369,1,0,0:0:0:0:
256,192,25702,1,8,0:0:0:0:
256,192,25869,1,8,0:0:0:0:
256,192,26035,1,0,0:0:0:0:
256,192,26369,1,8,0:0:0:0:
256,192,26535,1,8,0:0:0:0:
256,192,26702,1,0,0:0:0:0:
256,192,27035,1,0,0:0:0:0:
256,192,27202,1,0,0:0:0:0:
256,192,27369,1,8,0:0:0:0:
256,192,27535,1,0,0:0:0:0:
256,192,27702,1,8,0:0:0:0:
256,192,27869,1,8,0:0:0:0:
256,192,28035,1,0,0:0:0:0:
256,192,28119,1,0,0:0:0:0:
256,192,28202,1,0,0:0:0:0:
256,192,28369,1,8,0:0:0:0:
256,192,28535,1,8,0:0:0:0:
256,192,28702,1,4,0:0:0:0:
256,192,29035,1,8,0:0:0:0:
256,192,29202,1,0,0:0:0:0:
256,192,29369,1,8,0:0:0:0:
256,192,29869,1,0,0:0:0:0:
256,192,30035,1,8,0:0:0:0:
256,192,30202,1,0,0:0:0:0:
256,192,30369,1,8,0:0:0:0:
256,192,30452,1,8,0:0:0:0:
256,192,30702,1,0,0:0:0:0:
256,192,31035,1,0,0:0:0:0:
256,192,31202,1,8,0:0:0:0:
256,192,31369,1,8,0:0:0:0:
256,192,31452,1,8,0:0:0:0:
256,192,31535,1,8,0:0:0:0:
256,192,31702,1,0,0:0:0:0:
256,192,31869,1,0,0:0:0:0:
256,192,32035,1,8,0:0:0:0:
256,192,32119,1,8,0:0:0:0:
256,192,32369,1,0,0:0:0:0:
256,192,32702,1,0,0:0:0:0:
256,192,32785,1,0,0:0:0:0:
256,192,32869,1,8,0:0:0:0:
256,192,33035,1,0,0:0:0:0:
256,192,33285,1,8,0:0:0:0:
256,192,34035,1,4,0:0:0:0:
256,192,34369,1,8,0:0:0:0:
256,192,34535,1,0,0:0:0:0:
256,192,34702,1,8,0:0:0:0:
256,192,35035,1,0,0:0:0:0:
256,192,35202,1,8,0:0:0:0:
256,192,35369,1,8,0:0:0:0:
256,192,35535,1,0,0:0:0:0:
256,192,35702,1,8,0:0:0:0:
256,192,35785,1,8,0:0:0:0:
256,192,35952,1,0,0:0:0:0:
256,192,36035,1,0,0:0:0:0:
256,192,36369,1,8,0:0:0:0:
256,192,36535,1,0,0:0:0:0:
256,192,36619,1,0,0:0:0:0:
256,192,36702,1,0,0:0:0:0:
256,192,37035,1,8,0:0:0:0:
256,192,37202,1,0,0:0:0:0:
256,192,37285,1,0,0:0:0:0:
256,192,37369,1,0,0:0:0:0:
256,192,37702,1,0,0:0:0:0:
256,192,37869,1,8,0:0:0:0:
256,192,38035,1,8,0:0:0:0:
256,192,38202,1,0,0:0:0:0:
256,192,38369,1,8,0:0:0:0:
256,192,38535,1,8,0:0:0:0:
256,192,38702,1,0,0:0:0:0:
256,192,38785,1,0,0:0:0:0:
256,192,38869,1,0,0:0:0:0:
256,192,39035,1,8,0:0:0:0:
256,192,39119,1,8,0:0:0:0:
256,192,39202,1,8,0:0:0:0:
256,192,39369,1,4,0:0:0:0:
256,192,39702,1,8,0:0:0:0:
256,192,39869,1,0,0:0:0:0:
256,192,40035,1,8,0:0:0:0:
256,192,40535,1,0,0:0:0:0:
256,192,40702,1,8,0:0:0:0:
256,192,40869,1,0,0:0:0:0:
256,192,41035,1,8,0:0:0:0:
256,192,41119,1,8,0:0:0:0:
256,192,41285,1,0,0:0:0:0:
256,192,41369,1,0,0:0:0:0:
256,192,41702,1,0,0:0:0:0:
256,192,41869,1,8,0:0:0:0:
256,192,42035,1,8,0:0:0:0:
256,192,42119,1,8,0:0:0:0:
256,192,42202,1,8,0:0:0:0:
256,192,42369,1,0,0:0:0:0:
256,192,42535,1,0,0:0:0:0:
256,192,42702,1,8,0:0:0:0:
256,192,42785,1,8,0:0:0:0:
256,192,43035,1,0,0:0:0:0:
256,192,43369,1,0,0:0:0:0:
256,192,43452,1,0,0:0:0:0:
256,192,43535,1,8,0:0:0:0:
256,192,43702,1,0,0:0:0:0:
256,192,43952,1,8,0:0:0:0:
256,192,44452,1,12,0:0:0:0:
256,192,44702,1,12,0:0:0:0:
256,192,44952,1,0,0:0:0:0:
256,192,45202,1,0,0:0:0:0:
256,192,45369,1,8,0:0:0:0:
256,192,45619,1,8,0:0:0:0:
256,192,45869,1,0,0:0:0:0:
256,192,46035,1,8,0:0:0:0:
256,192,46285,1,8,0:0:0:0:
256,192,46535,1,0,0:0:0:0:
256,192,46702,1,8,0:0:0:0:
256,192,46952,1,0,0:0:0:0:
256,192,47202,1,8,0:0:0:0:
256,192,47369,1,0,0:0:0:0:
256,192,47619,1,0,0:0:0:0:
256,192,47869,1,8,0:0:0:0:
256,192,48035,1,0,0:0:0:0:
256,192,48369,1,0,0:0:0:0:
256,192,48452,1,0,0:0:0:0:
256,192,48535,1,0,0:0:0:0:
256,192,48702,1,8,0:0:0:0:
256,192,48869,1,0,0:0:0:0:
256,192,49035,1,8,0:0:0:0:
256,192,49119,1,8,0:0:0:0:
256,192,49202,1,8,0:0:0:0:
256,192,49369,1,0,0:0:0:0:
256,192,49535,1,0,0:0:0:0:
256,192,49702,1,8,0:0:0:0:
256,192,49813,1,8,0:0:0:0:
256,192,49924,1,8,0:0:0:0:
256,192,50035,1,8,0:0:0:0:
256,192,50535,1,0,0:0:0:0:
256,192,50702,1,8,0:0:0:0:
256,192,50952,1,8,0:0:0:0:
256,192,51202,1,0,0:0:0:0:
256,192,51369,1,8,0:0:0:0:
256,192,51619,1,8,0:0:0:0:
256,192,51869,1,8,0:0:0:0:
256,192,52119,1,8,0:0:0:0:
256,192,52369,1,0,0:0:0:0:
256,192,52535,1,0,0:0:0:0:
256,192,52702,1,8,0:0:0:0:
256,192,53035,1,0,0:0:0:0:
256,192,53202,1,8,0:0:0:0:
256,192,53285,1,8,0:0:0:0:
256,192,53369,1,8,0:0:0:0:
256,192,53702,1,8,0:0:0:0:
256,192,53869,1,0,0:0:0:0:
256,192,53952,1,0,0:0:0:0:
256,192,54035,1,0,0:0:0:0:
256,192,54702,1,8,0:0:0:0:
256,192,54813,1,8,0:0:0:0:
256,192,54924,1,8,0:0:0:0:
256,192,55035,1,8,0:0:0:0:
256,192,55369,1,4,0:0:0:0:
256,160,55702,1,8,0:0:0:0:
256,192,55952,1,0,0:0:0:0:
256,192,56119,1,0,0:0:0:0:
256,192,56285,1,8,0:0:0:0:
256,160,56535,1,8,0:0:0:0:
256,160,56702,1,0,0:0:0:0:
256,192,57035,1,0,0:0:0:0:
256,192,57285,1,8,0:0:0:0:
256,192,57452,1,8,0:0:0:0:
256,192,57619,1,8,0:0:0:0:
256,192,57869,1,0,0:0:0:0:
256,192,58035,1,8,0:0:0:0:
256,192,58202,1,8,0:0:0:0:
256,192,58369,1,0,0:0:0:0:
256,192,58452,1,0,0:0:0:0:
256,192,58535,1,0,0:0:0:0:
256,192,58702,1,8,0:0:0:0:
256,192,58952,1,0,0:0:0:0:
256,192,59202,1,12,0:0:0:0:
256,192,59702,1,0,0:0:0:0:
256,192,60035,1,8,0:0:0:0:
256,192,60202,1,8,0:0:0:0:
256,192,60285,1,8,0:0:0:0:
256,192,60369,1,8,0:0:0:0:
256,192,60535,1,0,0:0:0:0:
256,192,60702,1,12,0:0:0:0:
256,192,61035,1,0,0:0:0:0:
256,192,61369,1,8,0:0:0:0:
256,192,61619,1,8,0:0:0:0:
256,192,61869,1,0,0:0:0:0:
256,192,62035,1,8,0:0:0:0:
256,192,62369,1,0,0:0:0:0:
256,192,62535,1,8,0:0:0:0:
256,192,62619,1,8,0:0:0:0:
256,192,62702,1,8,0:0:0:0:
256,192,63035,1,0,0:0:0:0:
256,192,63119,1,0,0:0:0:0:
256,192,63202,1,0,0:0:0:0:
256,192,63369,1,12,0:0:0:0:
256,192,63702,1,0,0:0:0:0:
256,192,64035,1,8,0:0:0:0:
256,192,64285,1,8,0:0:0:0:
256,192,64535,1,0,0:0:0:0:
256,192,64702,1,8,0:0:0:0:
256,192,64952,1,0,0:0:0:0:
256,192,65202,1,0,0:0:0:0:
256,192,65369,1,8,0:0:0:0:
256,192,65702,1,0,0:0:0:0:
256,192,65785,1,0,0:0:0:0:
256,192,65869,1,0,0:0:0:0:
256,192,66035,1,12,0:0:0:0:
256,192,66369,1,8,0:0:0:0:
256,192,66535,1,0,0:0:0:0:
256,192,66702,1,8,0:0:0:0:
256,192,67202,1,0,0:0:0:0:
256,192,67369,1,8,0:0:0:0:
256,192,67535,1,0,0:0:0:0:
256,192,67702,1,8,0:0:0:0:
256,192,67785,1,8,0:0:0:0:
256,192,68035,1,0,0:0:0:0:
256,192,68369,1,8,0:0:0:0:
256,192,68535,1,0,0:0:0:0:
256,192,68619,1,0,0:0:0:0:
256,192,68702,1,0,0:0:0:0:
256,192,69035,1,8,0:0:0:0:
256,192,69202,1,0,0:0:0:0:
256,192,69285,1,0,0:0:0:0:
256,192,69369,1,0,0:0:0:0:
256,192,69702,1,0,0:0:0:0:
256,192,69869,1,0,0:0:0:0:
256,192,70035,1,8,0:0:0:0:
256,192,70202,1,0,0:0:0:0:
256,192,70369,1,8,0:0:0:0:
256,192,70535,1,8,0:0:0:0:
256,192,70702,1,0,0:0:0:0:
256,192,70785,1,0,0:0:0:0:
256,192,70869,1,0,0:0:0:0:
256,192,71035,1,8,0:0:0:0:
256,192,71119,1,8,0:0:0:0:
256,192,71202,1,8,0:0:0:0:
256,192,71369,1,4,0:0:0:0:
256,192,71702,1,8,0:0:0:0:
256,192,71869,1,0,0:0:0:0:
256,192,72035,1,8,0:0:0:0:
256,192,72535,1,0,0:0:0:0:
256,192,72702,1,8,0:0:0:0:
256,192,72869,1,0,0:0:0:0:
256,192,73035,1,8,0:0:0:0:
256,192,73119,1,8,0:0:0:0:
256,192,73369,1,0,0:0:0:0:
256,192,73702,1,0,0:0:0:0:
256,192,73869,1,8,0:0:0:0:
256,192,74035,1,8,0:0:0:0:
256,192,74119,1,8,0:0:0:0:
256,192,74202,1,8,0:0:0:0:
256,192,74369,1,0,0:0:0:0:
256,192,74535,1,0,0:0:0:0:
256,192,74702,1,8,0:0:0:0:
256,192,74785,1,8,0:0:0:0:
256,192,75035,1,0,0:0:0:0:
256,192,75369,1,0,0:0:0:0:
256,192,75452,1,0,0:0:0:0:
256,192,75535,1,8,0:0:0:0:
256,192,75702,1,0,0:0:0:0:
256,192,75952,1,8,0:0:0:0:
256,192,76452,1,4,0:0:0:0:
288,192,76702,1,12,0:0:0:0:
256,192,77035,1,8,0:0:0:0:
256,192,77202,1,0,0:0:0:0:
256,192,77369,1,8,0:0:0:0:
256,192,77702,1,0,0:0:0:0:
256,192,77869,1,0,0:0:0:0:
256,192,78035,1,8,0:0:0:0:
256,192,78202,1,0,0:0:0:0:
256,192,78369,1,8,0:0:0:0:
256,192,78452,1,8,0:0:0:0:
256,192,78619,1,0,0:0:0:0:
256,192,78702,1,0,0:0:0:0:
256,192,79035,1,8,0:0:0:0:
256,192,79119,1,8,0:0:0:0:
256,192,79202,1,8,0:0:0:0:
256,192,79369,1,0,0:0:0:0:
256,192,79535,1,0,0:0:0:0:
256,192,79702,1,8,0:0:0:0:
256,192,79952,1,0,0:0:0:0:
256,192,80035,1,0,0:0:0:0:
256,192,80285,1,8,0:0:0:0:
256,192,80369,1,8,0:0:0:0:
256,192,80702,1,12,0:0:0:0:
256,192,80869,1,12,0:0:0:0:
256,192,81035,1,12,0:0:0:0:
256,192,81202,1,4,0:0:0:0:
256,192,81369,1,12,0:0:0:0:
256,192,81702,1,4,0:0:0:0:
256,192,82035,1,12,0:0:0:0:
256,192,82369,1,0,0:0:0:0:
256,192,82535,1,0,0:0:0:0:
256,192,82702,1,8,0:0:0:0:
256,192,83202,1,0,0:0:0:0:
256,192,83369,1,8,0:0:0:0:
256,192,83535,1,0,0:0:0:0:
256,192,83702,1,8,0:0:0:0:
256,192,83785,1,8,0:0:0:0:
256,192,83952,1,0,0:0:0:0:
256,192,84035,1,0,0:0:0:0:
256,192,84369,1,0,0:0:0:0:
256,192,84535,1,8,0:0:0:0:
256,192,84702,1,8,0:0:0:0:
256,192,84869,1,0,0:0:0:0:
256,192,85035,1,8,0:0:0:0:
256,192,85202,1,0,0:0:0:0:
256,192,85369,1,8,0:0:0:0:
256,192,85452,1,8,0:0:0:0:
256,192,85702,1,0,0:0:0:0:
256,192,86035,1,0,0:0:0:0:
256,192,86119,1,0,0:0:0:0:
256,192,86202,1,8,0:0:0:0:
256,192,86369,1,0,0:0:0:0:
256,192,86619,1,8,0:0:0:0:
256,192,87119,1,4,0:0:0:0:
256,192,87369,1,8,0:0:0:0:
256,192,87452,1,8,0:0:0:0:
256,192,87535,1,8,0:0:0:0:
256,192,87702,1,0,0:0:0:0:
256,192,87785,1,0,0:0:0:0:
256,192,87869,1,0,0:0:0:0:
256,192,88035,1,8,0:0:0:0:
256,192,88202,1,8,0:0:0:0:
256,192,88369,1,0,0:0:0:0:
256,192,88619,1,8,0:0:0:0:
256,192,88869,1,8,0:0:0:0:
256,192,88952,1,8,0:0:0:0:
256,192,89035,1,8,0:0:0:0:
256,192,89202,1,0,0:0:0:0:
256,192,89285,1,0,0:0:0:0:
256,192,89369,1,0,0:0:0:0:
256,192,89535,1,8,0:0:0:0:
256,192,89702,1,8,0:0:0:0:
256,192,89869,1,0,0:0:0:0:
256,192,90119,1,8,0:0:0:0:
256,192,90369,1,8,0:0:0:0:
256,192,90619,1,0,0:0:0:0:
256,192,90869,1,8,0:0:0:0:
256,192,91119,1,8,0:0:0:0:
256,192,91369,1,8,0:0:0:0:
256,192,91619,1,0,0:0:0:0:
256,192,91869,1,0,0:0:0:0:
256,192,92035,1,8,0:0:0:0:
256,192,92258,1,0,0:0:0:0:
256,192,92369,1,0,0:0:0:0:
256,192,92591,1,0,0:0:0:0:
256,192,92702,1,8,0:0:0:0:
256,192,93035,1,8,0:0:0:0:
256,192,93202,1,0,0:0:0:0:
256,192,93369,1,8,0:0:0:0:
256,192,93535,1,0,0:0:0:0:
256,192,93702,1,8,0:0:0:0:
256,192,93869,1,0,0:0:0:0:
256,192,94035,1,8,0:0:0:0:
256,192,94369,1,8,0:0:0:0:
256,192,94591,1,0,0:0:0:0:
256,192,94702,1,0,0:0:0:0:
256,192,94924,1,8,0:0:0:0:
256,192,95035,1,8,0:0:0:0:
256,192,95369,1,4,0:0:0:0:
256,192,96535,1,0,0:0:0:0:
256,192,96702,1,8,0:0:0:0:
256,192,96869,1,0,0:0:0:0:
256,192,97035,1,8,0:0:0:0:
256,192,97202,1,0,0:0:0:0:
256,192,97369,1,8,0:0:0:0:
256,192,97535,1,0,0:0:0:0:
256,192,97702,1,8,0:0:0:0:
256,192,98035,1,8,0:0:0:0:
256,192,98202,1,8,0:0:0:0:
256,192,98369,1,0,0:0:0:0:
256,192,98452,1,0,0:0:0:0:
256,192,98535,1,0,0:0:0:0:
256,192,98702,1,8,0:0:0:0:
256,192,98869,1,8,0:0:0:0:
256,192,99035,1,0,0:0:0:0:
256,192,99119,1,0,0:0:0:0:
256,192,99369,1,8,0:0:0:0:
256,192,99535,1,0,0:0:0:0:
256,192,99619,1,0,0:0:0:0:
256,192,99702,1,0,0:0:0:0:
256,192,99869,1,8,0:0:0:0:
256,192,100035,1,8,0:0:0:0:
256,192,100285,1,0,0:0:0:0:
256,192,100452,1,8,0:0:0:0:
256,192,100535,1,8,0:0:0:0:
256,192,100702,1,0,0:0:0:0:
256,192,101535,1,0,0:0:0:0:
256,192,101702,1,8,0:0:0:0:
256,192,101869,1,0,0:0:0:0:
256,192,102035,1,8,0:0:0:0:
256,192,102119,1,8,0:0:0:0:
256,192,102202,1,8,0:0:0:0:
256,192,102369,1,0,0:0:0:0:
256,192,102535,1,0,0:0:0:0:
256,192,102702,1,8,0:0:0:0:
256,192,102868,1,8,0:0:0:0:
256,192,103035,1,0,0:0:0:0:
256,192,103118,1,0,0:0:0:0:
256,192,103368,1,0,0:0:0:0:
256,192,103535,1,8,0:0:0:0:
256,192,103618,1,8,0:0:0:0:
256,192,103702,1,8,0:0:0:0:
256,192,103868,1,0,0:0:0:0:
256,192,104035,1,8,0:0:0:0:
256,192,104118,1,8,0:0:0:0:
256,192,104202,1,8,0:0:0:0:
256,192,104368,1,0,0:0:0:0:
256,192,104535,1,8,0:0:0:0:
256,192,104702,1,0,0:0:0:0:
256,192,104868,1,0,0:0:0:0:
256,192,105035,1,8,0:0:0:0:
256,192,105202,1,0,0:0:0:0:
256,192,105368,1,8,0:0:0:0:
256,192,105452,1,8,0:0:0:0:
256,192,106035,1,12,0:0:0:0:
256,192,106202,1,0,0:0:0:0:
256,192,106368,1,8,0:0:0:0:
256,192,106535,1,8,0:0:0:0:
256,192,106702,1,0,0:0:0:0:
256,192,106952,1,8,0:0:0:0:
256,192,107118,1,0,0:0:0:0:
256,192,107202,1,0,0:0:0:0:
256,192,107368,1,8,0:0:0:0:
256,192,107535,1,0,0:0:0:0:
256,192,107702,1,8,0:0:0:0:
256,192,107868,1,8,0:0:0:0:
256,192,108035,1,0,0:0:0:0:
256,192,108285,1,8,0:0:0:0:
256,192,108452,1,0,0:0:0:0:
256,192,108535,1,0,0:0:0:0:
256,192,108702,1,8,0:0:0:0:
256,192,108868,1,0,0:0:0:0:
256,192,109035,1,8,0:0:0:0:
256,192,109202,1,8,0:0:0:0:
256,192,109368,1,0,0:0:0:0:
256,192,109618,1,0,0:0:0:0:
256,192,109868,1,0,0:0:0:0:
256,192,110035,1,8,0:0:0:0:
256,192,110118,1,8,0:0:0:0:
256,192,110202,1,8,0:0:0:0:
256,192,110368,1,0,0:0:0:0:
256,192,110535,1,8,0:0:0:0:
256,192,110702,1,0,0:0:0:0:
256,192,110785,1,0,0:0:0:0:
256,192,110868,1,0,0:0:0:0:
256,192,111035,1,8,0:0:0:0:
256,192,111118,1,8,0:0:0:0:
256,192,111368,1,0,0:0:0:0:
256,192,111868,1,0,0:0:0:0:
256,192,112035,1,8,0:0:0:0:
256,192,112285,1,8,0:0:0:0:
256,192,112535,1,0,0:0:0:0:
256,192,112702,1,8,0:0:0:0:
256,192,112785,1,8,0:0:0:0:
256,192,112868,1,8,0:0:0:0:
256,192,113035,1,0,0:0:0:0:
256,192,113202,1,0,0:0:0:0:
256,192,113368,1,8,0:0:0:0:
256,192,113535,1,8,0:0:0:0:
256,192,113702,1,0,0:0:0:0:
256,192,113785,1,0,0:0:0:0:
256,192,113868,1,0,0:0:0:0:
256,192,114035,1,8,0:0:0:0:
256,192,114368,1,8,0:0:0:0:
256,192,114535,1,0,0:0:0:0:
256,192,114702,1,8,0:0:0:0:
256,192,114785,1,8,0:0:0:0:
256,192,114868,1,8,0:0:0:0:
256,192,115035,1,0,0:0:0:0:
256,192,115202,1,0,0:0:0:0:
256,192,115368,1,8,0:0:0:0:
256,192,115702,1,0,0:0:0:0:
256,192,115868,1,0,0:0:0:0:
256,192,116035,1,8,0:0:0:0:
256,192,116118,1,8,0:0:0:0:
256,192,116702,1,4,0:0:0:0:
256,192,117035,1,0,0:0:0:0:
256,192,117202,1,8,0:0:0:0:
256,192,117285,1,8,0:0:0:0:
256,192,117702,1,0,0:0:0:0:
256,192,118035,1,0,0:0:0:0:
256,192,118202,1,8,0:0:0:0:
256,192,118285,1,8,0:0:0:0:
256,192,118368,1,8,0:0:0:0:
256,192,118535,1,0,0:0:0:0:
256,192,118702,1,8,0:0:0:0:
256,192,118868,1,8,0:0:0:0:
256,192,119035,1,0,0:0:0:0:
256,192,119202,1,8,0:0:0:0:
256,192,119368,1,0,0:0:0:0:
256,192,119535,1,8,0:0:0:0:
256,192,119618,1,8,0:0:0:0:
256,192,119702,1,8,0:0:0:0:
256,192,119868,1,0,0:0:0:0:
256,192,120035,1,8,0:0:0:0:
256,192,120118,1,8,0:0:0:0:
256,192,120618,1,0,0:0:0:0:
256,192,120868,1,8,0:0:0:0:
256,192,120952,1,8,0:0:0:0:
256,192,121035,1,8,0:0:0:0:
256,192,121202,1,0,0:0:0:0:
256,192,121368,1,8,0:0:0:0:
256,192,121535,1,8,0:0:0:0:
256,192,121702,1,0,0:0:0:0:
256,192,121785,1,0,0:0:0:0:
256,192,121868,1,0,0:0:0:0:
256,192,122035,1,8,0:0:0:0:
256,192,122257,1,0,0:0:0:0:
256,192,122618,1,8,0:0:0:0:
256,192,122702,1,8,0:0:0:0:
256,192,122868,1,0,0:0:0:0:
256,192,123285,1,8,0:0:0:0:
256,192,123368,1,8,0:0:0:0:
256,192,123535,1,0,0:0:0:0:
256,192,123952,1,0,0:0:0:0:
256,192,124035,1,0,0:0:0:0:
256,192,124202,1,8,0:0:0:0:
256,192,124535,1,0,0:0:0:0:
256,192,124702,1,8,0:0:0:0:
256,192,125202,1,8,0:0:0:0:
256,192,125368,1,0,0:0:0:0:
256,192,125535,1,0,0:0:0:0:
256,192,125702,1,8,0:0:0:0:
256,192,126035,1,0,0:0:0:0:
256,192,126118,1,0,0:0:0:0:
256,192,126202,1,0,0:0:0:0:
256,192,126368,1,8,0:0:0:0:
256,192,126535,1,8,0:0:0:0:
256,192,126702,1,0,0:0:0:0:
256,192,126785,1,0,0:0:0:0:
256,192,126952,1,8,0:0:0:0:
256,192,127035,1,8,0:0:0:0:
256,192,127285,1,8,0:0:0:0:
256,192,127618,1,0,0:0:0:0:
256,192,127785,1,8,0:0:0:0:
256,192,127952,1,0,0:0:0:0:
256,192,128118,1,0,0:0:0:0:
256,192,128285,1,8,0:0:0:0:
256,192,128368,1,8,0:0:0:0:
256,192,128535,1,0,0:0:0:0:
256,192,128702,1,8,0:0:0:0:
256,192,128952,1,0,0:0:0:0:
256,192,129118,1,8,0:0:0:0:
256,192,129285,1,8,0:0:0:0:
256,192,129452,1,0,0:0:0:0:
256,192,129618,1,8,0:0:0:0:
256,192,129702,1,8,0:0:0:0:
256,192,129868,1,0,0:0:0:0:
256,192,130035,1,8,0:0:0:0:
256,192,130285,1,0,0:0:0:0:
256,192,130452,1,8,0:0:0:0:
256,192,130618,1,0,0:0:0:0:
256,192,130785,1,0,0:0:0:0:
256,192,130951,1,8,0:0:0:0:
256,192,131035,1,8,0:0:0:0:
256,192,131201,1,0,0:0:0:0:
256,192,131368,1,8,0:0:0:0:
256,192,131618,1,0,0:0:0:0:
256,192,131785,1,8,0:0:0:0:
256,192,131952,1,8,0:0:0:0:
256,192,132118,1,0,0:0:0:0:
256,192,132285,1,8,0:0:0:0:
256,192,132368,1,8,0:0:0:0:
256,192,132535,1,0,0:0:0:0:
256,192,132702,1,8,0:0:0:0:
256,192,133202,1,0,0:0:0:0:
256,192,133368,1,8,0:0:0:0:
256,192,133535,1,0,0:0:0:0:
256,192,133702,1,8,0:0:0:0:
256,192,133785,1,8,0:0:0:0:
256,192,133868,1,8,0:0:0:0:
256,192,134035,1,0,0:0:0:0:
256,192,134202,1,8,0:0:0:0:
256,192,134368,1,0,0:0:0:0:
256,192,134452,1,0,0:0:0:0:
256,192,134535,1,0,0:0:0:0:
256,192,134702,1,8,0:0:0:0:
256,192,134785,1,8,0:0:0:0:
256,192,135285,1,0,0:0:0:0:
256,192,135368,1,0,0:0:0:0:
256,192,135535,1,8,0:0:0:0:
256,192,135702,1,0,0:0:0:0:
256,192,135785,1,0,0:0:0:0:
256,192,135868,1,0,0:0:0:0:
256,192,136035,1,8,0:0:0:0:
256,192,136202,1,8,0:0:0:0:
256,192,136368,1,0,0:0:0:0:
256,192,136618,1,8,0:0:0:0:
256,192,136702,1,8,0:0:0:0:
256,192,136868,1,0,0:0:0:0:
256,192,137035,1,8,0:0:0:0:
256,192,137118,1,8,0:0:0:0:
256,192,137202,1,8,0:0:0:0:
256,192,137368,1,0,0:0:0:0:
256,192,137535,1,0,0:0:0:0:
256,192,137702,1,8,0:0:0:0:
256,192,137785,1,8,0:0:0:0:
256,192,137868,1,8,0:0:0:0:
256,192,138035,1,4,0:0:0:0:
256,192,138202,1,8,0:0:0:0:
256,192,138368,1,8,0:0:0:0:
256,192,138702,1,8,0:0:0:0:
256,192,138952,1,8,0:0:0:0:
256,192,139118,1,0,0:0:0:0:
256,192,139202,1,0,0:0:0:0:
256,192,139535,1,8,0:0:0:0:
256,192,139702,1,8,0:0:0:0:
256,192,139868,1,0,0:0:0:0:
256,192,140035,1,8,0:0:0:0:
256,192,140285,1,0,0:0:0:0:
256,192,140452,1,8,0:0:0:0:
256,192,140535,1,8,0:0:0:0:
256,192,140868,1,0,0:0:0:0:
256,192,141035,1,8,0:0:0:0:
256,192,141202,1,0,0:0:0:0:
256,192,141368,1,8,0:0:0:0:
256,192,141618,1,8,0:0:0:0:
256,192,141785,1,0,0:0:0:0:
256,192,141868,1,0,0:0:0:0:
256,192,142202,1,8,0:0:0:0:
256,192,142452,1,0,0:0:0:0:
256,192,142702,1,8,0:0:0:0:
256,192,142952,1,8,0:0:0:0:
288,192,143118,1,0,0:0:0:0:
256,192,143202,1,0,0:0:0:0:
256,192,143368,1,12,0:0:0:0:
256,192,143868,1,0,0:0:0:0:
288,192,144035,1,8,0:0:0:0:
288,192,144118,1,8,0:0:0:0:
288,192,144202,1,8,0:0:0:0:
288,192,144368,1,0,0:0:0:0:
288,192,144535,1,8,0:0:0:0:
288,192,144702,1,0,0:0:0:0:
288,192,144785,1,0,0:0:0:0:
288,192,144868,1,0,0:0:0:0:
288,192,145035,1,8,0:0:0:0:
288,192,145368,1,8,0:0:0:0:
288,192,145535,1,8,0:0:0:0:
288,192,145702,1,0,0:0:0:0:
288,192,145868,1,8,0:0:0:0:
288,192,145952,1,8,0:0:0:0:
288,192,146035,1,8,0:0:0:0:
288,192,146202,1,0,0:0:0:0:
288,192,146368,1,8,0:0:0:0:
288,192,146535,1,0,0:0:0:0:
288,192,146702,1,8,0:0:0:0:
288,192,146868,1,0,0:0:0:0:
288,192,147035,1,8,0:0:0:0:
288,192,147202,1,8,0:0:0:0:
288,192,147368,1,0,0:0:0:0:
288,192,147452,1,0,0:0:0:0:
288,192,147535,1,0,0:0:0:0:
288,192,147702,1,8,0:0:0:0:
288,192,148202,1,8,0:0:0:0:
288,192,148285,1,8,0:0:0:0:
288,192,148368,1,8,0:0:0:0:
288,192,148535,1,0,0:0:0:0:
288,192,148702,1,12,0:0:0:0:
288,192,148868,1,0,0:0:0:0:
288,192,149035,1,8,0:0:0:0:
256,192,149369,1,8,0:0:0:0:
256,192,149619,1,8,0:0:0:0:
256,192,149785,1,0,0:0:0:0:
256,192,149869,1,0,0:0:0:0:
256,192,150202,1,8,0:0:0:0:
256,192,150369,1,8,0:0:0:0:
256,192,150535,1,0,0:0:0:0:
256,192,150702,1,8,0:0:0:0:
256,192,150952,1,0,0:0:0:0:
256,192,151119,1,8,0:0:0:0:
256,192,151202,1,8,0:0:0:0:
256,192,151535,1,0,0:0:0:0:
256,192,151702,1,8,0:0:0:0:
256,192,151869,1,0,0:0:0:0:
256,192,152035,1,8,0:0:0:0:
256,192,152285,1,8,0:0:0:0:
256,192,152452,1,0,0:0:0:0:
256,192,152535,1,0,0:0:0:0:
256,192,152869,1,8,0:0:0:0:
256,192,153119,1,0,0:0:0:0:
256,192,153369,1,8,0:0:0:0:
256,192,153619,1,8,0:0:0:0:
288,192,153785,1,0,0:0:0:0:
256,192,153869,1,0,0:0:0:0:
256,192,154035,1,12,0:0:0:0:
288,192,154535,1,0,0:0:0:0:
288,192,154702,1,8,0:0:0:0:
288,192,155035,1,0,0:0:0:0:
288,192,155202,1,8,0:0:0:0:
288,192,155368,1,8,0:0:0:0:
288,192,155535,1,0,0:0:0:0:
288,192,155618,1,0,0:0:0:0:
288,192,155702,1,0,0:0:0:0:
288,192,155868,1,8,0:0:0:0:
288,192,156035,1,0,0:0:0:0:
288,192,156118,1,0,0:0:0:0:
288,192,156202,1,0,0:0:0:0:
288,192,156368,1,8,0:0:0:0:
288,192,156702,1,0,0:0:0:0:
288,192,156868,1,8,0:0:0:0:
288,192,156952,1,8,0:0:0:0:
288,192,157035,1,8,0:0:0:0:
288,192,157202,1,0,0:0:0:0:
288,192,157368,1,8,0:0:0:0:
288,192,157535,1,8,0:0:0:0:
288,192,157702,1,0,0:0:0:0:
288,192,157785,1,0,0:0:0:0:
288,192,157868,1,0,0:0:0:0:
288,192,158035,1,12,0:0:0:0:
288,192,158368,1,0,0:0:0:0:
288,192,158702,1,8,0:0:0:0:
288,192,158813,1,8,0:0:0:0:
288,192,158924,1,8,0:0:0:0:
288,192,159035,1,8,0:0:0:0:
288,192,159368,1,4,0:0:0:0:
288,192,159868,1,8,0:0:0:0:
288,192,160035,1,0,0:0:0:0:
288,192,160285,1,0,0:0:0:0:
288,192,160368,1,0,0:0:0:0:
288,192,160535,1,8,0:0:0:0:
288,192,160785,1,0,0:0:0:0:
288,192,161035,1,8,0:0:0:0:
288,192,161202,1,8,0:0:0:0:
288,192,161368,1,0,0:0:0:0:
288,192,161618,1,0,0:0:0:0:
288,192,161702,1,0,0:0:0:0:
288,192,161868,1,8,0:0:0:0:
288,192,162035,1,4,0:0:0:0:
288,192,162368,1,8,0:0:0:0:
288,192,162535,1,8,0:0:0:0:
288,192,162702,1,0,0:0:0:0:
288,192,162952,1,0,0:0:0:0:
288,192,163035,1,0,0:0:0:0:
288,192,163202,1,8,0:0:0:0:
288,192,163368,1,8,0:0:0:0:
288,192,163452,1,8,0:0:0:0:
288,192,163535,1,8,0:0:0:0:
288,192,163702,1,0,0:0:0:0:
288,192,163952,1,12,0:0:0:0:
288,192,164702,1,0,0:0:0:0:
288,192,164813,1,0,0:0:0:0:
288,192,164924,1,0,0:0:0:0:
288,192,165146,1,8,0:0:0:0:
288,192,165257,1,8,0:0:0:0:
288,192,165368,1,8,0:0:0:0:
288,192,165591,1,0,0:0:0:0:
288,192,165813,1,0,0:0:0:0:
288,192,166035,1,8,0:0:0:0:
288,192,166146,1,8,0:0:0:0:
288,192,166257,1,8,0:0:0:0:
288,192,166480,1,0,0:0:0:0:
288,192,166702,1,8,0:0:0:0:
288,192,166924,1,0,0:0:0:0:
288,192,167035,1,0,0:0:0:0:
288,192,167146,1,0,0:0:0:0:
288,192,167368,1,8,0:0:0:0:
288,192,167618,1,0,0:0:0:0:
288,192,167868,1,0,0:0:0:0:
288,192,168035,1,0,0:0:0:0:
288,192,168285,1,0,0:0:0:0:
288,192,168535,1,0,0:0:0:0:
288,192,168702,1,8,0:0:0:0:
288,192,168785,1,8,0:0:0:0:
288,192,168868,1,8,0:0:0:0:
288,192,169035,1,0,0:0:0:0:
288,192,169118,1,0,0:0:0:0:
288,192,169202,1,0,0:0:0:0:
288,192,169368,1,8,0:0:0:0:
288,192,169535,1,8,0:0:0:0:
288,192,169702,1,8,0:0:0:0:
288,192,170035,1,4,0:0:0:0:
288,192,170534,1,8,0:0:0:0:
288,192,170701,1,0,0:0:0:0:
288,192,170951,1,0,0:0:0:0:
288,192,171034,1,0,0:0:0:0:
288,192,171201,1,8,0:0:0:0:
288,192,171451,1,0,0:0:0:0:
288,192,171701,1,8,0:0:0:0:
288,192,171868,1,8,0:0:0:0:
288,192,172034,1,0,0:0:0:0:
288,192,172284,1,0,0:0:0:0:
288,192,172368,1,0,0:0:0:0:
288,192,172534,1,8,0:0:0:0:
288,192,172701,1,4,0:0:0:0:
288,192,173034,1,8,0:0:0:0:
288,192,173201,1,8,0:0:0:0:
288,192,173368,1,0,0:0:0:0:
288,192,173618,1,0,0:0:0:0:
288,192,173701,1,0,0:0:0:0:
288,192,173868,1,8,0:0:0:0:
288,192,174034,1,8,0:0:0:0:
288,192,174118,1,8,0:0:0:0:
288,192,174201,1,8,0:0:0:0:
288,192,174368,1,0,0:0:0:0:
288,192,174618,1,12,0:0:0:0:
288,192,175368,1,8,0:0:0:0:
288,192,175618,1,8,0:0:0:0:
288,192,175868,1,8,0:0:0:0:
288,192,176118,1,8,0:0:0:0:
288,192,176368,1,0,0:0:0:0:
288,192,176702,1,8,0:0:0:0:
288,192,176952,1,8,0:0:0:0:
288,192,177202,1,8,0:0:0:0:
288,192,177452,1,8,0:0:0:0:
288,192,177702,1,0,0:0:0:0:
288,192,178035,1,8,0:0:0:0:
288,192,178285,1,8,0:0:0:0:
288,192,178535,1,8,0:0:0:0:
288,192,178785,1,8,0:0:0:0:
288,192,179035,1,8,0:0:0:0:
288,192,179285,1,8,0:0:0:0:
288,192,179535,1,8,0:0:0:0:
288,192,179785,1,8,0:0:0:0:
288,192,180035,1,0,0:0:0:0:
288,192,180285,1,8,0:0:0:0:
288,192,180535,1,8,0:0:0:0:
288,192,180785,1,8,0:0:0:0:
288,192,181035,1,0,0:0:0:0:
288,192,181202,1,8,0:0:0:0:
288,192,181285,1,8,0:0:0:0:
288,192,181452,1,0,0:0:0:0:
288,192,181535,1,0,0:0:0:0:
288,192,181702,1,8,0:0:0:0:
288,192,181785,1,8,0:0:0:0:
256,192,184034,5,4,0:0:0:0:
256,192,184367,1,8,0:0:0:0:
256,192,184534,1,0,0:0:0:0:
256,192,184700,1,8,0:0:0:0:
256,192,185034,1,0,0:0:0:0:
256,192,185200,1,8,0:0:0:0:
256,192,185367,1,8,0:0:0:0:
256,192,185534,1,0,0:0:0:0:
256,192,185700,1,8,0:0:0:0:
256,192,185784,1,8,0:0:0:0:
256,192,186034,1,0,0:0:0:0:
256,192,186367,1,8,0:0:0:0:
256,192,186534,1,0,0:0:0:0:
256,192,186617,1,0,0:0:0:0:
256,192,186700,1,0,0:0:0:0:
256,192,187034,1,8,0:0:0:0:
256,192,187200,1,0,0:0:0:0:
256,192,187284,1,0,0:0:0:0:
256,192,187367,1,0,0:0:0:0:
256,192,187700,1,0,0:0:0:0:
256,192,187867,1,0,0:0:0:0:
256,192,188034,1,8,0:0:0:0:
256,192,188200,1,0,0:0:0:0:
256,192,188367,1,8,0:0:0:0:
256,192,188534,1,8,0:0:0:0:
256,192,188700,1,0,0:0:0:0:
256,192,188784,1,0,0:0:0:0:
256,192,188867,1,0,0:0:0:0:
256,192,189034,1,8,0:0:0:0:
256,192,189117,1,8,0:0:0:0:
256,192,189200,1,8,0:0:0:0:
256,192,189367,1,4,0:0:0:0:
256,192,189700,1,8,0:0:0:0:
256,192,189867,1,0,0:0:0:0:
256,192,190034,1,8,0:0:0:0:
256,192,190534,1,0,0:0:0:0:
256,192,190700,1,8,0:0:0:0:
256,192,190867,1,0,0:0:0:0:
256,192,191034,1,8,0:0:0:0:
256,192,191117,1,8,0:0:0:0:
256,192,191367,1,0,0:0:0:0:
256,192,191700,1,0,0:0:0:0:
256,192,191867,1,8,0:0:0:0:
256,192,192034,1,8,0:0:0:0:
256,192,192117,1,8,0:0:0:0:
256,192,192200,1,8,0:0:0:0:
256,192,192367,1,0,0:0:0:0:
256,192,192534,1,0,0:0:0:0:
256,192,192700,1,8,0:0:0:0:
256,192,192784,1,8,0:0:0:0:
256,192,193034,1,0,0:0:0:0:
256,192,193367,1,0,0:0:0:0:
256,192,193450,1,0,0:0:0:0:
256,192,193534,1,8,0:0:0:0:
256,192,193700,1,0,0:0:0:0:
256,192,193950,1,8,0:0:0:0:
256,192,194700,1,4,0:0:0:0:
256,192,195034,1,8,0:0:0:0:
256,192,195200,1,0,0:0:0:0:
256,192,195367,1,8,0:0:0:0:
256,192,195700,1,0,0:0:0:0:
256,192,195867,1,8,0:0:0:0:
256,192,196034,1,8,0:0:0:0:
256,192,196200,1,0,0:0:0:0:
256,192,196367,1,8,0:0:0:0:
256,192,196450,1,8,0:0:0:0:
256,192,196617,1,0,0:0:0:0:
256,192,196700,1,0,0:0:0:0:
256,192,197034,1,8,0:0:0:0:
256,192,197200,1,0,0:0:0:0:
256,192,197284,1,0,0:0:0:0:
256,192,197367,1,0,0:0:0:0:
256,192,197700,1,8,0:0:0:0:
256,192,197867,1,0,0:0:0:0:
256,192,197950,1,0,0:0:0:0:
256,192,198034,1,0,0:0:0:0:
256,192,198367,1,0,0:0:0:0:
256,192,198534,1,8,0:0:0:0:
256,192,198700,1,8,0:0:0:0:
256,192,198867,1,0,0:0:0:0:
256,192,199034,1,8,0:0:0:0:
256,192,199200,1,8,0:0:0:0:
256,192,199367,1,0,0:0:0:0:
256,192,199450,1,0,0:0:0:0:
256,192,199534,1,0,0:0:0:0:
256,192,199700,1,8,0:0:0:0:
256,192,199784,1,8,0:0:0:0:
256,192,199867,1,8,0:0:0:0:
256,192,200034,1,4,0:0:0:0:
256,192,200367,1,8,0:0:0:0:
256,192,200534,1,0,0:0:0:0:
256,192,200700,1,8,0:0:0:0:
256,192,201200,1,0,0:0:0:0:
256,192,201367,1,8,0:0:0:0:
256,192,201534,1,0,0:0:0:0:
256,192,201700,1,8,0:0:0:0:
256,192,201784,1,8,0:0:0:0:
256,192,201950,1,0,0:0:0:0:
256,192,202034,1,0,0:0:0:0:
256,192,202367,1,0,0:0:0:0:
256,192,202534,1,8,0:0:0:0:
256,192,202700,1,8,0:0:0:0:
256,192,202784,1,8,0:0:0:0:
256,192,202867,1,8,0:0:0:0:
256,192,203034,1,0,0:0:0:0:
256,192,203200,1,0,0:0:0:0:
256,192,203367,1,8,0:0:0:0:
256,192,203450,1,8,0:0:0:0:
256,192,203700,1,0,0:0:0:0:
256,192,204034,1,0,0:0:0:0:
256,192,204117,1,0,0:0:0:0:
256,192,204200,1,8,0:0:0:0:
256,192,204367,1,0,0:0:0:0:
256,192,204617,1,8,0:0:0:0:
256,192,205117,1,12,0:0:0:0:
256,192,205367,1,12,0:0:0:0:
256,192,205617,1,0,0:0:0:0:
256,192,205867,1,0,0:0:0:0:
256,192,206034,1,8,0:0:0:0:
256,192,206284,1,8,0:0:0:0:
256,192,206534,1,0,0:0:0:0:
256,192,206700,1,8,0:0:0:0:
256,192,206950,1,8,0:0:0:0:
256,192,207200,1,0,0:0:0:0:
256,192,207367,1,8,0:0:0:0:
256,192,207617,1,0,0:0:0:0:
256,192,207867,1,8,0:0:0:0:
256,192,208034,1,0,0:0:0:0:
256,192,208284,1,0,0:0:0:0:
256,192,208534,1,8,0:0:0:0:
256,192,208700,1,0,0:0:0:0:
256,192,209034,1,0,0:0:0:0:
256,192,209117,1,0,0:0:0:0:
256,192,209200,1,0,0:0:0:0:
256,192,209367,1,8,0:0:0:0:
256,192,209534,1,0,0:0:0:0:
256,192,209700,1,8,0:0:0:0:
256,192,209784,1,8,0:0:0:0:
256,192,209867,1,8,0:0:0:0:
256,192,210034,1,0,0:0:0:0:
256,192,210200,1,0,0:0:0:0:
256,192,210367,1,8,0:0:0:0:
256,192,210478,1,8,0:0:0:0:
256,192,210589,1,8,0:0:0:0:
256,192,210700,1,8,0:0:0:0:
256,192,211200,1,0,0:0:0:0:
256,192,211367,1,8,0:0:0:0:
256,192,211617,1,8,0:0:0:0:
256,192,211867,1,0,0:0:0:0:
256,192,212034,1,8,0:0:0:0:
256,192,212284,1,8,0:0:0:0:
256,192,212534,1,8,0:0:0:0:
256,192,212784,1,8,0:0:0:0:
256,192,213034,1,0,0:0:0:0:
256,192,213200,1,0,0:0:0:0:
256,192,213367,1,8,0:0:0:0:
256,192,213700,1,0,0:0:0:0:
256,192,213867,1,8,0:0:0:0:
256,192,213950,1,8,0:0:0:0:
256,192,214034,1,8,0:0:0:0:
256,192,214367,1,8,0:0:0:0:
256,192,214534,1,0,0:0:0:0:
256,192,214617,1,0,0:0:0:0:
256,192,214700,1,0,0:0:0:0:
256,192,215367,1,8,0:0:0:0:
256,192,215478,1,8,0:0:0:0:
256,192,215589,1,8,0:0:0:0:
256,192,215700,1,8,0:0:0:0:
256,192,216034,1,4,0:0:0:0:
256,160,216367,1,8,0:0:0:0:
256,192,216617,1,0,0:0:0:0:
256,192,216784,1,0,0:0:0:0:
256,192,216950,1,8,0:0:0:0:
256,160,217200,1,8,0:0:0:0:
256,160,217367,1,0,0:0:0:0:
256,192,217700,1,0,0:0:0:0:
256,192,217950,1,8,0:0:0:0:
256,192,218117,1,8,0:0:0:0:
256,192,218284,1,8,0:0:0:0:
256,192,218534,1,0,0:0:0:0:
256,192,218700,1,8,0:0:0:0:
256,192,218867,1,8,0:0:0:0:
256,192,219034,1,0,0:0:0:0:
256,192,219117,1,0,0:0:0:0:
256,192,219200,1,0,0:0:0:0:
256,192,219367,1,8,0:0:0:0:
256,192,219617,1,0,0:0:0:0:
256,192,219867,1,12,0:0:0:0:
256,192,220367,1,0,0:0:0:0:
256,192,220700,1,8,0:0:0:0:
256,192,220867,1,8,0:0:0:0:
256,192,220950,1,8,0:0:0:0:
256,192,221034,1,8,0:0:0:0:
256,192,221200,1,0,0:0:0:0:
256,192,221367,1,12,0:0:0:0:
256,192,221700,1,0,0:0:0:0:
256,192,222034,1,8,0:0:0:0:
256,192,222284,1,8,0:0:0:0:
256,192,222534,1,0,0:0:0:0:
256,192,222700,1,8,0:0:0:0:
256,192,223034,1,0,0:0:0:0:
256,192,223200,1,8,0:0:0:0:
256,192,223284,1,8,0:0:0:0:
256,192,223367,1,8,0:0:0:0:
256,192,223700,1,0,0:0:0:0:
256,192,223784,1,0,0:0:0:0:
256,192,223867,1,0,0:0:0:0:
256,192,224034,1,12,0:0:0:0:
256,192,224367,1,0,0:0:0:0:
256,192,224700,1,8,0:0:0:0:
256,192,224950,1,8,0:0:0:0:
256,192,225200,1,0,0:0:0:0:
256,192,225367,1,8,0:0:0:0:
256,192,225617,1,0,0:0:0:0:
256,192,225867,1,0,0:0:0:0:
256,192,226034,1,8,0:0:0:0:
256,192,226367,1,0,0:0:0:0:
256,192,226450,1,0,0:0:0:0:
256,192,226534,1,0,0:0:0:0:
256,192,226700,1,12,0:0:0:0:
256,192,227034,1,8,0:0:0:0:
256,192,227200,1,0,0:0:0:0:
256,192,227367,1,8,0:0:0:0:
256,192,227867,1,0,0:0:0:0:
256,192,228034,1,8,0:0:0:0:
256,192,228200,1,0,0:0:0:0:
256,192,228367,1,8,0:0:0:0:
256,192,228450,1,8,0:0:0:0:
256,192,228700,1,0,0:0:0:0:
256,192,229034,1,8,0:0:0:0:
256,192,229200,1,0,0:0:0:0:
256,192,229284,1,0,0:0:0:0:
256,192,229367,1,0,0:0:0:0:
256,192,229700,1,8,0:0:0:0:
256,192,229867,1,0,0:0:0:0:
256,192,229950,1,0,0:0:0:0:
256,192,230034,1,0,0:0:0:0:
256,192,230367,1,0,0:0:0:0:
256,192,230534,1,0,0:0:0:0:
256,192,230700,1,8,0:0:0:0:
256,192,230867,1,0,0:0:0:0:
256,192,231034,1,8,0:0:0:0:
256,192,231200,1,8,0:0:0:0:
256,192,231367,1,0,0:0:0:0:
256,192,231450,1,0,0:0:0:0:
256,192,231534,1,0,0:0:0:0:
256,192,231700,1,8,0:0:0:0:
256,192,231784,1,8,0:0:0:0:
256,192,231867,1,8,0:0:0:0:
256,192,232034,1,4,0:0:0:0:
256,192,232367,1,8,0:0:0:0:
256,192,232534,1,0,0:0:0:0:
256,192,232700,1,8,0:0:0:0:
256,192,233200,1,0,0:0:0:0:
256,192,233367,1,8,0:0:0:0:
256,192,233534,1,0,0:0:0:0:
256,192,233700,1,8,0:0:0:0:
256,192,233784,1,8,0:0:0:0:
256,192,234034,1,0,0:0:0:0:
256,192,234367,1,0,0:0:0:0:
256,192,234534,1,8,0:0:0:0:
256,192,234700,1,8,0:0:0:0:
256,192,234784,1,8,0:0:0:0:
256,192,234867,1,8,0:0:0:0:
256,192,235034,1,0,0:0:0:0:
256,192,235200,1,0,0:0:0:0:
256,192,235367,1,8,0:0:0:0:
256,192,235450,1,8,0:0:0:0:
256,192,235700,1,0,0:0:0:0:
256,192,236034,1,0,0:0:0:0:
256,192,236117,1,0,0:0:0:0:
256,192,236200,1,8,0:0:0:0:
256,192,236367,1,0,0:0:0:0:
256,192,236617,1,8,0:0:0:0:
256,192,237117,1,4,0:0:0:0:
256,192,237367,1,12,0:0:0:0:
256,192,237700,1,8,0:0:0:0:
256,192,237867,1,0,0:0:0:0:
256,192,238034,1,8,0:0:0:0:
256,192,238367,1,0,0:0:0:0:
256,192,238533,1,8,0:0:0:0:
256,192,238700,1,8,0:0:0:0:
256,192,238867,1,0,0:0:0:0:
256,192,239034,1,8,0:0:0:0:
256,192,239117,1,8,0:0:0:0:
256,192,239283,1,0,0:0:0:0:
256,192,239367,1,0,0:0:0:0:
256,192,239700,1,8,0:0:0:0:
256,192,239784,1,8,0:0:0:0:
256,192,239867,1,8,0:0:0:0:
256,192,240034,1,0,0:0:0:0:
256,192,240200,1,0,0:0:0:0:
256,192,240367,1,8,0:0:0:0:
256,192,240617,1,0,0:0:0:0:
256,192,240700,1,0,0:0:0:0:
256,192,240950,1,8,0:0:0:0:
256,192,241034,1,8,0:0:0:0:
256,192,241367,1,12,0:0:0:0:
256,192,241534,1,12,0:0:0:0:
256,192,241700,1,12,0:0:0:0:
256,192,241867,1,4,0:0:0:0:
256,192,242034,1,12,0:0:0:0:
256,192,242367,1,4,0:0:0:0:
256,192,242700,1,12,0:0:0:0:
256,192,243034,1,0,0:0:0:0:
256,192,243201,1,8,0:0:0:0:
256,192,243367,1,8,0:0:0:0:
256,192,243867,1,0,0:0:0:0:
256,192,244034,1,8,0:0:0:0:
256,192,244200,1,0,0:0:0:0:
256,192,244367,1,8,0:0:0:0:
256,192,244450,1,8,0:0:0:0:
256,192,244617,1,0,0:0:0:0:
256,192,244700,1,0,0:0:0:0:
256,192,245034,1,0,0:0:0:0:
256,192,245200,1,8,0:0:0:0:
256,192,245367,1,8,0:0:0:0:
256,192,245534,1,0,0:0:0:0:
256,192,245700,1,8,0:0:0:0:
256,192,245867,1,0,0:0:0:0:
256,192,246034,1,8,0:0:0:0:
256,192,246117,1,8,0:0:0:0:
256,192,246367,1,0,0:0:0:0:
256,192,246700,1,0,0:0:0:0:
256,192,246784,1,0,0:0:0:0:
256,192,246867,1,8,0:0:0:0:
256,192,247034,1,0,0:0:0:0:
256,192,247284,1,8,0:0:0:0:
256,192,248033,1,8,0:0:0:0:
256,192,248200,1,8,0:0:0:0:
256,192,248367,1,0,0:0:0:0:
256,192,248533,1,0,0:0:0:0:
256,192,248700,1,8,0:0:0:0:
256,192,248783,1,8,0:0:0:0:
256,192,249033,1,0,0:0:0:0:
256,192,249367,1,0,0:0:0:0:
256,192,249450,1,0,0:0:0:0:
256,192,249533,1,8,0:0:0:0:
256,192,249700,1,0,0:0:0:0:
256,192,250033,1,0,0:0:0:0:
256,192,250367,1,0,0:0:0:0:
256,192,250700,1,12,0:0:0:0:
256,192,250867,1,0,0:0:0:0:
256,192,251033,1,8,0:0:0:0:
256,192,251117,1,8,0:0:0:0:
256,192,251200,1,8,0:0:0:0:
256,192,251367,1,0,0:0:0:0:
256,192,251533,1,0,0:0:0:0:
256,192,251700,1,8,0:0:0:0:
256,192,251783,1,8,0:0:0:0:
256,192,251867,1,8,0:0:0:0:
256,192,252033,1,0,0:0:0:0:
256,192,252200,1,8,0:0:0:0:
256,192,252283,1,8,0:0:0:0:
256,192,252367,1,8,0:0:0:0:
256,192,252617,1,12,0:0:0:0:
