osu file format v14

[General]
AudioFilename: audio.mp3
AudioLeadIn: 0
PreviewTime: 2022
Countdown: 0
SampleSet: Drum
StackLeniency: 0.2
Mode: 0
LetterboxInBreaks: 0
WidescreenStoryboard: 0

[Editor]
Bookmarks: 66022
DistanceSpacing: 1.6
BeatDivisor: 4
GridSize: 32
TimelineZoom: 3.499998

[Metadata]
Title:Playing With Ruby
TitleUnicode:ルビーと遊ぶ
Artist:NIWASHI
ArtistUnicode:庭師
Creator:CallieCube
Version:Fortississimo
Source:
Tags:Jazz Instrumental Blues Piano Morrighan Latin Fusion Progressive Rock Blues rubi to asobu badgraph rubii ObamaCube
BeatmapID:2458212
BeatmapSetID:1178229

[Difficulty]
HPDrainRate:5
CircleSize:3.5
OverallDifficulty:8.5
ApproachRate:9.7
SliderMultiplier:2
SliderTickRate:1

[Events]
//Background and Video events
0,0,"Anime Casino.png",0,0
//Break Periods
2,167555,169468
//Storyboard Layer 0 (Background)
//Storyboard Layer 1 (Fail)
//Storyboard Layer 2 (Pass)
//Storyboard Layer 3 (Foreground)
//Storyboard Layer 4 (Overlay)
//Storyboard Sound Samples

[TimingPoints]
689,333.333333333333,4,3,1,80,1,0
1855,-66.6666666666667,4,3,1,100,0,0
3355,-66.6666666666667,4,3,1,70,0,0
5939,-100,4,3,1,75,0,0
12689,-100,4,3,1,60,0,0
12939,-200,4,3,1,60,0,0
16605,-80,4,3,1,60,0,0
18272,-200,4,3,1,60,0,0
20800,-200,4,3,1,80,0,0
23189,-100,4,3,1,50,0,0
23355,-80,4,3,1,60,0,0
27355,-133.333333333333,4,3,1,60,0,0
27522,-100,4,3,1,60,0,0
27689,-66.6666666666667,4,3,1,60,0,0
28022,-200,4,3,1,60,0,0
28689,-80,4,3,1,60,0,0
34022,-66.6666666666667,4,3,1,75,0,1
38022,-100,4,3,1,75,0,1
38189,-80,4,3,1,75,0,1
38355,-57.1428571428571,4,3,1,75,0,1
38689,-80,4,3,1,75,0,1
39105,-80,4,3,2,75,0,1
39189,-80,4,3,1,75,0,1
39355,-66.6666666666667,4,3,1,75,0,1
44105,-66.6666666666667,4,3,1,80,0,0
44939,-57.1428571428571,4,3,1,70,0,0
55355,-57.1428571428571,4,3,1,65,0,0
55689,-200,4,3,1,65,0,0
56272,-133.333333333333,4,3,1,65,0,0
57605,-100,4,3,1,65,0,0
58189,-80,4,3,1,65,0,0
59189,-80,4,3,1,80,0,0
60022,-66.6666666666667,4,3,1,75,0,0
60688,-66.6666666666667,4,3,1,65,0,0
63355,-66.6666666666667,4,3,1,75,0,0
66022,-66.6666666666667,4,3,1,75,0,1
70022,-100,4,3,1,75,0,1
70189,-80,4,3,1,75,0,1
70355,-57.1428571428571,4,3,1,75,0,1
81689,-33.3333333333333,4,3,1,80,0,1
82189,-57.1428571428571,4,3,1,75,0,1
86772,-57.1428571428571,4,3,1,80,0,0
87522,-100,4,3,1,80,0,0
92022,-100,4,3,2,80,0,0
92355,-100,4,3,1,80,0,0
92911,-100,4,3,1,60,0,0
95355,-200,4,3,1,60,0,0
96689,-100,4,3,1,60,0,0
100022,-66.6666666666667,4,3,1,60,0,0
100689,-133.333333333333,4,3,1,60,0,0
101577,-100,4,3,1,60,0,0
104689,-66.6666666666667,4,3,1,60,0,0
111355,-100,4,3,1,60,0,0
113355,-133.333333333333,4,3,1,60,0,0
113522,-80,4,3,1,60,0,0
113855,-66.6666666666667,4,3,1,60,0,0
114077,-100,4,3,1,60,0,0
114300,-66.6666666666667,4,3,1,60,0,0
115355,-80,4,3,1,60,0,0
115689,-57.1428571428571,4,3,1,60,0,0
118689,-66.6666666666667,4,3,1,60,0,0
120605,-200,4,3,1,60,0,0
121022,-66.6666666666667,4,3,1,60,0,0
125244,-133.333333333333,4,3,1,60,0,0
125411,-100,4,3,1,60,0,0
132855,-200,4,3,1,60,0,0
137022,-100,4,3,1,60,0,0
138022,-50,4,3,1,70,0,0
144689,-100,4,3,1,70,0,0
145355,-66.6666666666667,4,3,1,70,0,0
148689,-50,4,3,1,70,0,0
158022,-66.6666666666667,4,3,1,70,0,0
158689,-50,4,3,1,70,0,0
159272,-50,4,3,1,5,0,0
159355,-50,4,3,1,80,0,0
164911,-133.333333333333,4,3,1,80,0,0
180105,-250,4,3,1,80,0,0
180355,-200,4,3,1,80,0,0
180605,-166.666666666667,4,3,1,80,0,0
180855,-142.857142857143,4,3,1,80,0,0
181105,-125,4,3,1,80,0,0
181355,-111.111111111111,4,3,1,80,0,0
181605,-100,4,3,1,80,0,0
181855,-90.9090909090909,4,3,1,80,0,0
184022,333.333333333333,4,3,1,80,1,0
184022,-66.6666666666667,4,3,1,80,0,0
188022,-80,4,3,1,80,0,0
188188,-66.6666666666667,4,3,1,80,0,0
188355,-50,4,3,1,80,0,0
188688,-66.6666666666667,4,3,1,80,0,0
194688,-66.6666666666667,4,3,1,80,0,1
198688,-80,4,3,1,80,0,1
198855,-66.6666666666667,4,3,1,80,0,1
199022,-50,4,3,1,80,0,1
199355,-66.6666666666667,4,3,1,80,0,1
199772,-66.6666666666667,4,3,2,80,0,1
200022,-66.6666666666667,4,3,1,80,0,1
204771,-66.6666666666667,4,3,1,80,0,0
205605,-50,4,3,1,80,0,0
216355,-133.333333333333,4,3,1,80,0,0
216938,-100,4,3,1,80,0,0
218272,-66.6666666666667,4,3,1,80,0,0
218855,-80,4,3,1,80,0,0
220688,-66.6666666666667,4,3,1,80,0,0
224688,-66.6666666666667,4,3,2,80,0,0
224938,-66.6666666666667,4,3,1,80,0,0
226688,-57.1428571428571,4,3,1,80,0,1
230688,-100,4,3,1,80,0,1
230855,-66.6666666666667,4,3,1,80,0,1
231022,-50,4,3,1,80,0,1
232022,-57.1428571428571,4,3,1,80,0,1
237355,-50,4,3,1,80,0,1
242355,-25,4,3,1,80,0,1
242688,-40,4,3,1,80,0,1
247438,-40,4,3,1,70,0,0
248772,-100,4,3,1,70,0,0
250105,-100,4,3,1,80,0,0
250688,-100,4,3,1,90,0,1
250938,-50,4,3,1,90,0,1
252605,-50,4,3,1,100,0,0

[Colours]
Combo1 : 0,81,0
Combo2 : 176,0,0
Combo3 : 0,0,166

[HitObjects]
74,74,689,5,10,3:2:0:0:
242,111,772,2,0,L|193:107,1,50,2|2,3:2|2:0,3:0:0:0:
64,159,939,5,10,3:2:0:0:
220,192,1022,2,0,L|167:185,1,50,10|2,3:2|3:2,3:0:0:0:
101,283,1189,2,0,L|105:233,1,50,10|2,3:2|3:2,3:0:0:0:
123,72,1355,5,10,3:2:0:0:
166,33,1439,1,2,3:2:0:0:
225,35,1522,1,10,3:2:0:0:
265,78,1605,1,2,3:2:0:0:
265,136,1689,2,0,P|253:157|227:177,1,50,2|10,3:2|3:2,3:0:0:0:
0,150,1855,2,0,P|37:150|72:163,1,75,10|10,3:2|3:2,3:0:0:0:
236,275,2022,5,14,3:2:0:0:
437,130,3355,5,4,3:0:0:0:
186,52,4689,5,4,3:0:0:0:
442,345,5939,6,0,L|435:273,1,50,6|0,3:2|2:0,3:0:0:0:
432,245,6105,1,2,2:0:0:0:
427,195,6189,2,0,B|418:81|418:81|377:62,1,150,2|2,2:0|2:0,3:0:0:0:
268,222,6522,1,2,2:0:0:0:
292,219,6605,1,10,2:0:0:0:
317,217,6689,5,2,3:2:0:0:
306,156,6772,1,2,2:0:0:0:
257,120,6855,1,2,2:0:0:0:
198,131,6939,1,2,2:0:0:0:
164,180,7022,1,2,3:2:0:0:
173,238,7105,1,10,2:0:0:0:
182,296,7189,1,2,2:0:0:0:
191,354,7272,1,2,2:0:0:0:
104,285,7355,5,6,3:2:0:0:
308,259,8689,5,4,3:0:0:0:
69,176,10022,5,4,3:0:0:0:
240,114,11272,6,0,B|350:108|350:108|378:143,1,150,6|0,3:2|3:0,3:0:0:0:
230,233,11689,2,0,L|232:201,1,25,10|10,2:0|2:0,3:0:0:0:
250,7,11855,1,2,3:2:0:0:
98,126,12022,5,10,3:2:0:0:
334,209,12355,5,10,3:2:0:0:
144,372,12689,5,6,3:2:0:0:
147,359,12772,1,2,2:0:0:0:
150,347,12855,1,2,2:0:0:0:
56,276,12939,2,0,P|113:265|139:270,1,75,2|2,2:0|2:0,3:0:0:0:
289,335,13355,6,0,P|265:342|240:340,2,50,10|2|2,3:2|2:0|3:2,3:0:0:0:
227,252,13772,1,2,2:0:0:0:
324,228,13939,1,2,2:0:0:0:
227,252,14022,5,2,3:2:0:0:
224,239,14105,1,2,2:0:0:0:
221,227,14189,1,10,2:0:0:0:
154,120,14272,2,0,B|144:135|144:135|139:198,1,75,2|2,2:0|2:0,3:0:0:0:
117,319,14689,6,0,B|123:308|123:308|126:270,1,50,10|2,3:2|2:0,3:0:0:0:
111,384,14939,2,0,B|117:373|117:373|120:335,1,50,2|2,2:0|2:0,3:0:0:0:
105,30,15272,1,2,2:0:0:0:
154,120,15355,5,2,3:2:0:0:
167,123,15439,1,2,2:0:0:0:
179,126,15522,1,2,2:0:0:0:
281,146,15605,2,0,B|305:173|305:173|298:209,1,75,2|2,2:0|2:0,3:0:0:0:
347,99,16022,6,0,B|330:80|330:80|335:56,1,50,10|2,3:2|2:0,3:0:0:0:
422,63,16355,1,2,3:2:0:0:
387,169,16439,1,2,2:0:0:0:
154,120,16605,6,0,P|122:144|90:227,1,125,6|2,3:2|2:0,3:0:0:0:
86,262,16855,1,10,2:0:0:0:
83,303,16939,1,2,2:0:0:0:
281,117,17105,1,2,2:0:0:0:
278,85,17189,1,2,2:0:0:0:
275,54,17272,1,2,2:0:0:0:
272,22,17355,5,2,3:2:0:0:
210,20,17439,1,2,2:0:0:0:
164,60,17522,1,2,2:0:0:0:
154,120,17605,1,2,2:0:0:0:
187,172,17689,1,2,3:2:0:0:
220,224,17772,1,2,2:0:0:0:
210,284,17855,1,2,2:0:0:0:
164,324,17939,1,2,2:0:0:0:
253,365,18022,5,6,3:2:0:0:
266,363,18105,1,2,2:0:0:0:
278,362,18189,1,2,2:0:0:0:
405,296,18272,2,0,P|365:308|324:284,1,75,2|2,2:0|3:2,3:0:0:0:
410,195,18689,6,0,P|434:204|457:195,2,50,10|2|2,2:0|2:0|3:2,3:0:0:0:
317,153,19105,1,2,2:0:0:0:
262,230,19272,1,2,2:0:0:0:
317,153,19355,5,2,3:2:0:0:
319,140,19439,1,2,2:0:0:0:
320,128,19522,1,10,2:0:0:0:
389,70,19605,6,0,B|405:62|405:62|457:85,1,75,2|2,2:0|2:0,3:0:0:0:
189,81,20022,6,0,B|178:76|178:76|143:91,1,50,10|2,3:2|2:0,3:0:0:0:
254,63,20272,2,0,B|243:58|243:58|208:73,1,50,2|2,2:0|2:0,3:0:0:0:
205,336,20605,1,2,2:0:0:0:
496,152,20800,5,10,3:2:0:0:
414,169,20911,1,2,3:2:0:0:
333,187,21022,1,2,3:2:0:0:
261,257,21133,5,2,3:2:0:0:
327,270,21244,1,2,3:2:0:0:
392,285,21355,1,2,3:2:0:0:
425,357,21466,5,2,3:2:0:0:
372,367,21577,1,2,3:2:0:0:
320,379,21689,1,2,3:2:0:0:
323,295,21800,1,2,3:2:0:0:
326,211,21911,1,2,3:2:0:0:
115,102,22133,5,10,3:2:0:0:
214,93,22244,1,10,3:2:0:0:
157,11,22355,1,10,3:2:0:0:
390,178,22577,5,10,3:2:0:0:
187,362,22800,5,10,3:2:0:0:
130,281,22911,1,10,3:2:0:0:
230,272,23022,1,10,3:2:0:0:
19,171,23189,6,0,L|82:176,1,50,2|2,2:0|2:0,3:0:0:0:
287,196,23355,2,0,P|318:199|346:210,1,62.5,6|0,3:2|2:0,3:0:0:0:
402,269,23522,2,0,P|415:239|434:216,1,62.5,2|0,2:0|2:0,3:0:0:0:
508,181,23689,2,0,P|484:159|468:134,1,62.5,2|0,3:2|2:0,3:0:0:0:
456,54,23855,2,0,P|428:69|399:77,1,62.5,2|0,2:0|2:0,3:0:0:0:
300,356,24022,2,0,L|317:146,1,187.5,2|0,3:2|3:0,3:0:0:0:
323,92,24355,1,2,2:0:0:0:
310,373,24522,1,2,2:0:0:0:
147,150,24689,6,0,P|195:162|210:180,1,62.5,2|0,3:2|2:0,3:0:0:0:
182,307,24855,1,2,2:0:0:0:
209,308,24939,1,2,2:0:0:0:
183,320,25022,1,2,3:2:0:0:
210,321,25105,1,0,2:0:0:0:
60,120,25272,2,0,L|63:75,1,31.25,2|2,2:0|2:0,3:0:0:0:
65,66,25355,2,0,P|140:57|246:88,1,187.5,2|0,3:2|3:0,3:0:0:0:
242,0,25689,5,2,3:2:0:0:
94,220,25855,2,0,L|91:251,2,31.25,2|2|2,3:2|2:0|3:2,3:0:0:0:
103,272,26022,1,2,3:2:0:0:
242,0,26355,5,2,3:2:0:0:
275,188,26522,2,0,L|272:219,2,31.25,2|2|2,2:0|2:0|3:2,3:0:0:0:
284,240,26689,1,2,3:2:0:0:
370,384,27022,5,2,3:2:0:0:
422,305,27189,1,2,2:0:0:0:
418,200,27355,2,0,P|441:187|460:185,1,37.5000000000001,2|0,3:2|3:0,3:0:0:0:
360,119,27522,2,0,P|389:93|421:87,1,50,2|0,2:0|3:0,3:0:0:0:
269,68,27689,2,0,P|286:34|320:4,1,75,2|0,3:2|2:0,3:0:0:0:
422,305,27855,6,0,P|375:296|339:268,1,75,2|0,2:0|3:0,3:0:0:0:
370,384,28022,2,0,P|316:360|277:328,1,100,2|0,3:2|3:0,3:0:0:0:
71,241,28522,5,2,3:2:0:0:
102,220,28605,1,2,2:0:0:0:
138,211,28689,2,0,P|196:220|210:229,1,62.5,6|0,3:2|2:0,3:0:0:0:
267,275,28855,2,0,P|302:229|317:221,1,62.5,2|0,2:0|3:0,3:0:0:0:
386,195,29022,2,0,P|364:140|365:124,1,62.5,2|0,3:2|2:0,3:0:0:0:
376,51,29189,2,0,P|318:42|304:33,1,62.5,2|0,2:0|3:0,3:0:0:0:
185,294,29355,2,0,L|220:90,1,187.5,2|0,3:2|3:0,3:0:0:0:
232,23,29689,1,2,3:2:0:0:
193,315,29855,1,2,2:0:0:0:
73,95,30022,6,0,P|104:94|133:107,1,62.5,2|0,3:2|2:0,3:0:0:0:
285,209,30189,1,2,2:0:0:0:
316,213,30272,1,2,2:0:0:0:
287,225,30355,1,2,3:2:0:0:
318,229,30439,1,2,2:0:0:0:
452,88,30605,2,0,L|450:126,1,31.25,2|2,3:2|2:0,3:0:0:0:
448,148,30689,2,0,B|438:295|438:295|388:324,1,187.5,2|0,3:2|3:0,3:0:0:0:
320,337,31022,1,2,3:2:0:0:
278,341,31105,1,2,2:0:0:0:
237,345,31189,1,2,2:0:0:0:
195,349,31272,1,2,3:2:0:0:
119,383,31355,5,2,3:2:0:0:
97,323,31439,1,2,2:0:0:0:
102,263,31522,1,2,2:0:0:0:
132,208,31605,1,2,3:2:0:0:
86,185,31689,5,2,3:2:0:0:
110,141,31772,1,2,2:0:0:0:
114,93,31855,1,2,2:0:0:0:
96,45,31939,1,2,3:2:0:0:
18,114,32022,5,2,3:2:0:0:
4,120,32105,2,0,L|-3:164,1,31.25,2|2,2:0|2:0,3:0:0:0:
205,76,32355,2,0,P|275:108|386:106,1,187.5,2|0,3:2|3:0,3:0:0:0:
476,84,32689,5,2,3:2:0:0:
472,123,32772,1,2,2:0:0:0:
468,163,32855,1,2,2:0:0:0:
464,202,32939,1,2,3:2:0:0:
461,243,33022,1,2,3:2:0:0:
343,223,33189,5,2,2:0:0:0:
354,348,33272,1,6,3:2:0:0:
192,268,33522,6,0,L|236:280,2,41.6666666666667,2|2|2,2:0|2:0|2:0,3:0:0:0:
166,258,33689,2,0,L|125:268,2,41.6666666666667,2|2|2,2:0|2:0|2:0,3:0:0:0:
193,241,33855,2,0,L|233:251,2,41.6666666666667,2|2|2,2:0|2:0|2:0,3:0:0:0:
137,183,34022,6,0,L|143:108,1,75,6|0,3:2|2:0,3:0:0:0:
153,5,34189,1,10,2:0:0:0:
361,49,34355,1,2,3:2:0:0:
346,139,34439,2,0,L|262:152,1,75,8|2,2:0|2:0,3:0:0:0:
219,220,34605,1,8,3:2:0:0:
234,310,34689,2,0,L|318:323,2,75,2|0|0,3:2|2:0|2:0,3:0:0:0:
139,376,34939,1,0,3:0:0:0:
64,384,35022,1,10,3:2:0:0:
429,208,35189,1,2,2:0:0:0:
95,186,35355,6,0,P|136:186|169:201,1,75,2|0,3:2|2:0,3:0:0:0:
346,384,35522,1,2,2:0:0:0:
351,344,35605,1,2,3:2:0:0:
328,320,35689,1,2,3:2:0:0:
333,280,35772,1,2,2:0:0:0:
352,46,35939,2,0,L|380:5,1,37.5,10|2,2:0|2:0,3:0:0:0:
338,58,36022,2,0,B|300:73|300:73|255:77,1,75,2|8,3:2|2:0,3:0:0:0:
439,93,36272,1,0,3:0:0:0:
353,143,36355,2,0,B|321:156|321:156|270:161,1,75,10|0,2:0|2:0,3:0:0:0:
64,115,36522,6,0,L|49:174,2,37.5,2|2|2,2:0|2:0|2:0,3:0:0:0:
86,38,36689,2,0,L|92:120,1,75,2|0,3:2|2:0,3:0:0:0:
57,317,36855,1,0,2:0:0:0:
353,143,37022,2,0,B|321:156|321:156|270:161,1,75,2|0,3:2|3:0,3:0:0:0:
105,210,37189,6,0,L|90:269,2,37.5,2|2|10,2:0|2:0|2:0,3:0:0:0:
127,133,37355,2,0,L|133:215,1,75,2|0,3:2|2:0,3:0:0:0:
459,366,37605,1,0,3:0:0:0:
386,377,37689,5,10,3:2:0:0:
398,264,37855,1,2,2:0:0:0:
341,161,38022,2,0,P|379:165|395:173,1,50,2|0,3:2|2:0,3:0:0:0:
244,103,38189,2,0,P|284:86|331:85,1,62.5,2|0,2:0|3:0,3:0:0:0:
129,84,38355,2,0,P|164:37|221:13,1,87.5000000000001,2|0,3:2|2:0,3:0:0:0:
398,264,38522,1,2,2:0:0:0:
405,323,38605,1,8,2:0:0:0:
386,377,38689,2,0,P|357:382|326:375,1,62.5,2|8,3:2|2:0,3:0:0:0:
232,311,38855,5,8,2:0:0:0:
237,248,38939,1,8,3:0:0:0:
243,186,39022,1,8,3:0:0:0:
204,199,39105,1,8,3:2:0:0:
165,213,39189,1,10,3:2:0:0:
91,199,39272,1,2,3:2:0:0:
55,131,39355,6,0,P|74:100|107:82,1,75,6|0,3:2|2:0,3:0:0:0:
132,11,39522,2,0,P|169:11|201:31,1,75,10|0,2:0|3:0,3:0:0:0:
275,17,39689,2,0,P|292:49|292:87,1,75,2|8,3:2|2:0,3:0:0:0:
200,117,39855,1,2,2:0:0:0:
322,177,39939,2,0,P|362:176|395:164,1,75,8|2,3:2|3:2,3:0:0:0:
427,144,40105,1,0,2:0:0:0:
307,311,40272,1,0,3:0:0:0:
281,325,40355,2,0,L|194:329,1,75,10|0,3:2|3:0,3:0:0:0:
0,213,40522,2,0,L|105:228,1,75,2|0,2:0|3:0,3:0:0:0:
252,204,40689,6,0,P|226:230|184:237,1,75,2|0,3:2|2:0,3:0:0:0:
36,61,40855,1,2,2:0:0:0:
81,67,40939,1,2,3:2:0:0:
108,103,41022,1,2,3:2:0:0:
153,109,41105,1,2,2:0:0:0:
429,144,41272,2,0,L|468:170,1,37.5,10|2,2:0|2:0,3:0:0:0:
417,141,41355,2,0,B|372:139|372:139|325:170,1,75,2|8,3:2|2:0,3:0:0:0:
499,375,41605,5,0,3:0:0:0:
451,303,41689,1,10,2:0:0:0:
401,300,41772,1,2,2:0:0:0:
351,297,41855,1,2,2:0:0:0:
301,294,41939,1,2,2:0:0:0:
219,318,42022,5,2,3:2:0:0:
240,257,42105,1,2,2:0:0:0:
241,193,42189,1,2,2:0:0:0:
222,131,42272,1,2,2:0:0:0:
151,173,42355,5,2,3:2:0:0:
134,120,42439,1,2,3:2:0:0:
135,65,42522,1,2,2:0:0:0:
153,14,42605,1,10,2:0:0:0:
249,4,42689,5,2,3:2:0:0:
287,32,42772,2,0,L|249:26,2,37.5,2|0|0,2:0|3:0|3:0,3:0:0:0:
418,63,42939,1,0,3:0:0:0:
496,171,43022,2,0,B|380:156|380:156|333:119,1,150,10|0,3:2|2:0,3:0:0:0:
107,196,43355,5,2,3:2:0:0:
107,134,43439,1,2,2:0:0:0:
164,116,43522,1,2,2:0:0:0:
200,165,43605,1,10,3:2:0:0:
164,214,43689,1,10,3:2:0:0:
363,326,43855,5,2,2:0:0:0:
244,234,43939,1,14,2:0:0:0:
465,378,44105,5,2,2:0:0:0:
484,328,44189,1,10,2:0:0:0:
459,277,44272,1,10,2:0:0:0:
489,219,44355,1,10,2:0:0:0:
462,163,44439,1,14,3:2:0:0:
484,106,44522,1,10,2:0:0:0:
460,49,44605,2,0,L|379:67,1,75,10|14,2:0|3:2,3:0:0:0:
57,74,44939,6,0,B|148:63|148:63|244:78,1,175,2|0,2:0|2:0,3:0:0:0:
0,137,45189,1,2,2:0:0:0:
103,273,45355,2,0,L|130:179,1,87.5000000000001,2|8,3:2|2:0,3:0:0:0:
141,351,45522,1,0,3:0:0:0:
193,282,45605,2,0,L|220:188,1,87.5000000000001,2|8,2:0|2:0,3:0:0:0:
43,335,45855,1,2,2:0:0:0:
381,272,46022,5,2,3:2:0:0:
312,264,46105,1,8,2:0:0:0:
249,239,46189,1,0,2:0:0:0:
195,198,46272,2,0,L|226:-2,1,175,2|0,2:0|2:0,3:0:0:0:
178,293,46522,1,2,3:2:0:0:
121,76,46689,2,0,L|90:276,1,175,2|0,3:2|3:0,3:0:0:0:
69,162,46939,2,0,L|38:362,1,175,2|0,2:0|2:0,3:0:0:0:
25,75,47189,1,2,2:0:0:0:
404,231,47355,6,0,P|333:275|223:277,1,175,2|0,3:2|2:0,3:0:0:0:
301,316,47605,2,0,P|217:311|126:249,1,175,2|0,2:0|2:0,3:0:0:0:
208,129,47855,1,2,2:0:0:0:
234,115,47939,1,0,3:0:0:0:
262,102,48022,1,2,3:2:0:0:
278,132,48105,1,8,3:2:0:0:
288,164,48189,1,0,2:0:0:0:
282,207,48272,1,0,3:0:0:0:
260,233,48355,5,10,3:2:0:0:
197,214,48439,1,2,2:0:0:0:
134,195,48522,1,2,2:0:0:0:
71,176,48605,1,2,2:0:0:0:
8,157,48689,1,2,3:2:0:0:
29,103,48772,1,10,2:0:0:0:
75,71,48855,1,2,2:0:0:0:
134,73,48939,1,2,2:0:0:0:
225,112,49022,1,10,2:0:0:0:
271,130,49105,1,2,2:0:0:0:
321,120,49189,1,2,2:0:0:0:
357,82,49272,1,10,2:0:0:0:
428,0,49355,5,2,3:2:0:0:
426,14,49439,1,10,2:0:0:0:
425,29,49522,1,2,3:2:0:0:
423,43,49605,1,2,2:0:0:0:
442,123,49689,5,10,2:0:0:0:
432,196,49800,5,2,2:0:0:0:
422,271,49911,5,2,2:0:0:0:
326,126,50022,5,6,3:2:0:0:
117,287,50272,2,0,L|291:302,1,175,2|0,2:0|2:0,3:0:0:0:
40,274,50522,1,2,3:2:0:0:
310,117,50689,2,0,L|291:15,1,87.5000000000001,2|8,3:2|2:0,3:0:0:0:
346,205,50855,1,0,3:0:0:0:
408,140,50939,2,0,L|389:38,1,87.5000000000001,2|8,2:0|2:0,3:0:0:0:
246,184,51189,1,2,3:2:0:0:
468,277,51355,6,0,P|411:341|326:350,1,175,2|0,3:2|2:0,3:0:0:0:
395,366,51605,2,0,P|309:371|243:317,1,175,2|0,2:0|2:0,3:0:0:0:
280,377,51855,2,0,P|215:320|206:235,1,175,2|0,2:0|3:0,3:0:0:0:
190,303,52105,2,0,P|184:217|238:151,1,175,2|0,2:0|2:0,3:0:0:0:
310,255,52355,1,2,2:0:0:0:
15,120,52522,1,2,2:0:0:0:
328,140,52689,2,0,L|423:143,2,87.5000000000001,2|8|0,3:2|2:0|2:0,3:0:0:0:
132,103,53022,5,8,2:0:0:0:
154,89,53105,1,0,2:0:0:0:
181,80,53189,1,2,2:0:0:0:
192,144,53272,1,2,3:2:0:0:
203,209,53355,1,2,3:2:0:0:
402,267,53522,5,0,3:0:0:0:
385,244,53605,1,0,2:0:0:0:
368,224,53689,1,8,2:0:0:0:
346,210,53772,1,0,2:0:0:0:
319,201,53855,1,2,2:0:0:0:
309,275,53939,1,2,2:0:0:0:
300,350,54022,1,2,3:2:0:0:
80,308,54189,6,0,L|168:284,1,87.5000000000001,0|0,2:0|3:0,3:0:0:0:
24,238,54355,1,8,2:0:0:0:
103,214,54439,2,0,L|191:190,1,87.5000000000001,0|0,3:0|2:0,3:0:0:0:
417,32,54689,5,2,3:2:0:0:
367,96,54800,5,2,2:0:0:0:
412,157,54911,5,2,3:2:0:0:
387,225,55022,5,10,2:0:0:0:
423,277,55133,5,2,3:2:0:0:
401,329,55244,5,2,3:2:0:0:
415,368,55355,5,14,3:2:0:0:
310,364,55522,1,0,2:0:0:0:
283,211,55689,2,0,L|274:161,1,50,10|2,2:0|2:0,3:0:0:0:
209,310,55939,5,2,3:2:0:0:
366,304,56105,1,2,2:0:0:0:
407,74,56272,2,0,L|420:0,1,75.0000000000002,2|2,2:0|2:0,3:0:0:0:
483,106,56522,5,2,2:0:0:0:
493,161,56605,1,2,2:0:0:0:
504,216,56689,1,2,3:2:0:0:
355,230,56855,1,2,2:0:0:0:
155,120,57022,2,0,L|258:139,1,75.0000000000002,2|2,2:0|2:0,3:0:0:0:
38,173,57272,5,2,3:2:0:0:
233,208,57439,1,2,2:0:0:0:
512,86,57605,2,0,L|373:99,1,100,2|0,2:0|2:0,3:0:0:0:
307,109,57855,1,2,2:0:0:0:
289,354,58022,1,2,3:2:0:0:
233,22,58189,6,0,L|280:33,2,31.25,2|2|2,2:0|2:0|2:0,3:0:0:0:
203,31,58355,1,10,3:2:0:0:
167,246,58522,1,2,2:0:0:0:
383,284,58689,1,10,2:0:0:0:
421,68,58939,1,2,2:0:0:0:
171,121,59189,5,6,3:2:0:0:
155,140,59244,2,0,L|196:135,12,41.6666666666667,2|2|2|2|2|2|2|10|2|2|2|2|2,2:0|2:0|2:0|2:0|2:0|2:0|2:0|2:0|3:2|2:0|2:0|2:0|2:0,3:0:0:0:
270,218,60022,6,0,P|301:172|307:118,1,75,10|0,2:0|3:0,3:0:0:0:
90,58,60189,2,0,P|58:103|52:157,1,75,10|0,2:0|3:0,3:0:0:0:
62,253,60355,1,10,2:0:0:0:
66,302,60439,1,8,2:0:0:0:
70,352,60522,2,0,B|105:371|105:371|225:361,1,150,2|4,2:0|3:2,3:0:0:0:
434,310,60855,5,0,2:0:0:0:
159,280,61022,2,0,B|252:271|252:271|306:293,1,150,2|0,3:2|2:0,3:0:0:0:
467,206,61355,2,0,B|374:215|374:215|320:193,1,150,2|0,3:2|2:0,3:0:0:0:
234,149,61605,2,0,P|278:108|376:113,1,150,2|0,2:0|2:0,3:0:0:0:
365,362,61855,1,2,2:0:0:0:
116,193,62022,6,0,P|111:119|149:55,2,150,2|0|2,3:2|2:0|3:2,3:0:0:0:
316,250,62522,5,2,2:0:0:0:
339,220,62605,1,2,2:0:0:0:
353,186,62689,2,0,P|320:167|260:169,1,75,2|0,3:2|2:0,3:0:0:0:
106,384,62939,1,2,3:2:0:0:
46,285,63022,2,0,L|-10:306,2,50,10|10|2,2:0|2:0|2:0,3:0:0:0:
155,243,63189,2,0,L|211:264,2,50,10|10|10,2:0|2:0|2:0,3:0:0:0:
47,132,63355,6,0,B|83:102|83:102|194:109,1,150,14|8,3:2|2:0,3:0:0:0:
346,358,63689,1,2,3:2:0:0:
309,318,63772,2,0,P|299:254|304:235,1,75,8|0,2:0|3:0,3:0:0:0:
512,99,64022,2,0,P|449:139|375:150,1,150,10|0,3:2|3:0,3:0:0:0:
326,150,64272,1,10,2:0:0:0:
279,133,64355,1,0,3:0:0:0:
511,17,64522,1,10,2:0:0:0:
454,299,64689,5,10,3:2:0:0:
86,68,64939,5,10,3:2:0:0:
378,52,65189,5,10,3:2:0:0:
301,278,65355,5,10,2:0:0:0:
237,65,65522,1,8,2:0:0:0:
329,185,65689,1,0,3:0:0:0:
282,187,65772,1,0,3:0:0:0:
235,189,65855,1,8,2:0:0:0:
188,191,65939,1,8,2:0:0:0:
141,193,66022,6,0,P|92:210|60:257,1,75,6|0,3:2|2:0,3:0:0:0:
81,367,66189,1,10,2:0:0:0:
415,270,66355,1,2,3:2:0:0:
352,312,66439,2,0,L|243:317,1,75,8|2,2:0|2:0,3:0:0:0:
187,176,66605,1,8,2:0:0:0:
252,217,66689,2,0,L|361:222,1,75,2|0,3:2|2:0,3:0:0:0:
458,65,66855,1,0,2:0:0:0:
387,113,66939,2,0,L|278:118,1,75,8|2,2:0|3:2,3:0:0:0:
60,83,67189,1,10,2:0:0:0:
179,358,67355,6,0,P|200:316|201:277,1,75,2|0,3:2|2:0,3:0:0:0:
190,112,67522,1,10,2:0:0:0:
166,66,67605,1,2,3:2:0:0:
136,108,67689,1,2,3:2:0:0:
160,154,67772,1,2,2:0:0:0:
468,160,67939,2,0,L|476:104,1,37.5,10|2,2:0|2:0,3:0:0:0:
453,236,68022,2,0,B|442:282|442:282|399:314,1,75,2|8,3:2|2:0,3:0:0:0:
491,40,68272,1,8,2:0:0:0:
403,39,68355,2,0,B|368:43|368:43|345:76,1,75,2|0,3:2|2:0,3:0:0:0:
245,263,68522,6,0,L|192:266,2,37.5,2|2|2,2:0|2:0|2:0,3:0:0:0:
345,290,68689,2,0,L|253:280,1,75,2|0,3:2|2:0,3:0:0:0:
121,259,68855,1,8,2:0:0:0:
403,39,69022,2,0,B|368:43|368:43|345:76,1,75,2|0,3:2|2:0,3:0:0:0:
274,184,69189,6,0,L|221:187,2,37.5,2|2|10,2:0|2:0|2:0,3:0:0:0:
374,211,69355,2,0,L|282:201,1,75,2|0,3:2|2:0,3:0:0:0:
150,180,69522,1,0,2:0:0:0:
377,384,69689,5,10,3:2:0:0:
315,304,69855,1,2,2:0:0:0:
309,203,70022,2,0,P|275:188|258:186,1,50,2|0,3:2|2:0,3:0:0:0:
347,106,70189,2,0,P|301:86|265:82,1,62.5,10|0,2:0|3:0,3:0:0:0:
436,54,70355,2,0,P|388:10|342:-9,1,87.5000000000001,2|8,3:2|2:0,3:0:0:0:
315,304,70522,1,2,2:0:0:0:
377,384,70605,2,0,P|436:375|476:348,1,87.5000000000001,8|2,3:2|3:2,3:0:0:0:
474,196,70772,5,8,2:0:0:0:
411,165,70855,1,8,2:0:0:0:
342,168,70939,1,8,2:0:0:0:
281,202,71022,1,0,3:0:0:0:
282,278,71105,1,0,3:0:0:0:
282,296,71189,1,10,2:0:0:0:
231,341,71272,1,10,2:0:0:0:
163,336,71355,6,0,P|141:298|152:241,1,87.5000000000001,6|0,3:2|2:0,3:0:0:0:
170,134,71522,1,10,2:0:0:0:
494,136,71689,1,2,3:2:0:0:
403,169,71772,2,0,L|409:63,1,87.5000000000001,8|2,2:0|2:0,3:0:0:0:
339,33,71939,1,8,2:0:0:0:
248,0,72022,2,0,L|254:106,1,87.5000000000001,2|0,3:2|2:0,3:0:0:0:
170,134,72189,1,0,2:0:0:0:
79,167,72272,2,0,L|83:79,1,87.5000000000001,8|2,2:0|3:2,3:0:0:0:
66,384,72522,1,10,2:0:0:0:
405,219,72689,6,0,P|361:201|315:205,1,87.5000000000001,2|0,3:2|2:0,3:0:0:0:
46,248,72855,1,10,2:0:0:0:
0,272,72939,1,2,3:2:0:0:
42,302,73022,1,2,3:2:0:0:
88,278,73105,1,2,2:0:0:0:
281,43,73272,2,0,L|290:-16,1,43.75,10|2,2:0|2:0,3:0:0:0:
266,125,73355,2,0,B|258:174|258:174|293:203,1,87.5000000000001,2|8,3:2|2:0,3:0:0:0:
9,60,73605,1,8,2:0:0:0:
9,18,73689,5,2,3:2:0:0:
63,0,73772,1,0,2:0:0:0:
117,19,73855,1,2,2:0:0:0:
150,67,73939,1,2,2:0:0:0:
148,142,74022,5,2,3:2:0:0:
210,113,74105,1,2,2:0:0:0:
274,136,74189,1,10,2:0:0:0:
306,196,74272,1,2,2:0:0:0:
354,189,74355,5,2,3:2:0:0:
379,237,74439,1,2,2:0:0:0:
430,255,74522,1,2,2:0:0:0:
480,232,74605,1,10,2:0:0:0:
432,165,74689,5,2,3:2:0:0:
425,125,74772,2,0,L|364:101,1,43.75,2|0,2:0|3:0,3:0:0:0:
341,329,74939,1,0,3:0:0:0:
277,384,75022,2,0,B|260:369|260:369|87:378,1,175,10|0,3:2|2:0,3:0:0:0:
114,75,75355,5,2,3:2:0:0:
85,128,75439,1,2,2:0:0:0:
128,173,75522,1,10,2:0:0:0:
183,146,75605,1,2,3:2:0:0:
175,85,75689,1,2,3:2:0:0:
47,267,75855,5,2,2:0:0:0:
182,288,75939,1,10,3:2:0:0:
359,33,76189,5,8,2:0:0:0:
339,82,76272,1,8,2:0:0:0:
390,119,76355,1,8,2:0:0:0:
330,173,76439,1,4,3:2:0:0:
404,230,76522,2,0,L|478:245,2,58.3333333333334,0|0|0,3:0|3:0|3:0,3:0:0:0:
260,273,76689,5,6,3:2:0:0:
0,65,76855,2,0,L|91:82,1,87.5000000000001,10|0,2:0|3:0,3:0:0:0:
133,165,77022,1,2,3:2:0:0:
186,94,77105,2,0,L|277:111,1,87.5000000000001,8|2,2:0|2:0,3:0:0:0:
319,194,77272,1,8,2:0:0:0:
372,123,77355,2,0,L|463:140,2,87.5000000000001,2|0|0,3:2|2:0|2:0,3:0:0:0:
267,265,77605,2,0,L|216:335,2,87.5000000000001,0|10|0,3:0|3:2|2:0,3:0:0:0:
403,217,77855,1,2,2:0:0:0:
315,28,78022,5,2,3:2:0:0:
333,338,78189,1,10,2:0:0:0:
356,384,78272,1,2,3:2:0:0:
386,342,78355,1,2,3:2:0:0:
362,296,78439,1,2,2:0:0:0:
72,255,78605,2,0,L|12:245,1,43.75,10|2,2:0|2:0,3:0:0:0:
147,271,78689,2,0,B|200:280|200:280|230:321,1,87.5000000000001,2|8,3:2|2:0,3:0:0:0:
115,71,78939,5,0,3:0:0:0:
139,96,79022,5,10,3:2:0:0:
185,97,79105,1,2,2:0:0:0:
232,99,79189,1,2,2:0:0:0:
278,101,79272,1,2,3:2:0:0:
329,63,79355,5,2,3:2:0:0:
294,109,79439,1,2,2:0:0:0:
298,166,79522,1,10,2:0:0:0:
333,211,79605,1,2,2:0:0:0:
396,149,79689,5,2,3:2:0:0:
418,125,79772,2,0,B|428:239|428:239|403:298,1,175,2|10,2:0|2:0,3:0:0:0:
273,327,80022,5,2,3:2:0:0:
223,244,80133,1,2,2:0:0:0:
136,205,80244,1,10,2:0:0:0:
23,233,80355,5,2,3:2:0:0:
73,150,80466,1,2,2:0:0:0:
160,111,80577,1,2,2:0:0:0:
284,158,80689,6,0,L|232:162,1,43.75,10|10,3:2|3:2,3:0:0:0:
447,229,80855,6,0,L|484:251,1,43.75,10|10,3:2|3:2,3:0:0:0:
358,75,81022,6,0,L|341:34,1,43.75,10|10,3:2|3:2,3:0:0:0:
340,253,81189,6,0,L|329:295,1,43.75,10|10,3:2|3:2,3:0:0:0:
459,119,81355,6,0,L|492:90,1,43.75,10|10,3:2|3:2,3:0:0:0:
74,260,81577,5,2,3:2:0:0:
79,272,81633,1,2,3:2:0:0:
87,280,81689,2,0,B|127:320|185:330|185:330|290:314|259:194|128:227|185:330|185:330|227:384|289:384,1,450,14|0,2:0|2:0,3:0:0:0:
349,384,82022,5,6,3:2:0:0:
512,187,82189,2,0,L|407:151,1,87.5000000000001,10|0,2:0|3:0,3:0:0:0:
370,102,82355,1,2,3:2:0:0:
296,65,82439,2,0,L|191:101,1,87.5000000000001,8|2,2:0|2:0,3:0:0:0:
154,150,82605,1,8,2:0:0:0:
88,206,82689,2,0,L|-17:170,2,87.5000000000001,2|0|0,3:2|2:0|2:0,3:0:0:0:
194,285,82939,2,0,L|299:249,2,87.5000000000001,8|2|0,2:0|3:2|3:0,3:0:0:0:
62,384,83189,1,10,2:0:0:0:
361,314,83355,6,0,P|378:271|372:218,1,87.5000000000001,2|0,3:2|2:0,3:0:0:0:
229,83,83522,1,10,2:0:0:0:
183,107,83605,1,2,3:2:0:0:
225,137,83689,1,2,3:2:0:0:
271,113,83772,1,2,2:0:0:0:
57,262,83939,2,0,L|42:340,1,43.75,10|2,2:0|2:0,3:0:0:0:
75,188,84022,2,0,B|84:138|84:138|67:101,1,87.5000000000001,2|8,3:2|2:0,3:0:0:0:
264,384,84272,1,8,2:0:0:0:
222,366,84355,5,2,3:2:0:0:
224,306,84439,1,2,2:0:0:0:
228,247,84522,1,2,2:0:0:0:
231,188,84605,1,2,2:0:0:0:
144,207,84689,5,2,3:2:0:0:
189,264,84772,1,2,2:0:0:0:
262,266,84855,1,10,2:0:0:0:
310,212,84939,1,2,3:2:0:0:
371,261,85022,5,2,3:2:0:0:
411,214,85105,1,2,2:0:0:0:
473,215,85189,1,2,2:0:0:0:
512,265,85272,1,10,2:0:0:0:
440,304,85355,5,2,3:2:0:0:
438,333,85439,2,0,L|485:357,1,43.75,2|0,2:0|3:0,3:0:0:0:
228,183,85605,1,0,3:0:0:0:
259,103,85689,2,0,B|292:127|292:127|433:133,1,175,10|0,3:2|2:0,3:0:0:0:
100,201,86022,5,2,3:2:0:0:
25,176,86105,1,2,2:0:0:0:
25,97,86189,1,10,2:0:0:0:
100,73,86272,1,2,3:2:0:0:
146,137,86355,1,2,3:2:0:0:
277,92,86522,5,2,2:0:0:0:
220,264,86605,1,10,3:2:0:0:
403,379,86772,5,2,2:0:0:0:
392,358,86855,1,10,2:0:0:0:
416,326,86939,1,10,2:0:0:0:
389,292,87022,1,10,2:0:0:0:
417,250,87105,1,14,2:0:0:0:
395,207,87189,1,2,2:0:0:0:
421,162,87272,1,2,2:0:0:0:
390,117,87355,5,10,2:0:0:0:
330,99,87439,1,10,2:0:0:0:
171,124,87522,2,0,L|237:113,1,50,2|2,3:2|3:2,3:0:0:0:
313,219,87689,5,10,2:0:0:0:
142,211,87772,2,0,L|214:215,1,50,10|2,2:0|3:2,3:0:0:0:
236,341,87939,2,0,L|245:244,1,50,2|10,3:2|3:2,3:0:0:0:
266,51,88105,5,2,3:2:0:0:
228,2,88189,1,10,3:2:0:0:
168,0,88272,1,2,3:2:0:0:
118,26,88355,1,10,3:2:0:0:
104,86,88439,2,0,L|104:167,1,50,2|2,3:2|2:0,3:0:0:0:
102,297,88605,5,10,2:0:0:0:
305,167,88855,5,10,2:0:0:0:
274,316,88939,2,0,L|290:236,1,50,10|2,2:0|3:2,3:0:0:0:
386,167,89105,5,2,3:2:0:0:
381,319,89189,2,0,L|382:237,1,50,10|2,3:2|3:2,3:0:0:0:
512,220,89355,2,0,L|446:221,1,50,2|10,2:0|2:0,3:0:0:0:
233,215,89522,5,10,2:0:0:0:
193,168,89605,1,2,2:0:0:0:
194,107,89689,1,10,3:2:0:0:
236,63,89772,1,2,2:0:0:0:
297,58,89855,2,0,L|364:69,1,50,10|2,3:2|2:0,3:0:0:0:
469,87,90022,5,2,2:0:0:0:
512,95,90105,1,14,3:2:0:0:
355,265,90272,5,2,2:0:0:0:
406,255,90355,1,14,3:2:0:0:
278,144,90522,5,2,2:0:0:0:
340,157,90605,1,14,3:2:0:0:
152,257,90772,5,2,2:0:0:0:
225,243,90855,1,14,3:2:0:0:
0,147,91022,5,2,2:0:0:0:
88,164,91105,1,14,3:2:0:0:
249,39,91272,5,2,2:0:0:0:
143,59,91355,1,14,3:2:0:0:
220,159,91522,5,2,2:0:0:0:
348,183,91605,1,14,3:2:0:0:
512,25,91772,5,2,2:0:0:0:
358,53,91855,1,14,3:2:0:0:
459,344,92022,5,10,2:0:0:0:
478,215,92133,2,0,L|485:159,2,33.3333333333333,0|0|0,3:0|3:0|3:0,3:0:0:0:
203,335,92355,5,10,2:0:0:0:
285,157,92466,2,0,L|306:107,2,33.3333333333333,0|2|0,3:0|3:2|3:0,3:0:0:0:
21,350,92689,5,14,2:0:0:0:
100,63,92911,6,0,L|94:12,2,33.3333333333333,2|2|2,2:0|2:0|2:0,3:0:0:0:
138,78,93077,2,0,L|147:159,1,66.6666666666667,2|2,2:0|2:0,3:0:0:0:
166,305,93244,6,0,L|160:356,2,33.3333333333333,2|2|2,2:0|2:0|2:0,3:0:0:0:
204,290,93411,2,0,L|213:208,1,66.6666666666667,2|2,2:0|2:0,3:0:0:0:
236,118,93577,6,0,L|230:67,2,33.3333333333333,2|2|2,2:0|2:0|2:0,3:0:0:0:
274,133,93744,2,0,L|283:214,1,66.6666666666667,2|2,2:0|2:0,3:0:0:0:
312,275,93911,6,0,L|306:326,2,33.3333333333333,2|2|2,2:0|2:0|2:0,3:0:0:0:
350,260,94077,2,0,L|359:178,1,66.6666666666667,2|2,2:0|2:0,3:0:0:0:
370,116,94272,6,0,P|392:107|417:105,1,50,2|2,2:0|2:0,3:0:0:0:
474,161,94466,5,2,2:0:0:0:
486,245,94577,5,2,2:0:0:0:
450,343,94689,5,2,2:0:0:0:
323,369,94800,5,2,2:0:0:0:
195,350,94911,5,2,2:0:0:0:
64,305,95022,6,0,P|29:303|-5:317,2,66.6666666666667,2|2|2,2:0|2:0|2:0,3:0:0:0:
201,269,95355,6,0,B|246:227|241:162|223:73|223:73|237:142|287:153,1,300,14|0,3:2|3:0,3:0:0:0:
297,157,96439,1,2,2:0:0:0:
319,163,96522,1,2,2:0:0:0:
345,161,96605,1,2,3:2:0:0:
368,141,96689,6,0,L|377:92,3,50,2|2|2|2,3:2|2:0|2:0|3:2,3:0:0:0:
351,243,97022,2,0,L|340:292,3,50,2|2|2|2,3:2|2:0|2:0|3:2,3:0:0:0:
445,146,97355,2,0,L|455:87,3,50,2|2|2|2,3:2|2:0|2:0|3:2,3:0:0:0:
424,268,97689,2,0,L|411:326,3,50,2|2|2|2,3:2|2:0|2:0|3:2,3:0:0:0:
483,2,98022,5,2,3:2:0:0:
433,6,98105,1,2,2:0:0:0:
386,23,98189,1,2,2:0:0:0:
353,61,98272,1,2,3:2:0:0:
310,84,98355,1,2,3:2:0:0:
260,92,98439,1,2,2:0:0:0:
211,79,98522,2,0,P|189:64|176:45,1,50,2|2,2:0|3:2,3:0:0:0:
266,0,98689,5,2,3:2:0:0:
250,216,98855,1,2,2:0:0:0:
239,371,99022,2,0,L|243:305,1,50,2|2,3:2|2:0,3:0:0:0:
496,282,99355,5,2,3:2:0:0:
423,145,99522,2,0,L|431:105,2,33.3333333333333,2|0|0,2:0|2:0|3:0,3:0:0:0:
439,186,99689,1,2,3:2:0:0:
427,234,99772,1,2,2:0:0:0:
416,283,99855,1,2,2:0:0:0:
405,332,99939,1,2,3:2:0:0:
349,384,100022,6,0,P|318:379|285:353,1,75,2|2,3:2|2:0,3:0:0:0:
281,186,100189,2,0,P|292:215|286:256,1,75,2|2,2:0|3:2,3:0:0:0:
195,308,100355,1,2,3:2:0:0:
171,308,100439,1,2,2:0:0:0:
124,252,100522,1,2,2:0:0:0:
130,179,100605,1,2,3:2:0:0:
184,126,100689,2,0,B|237:91|286:91|345:114|345:114|389:129|444:125|490:83,1,300.000000000001,2|0,3:2|3:0,3:0:0:0:
402,0,101577,6,0,L|350:9,2,33.3333333333333,2|2|2,2:0|3:2|3:2,3:0:0:0:
227,25,101855,5,2,2:0:0:0:
178,32,101939,1,2,3:2:0:0:
128,40,102022,1,2,3:2:0:0:
10,227,102189,5,2,2:0:0:0:
17,177,102272,1,2,3:2:0:0:
24,127,102355,1,2,3:2:0:0:
71,114,102439,1,2,2:0:0:0:
120,124,102522,1,2,2:0:0:0:
160,154,102605,1,2,3:2:0:0:
186,203,102689,5,2,3:2:0:0:
242,187,102772,1,2,2:0:0:0:
301,199,102855,1,2,2:0:0:0:
349,235,102939,1,2,3:2:0:0:
284,290,103022,5,2,3:2:0:0:
282,270,103105,1,2,2:0:0:0:
215,48,103355,5,0,3:0:0:0:
498,104,103522,5,2,2:0:0:0:
444,73,103605,1,2,3:2:0:0:
382,72,103689,1,2,3:2:0:0:
328,103,103772,1,2,2:0:0:0:
296,155,103855,2,0,P|320:185|337:193,1,50,2|2,2:0|3:2,3:0:0:0:
479,214,104022,6,0,L|525:211,2,33.3333333333333,2|0|0,3:2|2:0|2:0,3:0:0:0:
437,218,104189,1,2,2:0:0:0:
395,222,104272,1,2,3:2:0:0:
356,238,104355,1,2,3:2:0:0:
325,266,104439,1,2,2:0:0:0:
296,296,104522,1,2,2:0:0:0:
259,313,104605,1,2,3:2:0:0:
218,319,104689,6,0,P|170:311|141:280,1,75,2|2,3:2|2:0,3:0:0:0:
124,139,104855,2,0,P|140:185|127:225,1,75,2|2,2:0|3:2,3:0:0:0:
0,231,105022,2,0,P|30:252|67:256,1,75,2|2,3:2|2:0,3:0:0:0:
229,207,105189,1,2,2:0:0:0:
279,153,105272,1,2,3:2:0:0:
292,80,105355,1,2,3:2:0:0:
262,12,105439,1,2,2:0:0:0:
452,80,105855,6,0,L|378:69,1,75,2|2,2:0|3:2,3:0:0:0:
114,28,106022,1,6,3:2:0:0:
361,159,106189,1,2,2:0:0:0:
147,164,106355,1,2,3:2:0:0:
311,258,106522,1,2,2:0:0:0:
170,287,106689,1,2,3:2:0:0:
272,342,106855,5,2,2:0:0:0:
199,382,106939,1,2,3:2:0:0:
74,105,107105,6,0,L|0:116,2,75,2|2|2,2:0|2:0|3:2,3:0:0:0:
355,60,107355,1,2,3:2:0:0:
132,188,107522,1,2,2:0:0:0:
352,195,107689,1,2,3:2:0:0:
175,278,107855,1,2,2:0:0:0:
330,314,108022,1,2,3:2:0:0:
209,364,108189,5,2,2:0:0:0:
281,384,108272,1,2,3:2:0:0:
438,105,108439,6,0,L|512:116,2,75,2|2|2,2:0|2:0|3:2,3:0:0:0:
228,70,108689,1,2,3:2:0:0:
259,6,108772,1,2,2:0:0:0:
328,14,108855,1,2,2:0:0:0:
344,83,108939,1,2,3:2:0:0:
285,121,109022,1,2,3:2:0:0:
283,139,109105,1,2,2:0:0:0:
282,158,109189,1,2,2:0:0:0:
281,177,109272,1,2,3:2:0:0:
279,195,109355,1,2,3:2:0:0:
220,233,109439,1,2,2:0:0:0:
236,302,109522,1,2,2:0:0:0:
305,310,109605,1,2,3:2:0:0:
336,247,109689,2,0,P|365:223|401:212,1,75,2|2,3:2|2:0,3:0:0:0:
512,131,109855,2,0,P|483:107|447:96,1,75,2|2,2:0|3:2,3:0:0:0:
199,66,110022,5,2,3:2:0:0:
143,70,110105,1,2,2:0:0:0:
90,89,110189,1,2,2:0:0:0:
43,119,110272,1,2,3:2:0:0:
19,170,110355,1,2,3:2:0:0:
52,174,110439,1,2,2:0:0:0:
85,178,110522,1,2,2:0:0:0:
117,190,110605,1,2,3:2:0:0:
144,210,110689,1,2,3:2:0:0:
168,260,110772,1,2,2:0:0:0:
152,316,110855,1,2,2:0:0:0:
100,341,110939,1,2,3:2:0:0:
17,326,111022,5,10,3:2:0:0:
0,314,111105,5,10,2:0:0:0:
400,239,111355,6,0,P|402:217|415:185,1,50,2|2,3:2|2:0,3:0:0:0:
404,271,111522,2,0,P|402:293|389:325,1,50,2|2,2:0|3:2,3:0:0:0:
416,235,111689,2,0,P|432:220|464:207,1,50,2|2,3:2|2:0,3:0:0:0:
387,274,111855,2,0,P|370:288|338:301,1,50,2|2,2:0|3:2,3:0:0:0:
438,248,112022,2,0,P|460:249|492:263,1,50,2|2,3:2|2:0,3:0:0:0:
365,259,112189,2,0,P|342:257|311:244,1,50,2|2,2:0|3:2,3:0:0:0:
447,285,112355,2,0,P|461:301|474:333,1,50,2|2,3:2|2:0,3:0:0:0:
358,219,112522,2,0,P|343:202|330:170,1,50,2|2,2:0|3:2,3:0:0:0:
330,9,112689,5,2,3:2:0:0:
396,0,112772,1,2,2:0:0:0:
430,58,112855,1,2,2:0:0:0:
389,111,112939,1,2,3:2:0:0:
324,94,113022,1,2,3:2:0:0:
265,78,113105,1,2,2:0:0:0:
209,80,113189,1,2,2:0:0:0:
163,90,113272,1,2,3:2:0:0:
135,121,113355,6,0,P|132:140|132:160,1,37.5000000000001,2|2,3:2|2:0,3:0:0:0:
188,334,113522,2,0,P|192:305|204:275,1,62.5,2|2,2:0|3:2,3:0:0:0:
325,188,113689,2,0,P|349:182|372:185,2,41.6666666666667,2|0|0,3:2|2:0|2:0,3:0:0:0:
275,195,113855,2,0,P|238:199|187:190,1,75,2|2,2:0|3:2,3:0:0:0:
13,176,114022,5,2,3:2:0:0:
12,151,114077,6,0,P|17:125|33:103,1,50,2|2,2:0|2:0,3:0:0:0:
0,288,114244,5,2,3:2:0:0:
15,269,114300,6,0,P|36:254|115:256,1,99.9999999999999,2|2,2:0|3:2,3:0:0:0:
287,307,114522,5,2,2:0:0:0:
353,323,114605,1,2,3:2:0:0:
412,305,114689,1,2,3:2:0:0:
449,263,114772,1,2,2:0:0:0:
463,216,114855,1,2,2:0:0:0:
459,182,114939,1,2,3:2:0:0:
449,157,115022,1,2,3:2:0:0:
419,143,115105,1,2,2:0:0:0:
377,148,115189,1,2,2:0:0:0:
337,179,115272,1,2,3:2:0:0:
285,196,115355,2,0,P|247:202|186:188,1,62.5,2|2,3:2|2:0,3:0:0:0:
24,109,115522,5,2,2:0:0:0:
89,78,115605,1,2,3:2:0:0:
163,82,115689,2,0,P|206:88|246:104,1,87.5000000000001,2|2,3:2|2:0,3:0:0:0:
290,324,115855,5,2,2:0:0:0:
234,370,115939,1,2,3:2:0:0:
187,314,116022,1,2,3:2:0:0:
243,268,116105,1,2,2:0:0:0:
492,97,116689,5,6,3:2:0:0:
469,118,116772,1,2,2:0:0:0:
432,135,116855,1,2,2:0:0:0:
381,141,116939,1,2,3:2:0:0:
322,136,117022,1,2,3:2:0:0:
261,109,117105,1,2,2:0:0:0:
314,43,117189,5,2,2:0:0:0:
322,55,117272,1,2,3:2:0:0:
289,369,117577,5,2,2:0:0:0:
290,355,117633,1,2,2:0:0:0:
291,342,117689,1,10,3:2:0:0:
300,218,117855,1,2,2:0:0:0:
423,302,118022,5,2,3:2:0:0:
154,296,118189,6,0,P|123:326|101:335,2,58.3333333333334,2|2|2,2:0|2:0|2:0,3:0:0:0:
184,252,118355,1,2,3:2:0:0:
194,194,118439,1,2,2:0:0:0:
185,136,118522,1,2,2:0:0:0:
157,85,118605,1,2,3:2:0:0:
102,71,118689,2,0,P|46:98|32:128,1,75,2|2,3:2|2:0,3:0:0:0:
0,233,118855,2,0,P|28:255|65:265,1,75,2|2,2:0|3:2,3:0:0:0:
256,281,119022,1,10,3:2:0:0:
324,277,119105,1,2,2:0:0:0:
372,316,119189,1,2,2:0:0:0:
423,302,119272,1,2,3:2:0:0:
509,315,119355,5,2,3:2:0:0:
506,290,119439,1,2,2:0:0:0:
504,265,119522,1,2,2:0:0:0:
502,240,119605,1,2,3:2:0:0:
469,187,119689,1,2,3:2:0:0:
412,139,119772,1,2,2:0:0:0:
339,135,119855,1,2,2:0:0:0:
277,175,119939,1,2,3:2:0:0:
375,216,120022,5,2,3:2:0:0:
375,216,120105,5,2,2:0:0:0:
474,44,120605,6,0,P|428:62|393:55,1,75,2|2,3:2|2:0,3:0:0:0:
392,55,120911,5,2,2:0:0:0:
385,53,120966,1,2,2:0:0:0:
377,51,121022,2,0,P|340:60|310:81,1,75,10|2,3:2|2:0,3:0:0:0:
223,276,121189,2,0,P|232:239|229:202,1,75,2|2,2:0|3:2,3:0:0:0:
120,62,121355,5,2,3:2:0:0:
166,1,121439,1,2,2:0:0:0:
225,33,121522,1,2,2:0:0:0:
217,99,121605,1,2,3:2:0:0:
170,147,121689,1,2,3:2:0:0:
132,214,121772,1,2,2:0:0:0:
143,292,121855,1,2,2:0:0:0:
206,349,121939,1,10,3:2:0:0:
307,359,122022,5,2,3:2:0:0:
340,353,122133,5,2,2:0:0:0:
492,320,122272,5,2,2:0:0:0:
350,318,122605,5,2,3:2:0:0:
383,312,122716,5,2,2:0:0:0:
468,296,122855,5,2,2:0:0:0:
240,215,123272,5,2,3:2:0:0:
200,207,123383,5,2,2:0:0:0:
17,168,123522,5,2,2:0:0:0:
235,112,123939,5,2,3:2:0:0:
284,103,124050,5,2,2:0:0:0:
512,53,124189,5,2,2:0:0:0:
135,362,124522,5,2,2:0:0:0:
176,56,124689,6,0,B|213:22|141:-79|33:-9|78:137|155:228,1,300,2|0,3:2|2:0,3:0:0:0:
315,293,125189,5,2,2:0:0:0:
326,294,125244,2,0,L|391:303,1,50.0000000000001,2|2,2:0|3:2,3:0:0:0:
436,233,125411,2,0,L|402:228,4,33.3333333333333,2|2|2|2|2,2:0|2:0|2:0|2:0|2:0,3:0:0:0:
467,162,125689,2,0,L|500:166,2,33.3333333333333,10|2|2,3:2|2:0|2:0,3:0:0:0:
389,146,125855,5,2,2:0:0:0:
349,142,125939,1,2,2:0:0:0:
309,147,126022,1,2,3:2:0:0:
273,163,126105,1,2,2:0:0:0:
245,191,126189,1,10,2:0:0:0:
220,223,126272,1,2,3:2:0:0:
189,248,126355,1,2,3:2:0:0:
152,261,126439,1,2,2:0:0:0:
112,263,126522,1,2,2:0:0:0:
72,259,126605,1,2,3:2:0:0:
33,252,126689,5,10,3:2:0:0:
0,175,126800,1,10,2:0:0:0:
48,68,126939,5,2,3:2:0:0:
105,178,127022,1,2,3:2:0:0:
256,27,127272,5,2,2:0:0:0:
400,271,127522,5,2,2:0:0:0:
437,175,127605,1,2,3:2:0:0:
125,343,127772,1,2,2:0:0:0:
343,103,127939,5,2,3:2:0:0:
27,224,128105,1,2,2:0:0:0:
237,276,128272,5,2,3:2:0:0:
198,178,128355,1,10,3:2:0:0:
0,384,128522,1,2,2:0:0:0:
70,65,128689,5,2,3:2:0:0:
331,204,128855,5,2,2:0:0:0:
373,102,128939,1,2,3:2:0:0:
434,331,129105,1,2,2:0:0:0:
159,260,129272,5,2,3:2:0:0:
469,196,129439,1,2,2:0:0:0:
210,35,129605,5,2,3:2:0:0:
243,128,129689,1,10,3:2:0:0:
510,8,129855,1,2,2:0:0:0:
113,127,130022,5,2,3:2:0:0:
403,230,130189,5,2,2:0:0:0:
371,138,130272,1,2,3:2:0:0:
294,374,130439,1,2,2:0:0:0:
87,232,130605,5,2,3:2:0:0:
412,340,130772,1,2,2:0:0:0:
217,118,130939,5,2,3:2:0:0:
196,233,131022,1,10,3:2:0:0:
85,0,131189,1,2,2:0:0:0:
425,105,131355,5,2,3:2:0:0:
254,384,131522,5,10,2:0:0:0:
278,272,131605,1,2,3:2:0:0:
512,384,131772,1,2,2:0:0:0:
86,295,131939,5,2,3:2:0:0:
454,198,132105,1,2,2:0:0:0:
144,68,132272,5,2,3:2:0:0:
171,172,132355,1,2,3:2:0:0:
427,0,132522,1,2,2:0:0:0:
255,384,132689,5,2,3:2:0:0:
254,2,132855,2,0,L|246:59,1,50,2|0,2:0|3:0,3:0:0:0:
244,66,133105,1,2,2:0:0:0:
241,84,133189,1,2,2:0:0:0:
239,102,133272,1,2,3:2:0:0:
237,123,133355,5,2,3:2:0:0:
267,154,133439,1,2,2:0:0:0:
305,175,133522,1,2,2:0:0:0:
348,183,133605,1,2,3:2:0:0:
391,177,133689,5,2,3:2:0:0:
353,214,133772,1,2,2:0:0:0:
308,239,133855,1,2,2:0:0:0:
256,248,133939,1,2,3:2:0:0:
204,241,134022,5,2,3:2:0:0:
249,285,134105,1,2,2:0:0:0:
303,315,134189,1,2,2:0:0:0:
366,326,134272,1,2,3:2:0:0:
428,317,134355,1,2,3:2:0:0:
478,270,134439,1,2,2:0:0:0:
507,208,134522,1,2,2:0:0:0:
510,140,134605,1,2,3:2:0:0:
475,64,134689,5,2,3:2:0:0:
469,52,134772,5,2,2:0:0:0:
32,126,135272,5,2,3:2:0:0:
181,95,135411,2,0,L|197:91,2,16.6666666666667,2|2|2,2:0|2:0|2:0,3:0:0:0:
117,140,135605,5,2,3:2:0:0:
90,209,135689,1,2,3:2:0:0:
102,282,135772,1,2,2:0:0:0:
151,337,135855,1,2,2:0:0:0:
222,360,135939,1,2,3:2:0:0:
294,343,136022,1,2,3:2:0:0:
346,291,136105,1,2,2:0:0:0:
365,219,136189,1,2,2:0:0:0:
362,141,136272,1,2,3:2:0:0:
343,66,136355,1,10,3:2:0:0:
41,2,136577,5,2,2:0:0:0:
32,26,136633,1,2,2:0:0:0:
24,51,136689,1,6,3:2:0:0:
18,76,136744,1,2,2:0:0:0:
12,102,136800,1,2,2:0:0:0:
8,128,136855,1,10,2:0:0:0:
5,154,136911,1,2,2:0:0:0:
3,180,136966,1,2,2:0:0:0:
2,206,137022,2,0,L|9:257,2,33.3333333333333,6|2|2,3:2|2:0|2:0,3:0:0:0:
96,124,137189,2,0,L|101:91,2,33.3333333333333,2|2|2,2:0|2:0|2:0,3:0:0:0:
146,288,137355,5,10,3:2:0:0:
256,0,137689,5,10,3:2:0:0:
452,253,138022,6,0,P|401:231|352:244,1,100,6|0,3:2|2:0,3:0:0:0:
339,384,138189,2,0,P|383:350|396:301,1,100,2|8,2:0|3:2,3:0:0:0:
283,221,138355,2,0,P|289:276|325:312,2,100,2|0|8,3:2|2:0|2:0,3:0:0:0:
312,124,138605,5,0,3:0:0:0:
385,56,138689,6,0,B|457:50|457:50|483:64,2,100,2|0|0,3:2|2:0|2:0,3:0:0:0:
213,130,138939,2,0,B|141:124|141:124|115:138,2,100,2|0|0,3:2|3:0|2:0,3:0:0:0:
397,200,139189,2,0,B|469:194|469:194|495:208,1,100,10|0,2:0|3:0,3:0:0:0:
435,290,139355,5,0,3:0:0:0:
335,282,139439,1,0,2:0:0:0:
248,230,139522,6,0,P|188:209|145:217,1,100,2|0,2:0|3:0,3:0:0:0:
68,296,139689,2,0,P|128:317|171:309,2,100,2|0|0,3:2|2:0|2:0,3:0:0:0:
39,199,139939,5,8,3:2:0:0:
42,98,140022,6,0,B|75:54|75:54|118:43,2,100,2|0|0,3:2|2:0|2:0,3:0:0:0:
138,154,140272,2,0,B|171:198|171:198|214:208,2,100,2|0|0,3:2|3:0|2:0,3:0:0:0:
234,98,140522,2,0,B|267:54|267:54|310:43,1,100,10|0,2:0|3:0,3:0:0:0:
409,52,140689,5,0,3:0:0:0:
473,129,140772,1,0,2:0:0:0:
461,227,140855,6,0,L|450:344,1,100,2|8,2:0|3:2,3:0:0:0:
365,274,141022,2,0,L|376:157,2,100,2|0|0,3:2|2:0|2:0,3:0:0:0:
307,356,141272,5,0,3:0:0:0:
207,361,141355,6,0,B|175:354|175:354|143:370|143:370|112:362,2,100,2|0|0,3:2|2:0|2:0,3:0:0:0:
269,257,141605,2,0,B|237:250|237:250|205:266|205:266|174:258,2,100,2|0|0,3:2|3:0|2:0,3:0:0:0:
331,153,141855,2,0,B|299:146|299:146|267:162|267:162|236:154,1,100,10|0,2:0|3:0,3:0:0:0:
162,85,142022,5,0,3:0:0:0:
217,2,142105,1,0,2:0:0:0:
311,32,142189,6,0,L|405:65,2,100,2|0|0,2:0|3:0|3:0,3:0:0:0:
511,108,142439,2,0,L|417:141,2,100,2|0|0,2:0|2:0|3:0,3:0:0:0:
311,184,142689,2,0,L|405:217,2,100,2|8|0,3:2|2:0|2:0,3:0:0:0:
511,260,142939,2,0,L|417:293,2,100,2|0|8,3:2|3:0|2:0,3:0:0:0:
311,336,143189,2,0,L|405:369,1,100,2|8,2:0|2:0,3:0:0:0:
211,300,143355,5,6,3:2:0:0:
438,32,143855,5,2,2:0:0:0:
452,46,143939,1,2,3:2:0:0:
462,75,144022,1,2,3:2:0:0:
459,114,144105,1,2,2:0:0:0:
430,154,144189,1,2,3:2:0:0:
371,167,144272,1,2,3:2:0:0:
301,159,144355,1,2,3:2:0:0:
221,161,144439,1,2,2:0:0:0:
134,187,144522,1,10,2:0:0:0:
66,259,144605,1,2,2:0:0:0:
69,358,144689,6,0,L|26:380,2,33.3333333333333,2|2|2,3:2|2:0|2:0,3:0:0:0:
224,326,144855,2,0,L|180:324,2,33.3333333333333,2|2|2,2:0|2:0|2:0,3:0:0:0:
340,381,145022,1,2,3:2:0:0:
411,359,145105,1,2,3:2:0:0:
466,309,145189,1,2,2:0:0:0:
496,241,145272,1,10,2:0:0:0:
495,167,145355,2,0,L|483:80,1,75,2|2,3:2|3:2,3:0:0:0:
406,217,145522,1,2,2:0:0:0:
395,131,145605,2,0,L|382:43,1,75,2|2,2:0|3:2,3:0:0:0:
305,180,145772,1,2,3:2:0:0:
294,94,145855,2,0,L|281:6,1,75,10|2,2:0|3:2,3:0:0:0:
165,27,146022,5,2,3:2:0:0:
104,68,146105,1,2,2:0:0:0:
92,140,146189,1,2,2:0:0:0:
134,199,146272,1,10,2:0:0:0:
206,211,146355,1,2,3:2:0:0:
169,261,146439,1,2,2:0:0:0:
180,323,146522,1,2,2:0:0:0:
231,359,146605,1,2,3:2:0:0:
264,279,146689,5,2,3:2:0:0:
275,278,146772,1,2,2:0:0:0:
286,277,146855,1,2,2:0:0:0:
297,276,146939,1,2,3:2:0:0:
328,186,147022,1,2,3:2:0:0:
390,239,147105,1,2,2:0:0:0:
393,305,147189,1,10,2:0:0:0:
357,351,147272,1,2,3:2:0:0:
325,369,147355,5,2,3:2:0:0:
270,378,147439,1,2,2:0:0:0:
210,371,147522,1,2,2:0:0:0:
152,346,147605,1,2,3:2:0:0:
110,292,147689,1,2,3:2:0:0:
95,218,147772,1,2,2:0:0:0:
115,143,147855,1,10,2:0:0:0:
166,83,147939,1,10,3:2:0:0:
442,61,148189,6,0,L|514:27,2,50,10|2|10,3:2|2:0|3:2,3:0:0:0:
320,112,148355,2,0,L|248:78,2,50,10|10|10,3:2|3:2|3:2,3:0:0:0:
512,222,148522,2,0,L|412:260,1,75,10|2,3:2|3:2,3:0:0:0:
182,320,148689,6,0,B|156:248|156:248|169:228,1,100,6|0,3:2|2:0,3:0:0:0:
317,201,148855,2,0,B|267:259|267:259|243:257,1,100,10|8,2:0|3:2,3:0:0:0:
147,143,149022,2,0,B|222:156|222:156|232:178,2,100,2|0|8,3:2|3:0|2:0,3:0:0:0:
52,177,149272,5,0,3:0:0:0:
11,268,149355,6,0,L|43:376,2,100,2|0|0,3:2|2:0|2:0,3:0:0:0:
130,220,149605,2,0,L|162:328,2,100,2|0|0,3:2|3:0|2:0,3:0:0:0:
249,172,149855,2,0,L|281:280,1,100,10|0,2:0|3:0,3:0:0:0:
319,359,150022,5,0,3:0:0:0:
418,369,150105,1,0,2:0:0:0:
468,282,150189,6,0,B|486:228|486:228|467:171,1,100,2|0,2:0|3:0,3:0:0:0:
319,89,150355,2,0,B|356:131|356:131|415:143,2,100,2|0|0,3:2|2:0|2:0,3:0:0:0:
225,52,150605,5,8,3:2:0:0:
130,82,150689,6,0,P|121:144|88:179,2,100,2|0|0,3:2|2:0|2:0,3:0:0:0:
233,208,150939,2,0,P|182:245|134:246,2,100,2|0|0,3:2|3:0|3:0,3:0:0:0:
216,369,151189,2,0,P|154:360|118:327,1,100,2|0,2:0|3:0,3:0:0:0:
56,264,151355,5,0,3:0:0:0:
26,168,151439,1,0,2:0:0:0:
56,71,151522,6,0,B|82:61|82:61|171:85,1,100,2|8,2:0|3:2,3:0:0:0:
320,145,151689,2,0,B|302:123|302:123|213:99,2,100,2|0|0,3:2|2:0|2:0,3:0:0:0:
312,245,151939,5,0,3:0:0:0:
262,338,152022,6,0,B|311:358|311:358|372:344,2,100,2|0|0,3:2|2:0|2:0,3:0:0:0:
197,236,152272,2,0,B|148:255|148:255|86:241,2,100,2|0|0,3:2|3:0|2:0,3:0:0:0:
270,138,152522,2,0,B|319:158|319:158|380:144,1,100,10|0,2:0|3:0,3:0:0:0:
437,66,152689,5,0,3:0:0:0:
512,121,152772,1,0,2:0:0:0:
497,217,152855,6,0,L|493:329,2,100,2|0|0,2:0|3:0|3:0,3:0:0:0:
390,99,153105,2,0,L|386:-13,2,100,2|0|0,2:0|2:0|3:0,3:0:0:0:
283,217,153355,2,0,L|279:329,2,100,2|8|0,3:2|2:0|2:0,3:0:0:0:
176,99,153605,2,0,L|172:-13,2,100,2|0|8,3:2|3:0|2:0,3:0:0:0:
69,217,153855,2,0,L|65:329,1,100,2|0,2:0|3:0,3:0:0:0:
73,92,154022,5,6,3:2:0:0:
433,228,154272,1,8,3:2:0:0:
401,234,154355,1,2,3:2:0:0:
161,198,154522,5,10,2:0:0:0:
294,18,154689,5,2,3:2:0:0:
335,98,154772,1,0,2:0:0:0:
289,384,154939,5,0,3:0:0:0:
248,304,155022,1,2,3:2:0:0:
470,125,155189,5,10,2:0:0:0:
60,143,155355,1,2,3:2:0:0:
12,78,155439,1,0,2:0:0:0:
59,13,155522,1,2,2:0:0:0:
136,38,155605,1,2,3:2:0:0:
136,118,155689,1,2,3:2:0:0:
395,164,155855,5,2,2:0:0:0:
357,176,155939,1,10,3:2:0:0:
349,254,156022,5,2,3:2:0:0:
397,319,156105,1,2,2:0:0:0:
350,384,156189,1,2,2:0:0:0:
273,359,156272,1,2,3:2:0:0:
273,279,156355,1,2,3:2:0:0:
273,199,156439,1,2,2:0:0:0:
196,174,156522,1,10,2:0:0:0:
149,239,156605,1,2,3:2:0:0:
124,29,156772,5,2,2:0:0:0:
164,48,156855,1,2,2:0:0:0:
208,61,156939,1,10,3:2:0:0:
253,69,157022,1,2,3:2:0:0:
299,69,157105,1,2,2:0:0:0:
344,64,157189,1,2,2:0:0:0:
388,52,157272,1,2,3:2:0:0:
451,10,157355,5,2,3:2:0:0:
418,60,157439,1,2,2:0:0:0:
411,117,157522,1,2,2:0:0:0:
433,174,157605,1,2,3:2:0:0:
482,239,157689,5,2,3:2:0:0:
421,206,157772,1,2,2:0:0:0:
340,215,157855,1,10,2:0:0:0:
261,261,157939,1,2,3:2:0:0:
181,344,158022,6,0,B|146:172|146:172|207:187,1,225,6|0,3:2|3:0,3:0:0:0:
33,263,158355,2,0,B|82:275|82:275|47:103,1,225,2|8,3:2|3:2,3:0:0:0:
141,76,158689,6,0,B|376:136|376:136|417:200,1,300,2|0,3:2|3:0,3:0:0:0:
247,272,159022,2,0,B|278:321|278:321|513:381,1,300,2|0,3:2|2:0,3:0:0:0:
512,288,159355,5,6,3:2:0:0:
461,177,159522,1,2,3:2:0:0:
342,362,159689,1,10,2:0:0:0:
373,242,159855,1,2,3:2:0:0:
245,177,160022,5,2,3:2:0:0:
279,269,160105,1,10,2:0:0:0:
167,272,160272,5,2,3:2:0:0:
201,364,160355,1,10,2:0:0:0:
55,243,160522,5,2,2:0:0:0:
89,151,160605,1,2,2:0:0:0:
454,149,160772,5,2,3:2:0:0:
359,285,160939,5,2,3:2:0:0:
456,263,161022,1,10,2:0:0:0:
323,165,161189,1,2,2:0:0:0:
233,264,161355,5,2,2:0:0:0:
263,360,161439,1,10,2:0:0:0:
118,112,161605,5,2,3:2:0:0:
148,208,161689,1,10,2:0:0:0:
311,0,161855,5,2,2:0:0:0:
281,96,161939,1,2,2:0:0:0:
251,192,162022,5,6,3:2:0:0:
373,158,162189,1,2,3:2:0:0:
433,313,162355,1,10,2:0:0:0:
304,283,162522,1,2,2:0:0:0:
212,384,162689,5,2,2:0:0:0:
176,282,162772,1,10,2:0:0:0:
72,384,162939,5,2,3:2:0:0:
36,282,163022,1,10,3:2:0:0:
148,0,163189,5,2,2:0:0:0:
119,74,163272,1,2,2:0:0:0:
90,148,163355,5,2,3:2:0:0:
139,152,163439,1,10,2:0:0:0:
184,172,163522,1,10,2:0:0:0:
220,207,163605,1,10,2:0:0:0:
255,241,163689,1,2,3:2:0:0:
300,262,163772,1,2,2:0:0:0:
350,266,163855,1,2,2:0:0:0:
449,249,163939,5,6,3:2:0:0:
61,292,164689,5,6,3:2:0:0:
126,289,164800,1,2,2:0:0:0:
169,240,164911,2,0,L|174:169,1,50.0000000000001,2|2,2:0|2:0,3:0:0:0:
370,359,165133,5,10,2:0:0:0:
298,355,165244,1,2,2:0:0:0:
251,301,165355,2,0,L|247:246,1,50.0000000000001,2|2,2:0|2:0,3:0:0:0:
48,208,165577,5,2,3:2:0:0:
127,203,165689,1,2,2:0:0:0:
178,144,165800,2,0,L|182:83,1,50.0000000000001,2|2,3:2|2:0,3:0:0:0:
429,1,166022,5,10,2:0:0:0:
307,56,166133,1,2,2:0:0:0:
404,117,166244,1,2,2:0:0:0:
325,201,166355,1,2,2:0:0:0:
370,299,166466,5,2,3:2:0:0:
298,307,166577,1,2,2:0:0:0:
242,262,166689,2,0,L|228:208,1,50.0000000000001,2|2,2:0|2:0,3:0:0:0:
132,86,166911,5,10,2:0:0:0:
82,153,167022,1,10,2:0:0:0:
155,230,167133,1,2,3:2:0:0:
53,297,167244,1,2,3:2:0:0:
166,365,167355,1,6,3:2:0:0:
144,48,170022,5,6,3:2:0:0:
66,195,170189,1,2,3:2:0:0:
300,187,170355,1,10,2:0:0:0:
147,139,170522,1,2,3:2:0:0:
148,352,170689,5,2,3:2:0:0:
182,251,170772,1,10,2:0:0:0:
344,384,170939,5,2,3:2:0:0:
310,283,171022,1,10,2:0:0:0:
512,247,171189,5,2,2:0:0:0:
411,213,171272,1,2,2:0:0:0:
23,239,171439,5,2,3:2:0:0:
131,87,171605,5,2,3:2:0:0:
147,190,171689,1,10,2:0:0:0:
240,25,171855,1,2,2:0:0:0:
363,169,172022,5,2,2:0:0:0:
260,143,172105,1,10,2:0:0:0:
176,307,172272,5,2,3:2:0:0:
279,281,172355,1,10,2:0:0:0:
84,213,172522,5,2,2:0:0:0:
110,110,172605,1,2,2:0:0:0:
136,7,172689,5,6,3:2:0:0:
243,153,172855,1,2,3:2:0:0:
366,64,173022,1,10,2:0:0:0:
371,237,173189,1,2,2:0:0:0:
134,266,173355,5,2,2:0:0:0:
231,293,173439,1,10,2:0:0:0:
151,138,173605,5,2,3:2:0:0:
54,165,173689,1,10,3:2:0:0:
317,0,173855,5,2,2:0:0:0:
290,96,173939,1,2,2:0:0:0:
263,192,174022,5,2,3:2:0:0:
275,261,174105,1,10,2:0:0:0:
326,309,174189,1,10,2:0:0:0:
395,318,174272,1,10,2:0:0:0:
457,283,174355,1,2,3:2:0:0:
485,219,174439,1,2,2:0:0:0:
470,150,174522,1,2,2:0:0:0:
374,208,174605,5,6,3:2:0:0:
80,326,175355,5,2,3:2:0:0:
87,248,175439,1,2,3:2:0:0:
180,277,175605,5,2,3:2:0:0:
156,193,175689,1,2,3:2:0:0:
257,189,175855,5,10,3:2:0:0:
200,111,175939,1,10,3:2:0:0:
291,77,176105,5,10,3:2:0:0:
201,17,176189,1,10,3:2:0:0:
453,367,176689,5,2,3:2:0:0:
446,289,176772,1,2,3:2:0:0:
353,318,176939,5,2,3:2:0:0:
377,234,177022,1,2,3:2:0:0:
276,230,177189,5,10,3:2:0:0:
333,152,177272,1,10,3:2:0:0:
242,118,177439,5,10,3:2:0:0:
332,58,177522,1,10,3:2:0:0:
512,154,178022,5,2,3:2:0:0:
436,168,178105,1,2,3:2:0:0:
459,265,178272,5,2,3:2:0:0:
383,251,178355,1,2,3:2:0:0:
409,143,178522,5,2,3:2:0:0:
333,157,178605,1,2,3:2:0:0:
355,271,178772,5,2,3:2:0:0:
279,257,178855,1,2,3:2:0:0:
300,135,179022,5,2,3:2:0:0:
224,149,179105,1,2,3:2:0:0:
251,282,179272,5,2,3:2:0:0:
175,268,179355,1,2,3:2:0:0:
201,121,179522,5,2,3:2:0:0:
125,135,179605,1,2,3:2:0:0:
153,296,179772,5,2,3:2:0:0:
77,282,179855,1,2,3:2:0:0:
0,91,180022,5,2,3:2:0:0:
0,167,180105,2,0,L|0:187,1,20,10|8,2:0|2:0,3:0:0:0:
72,78,180272,5,2,3:2:0:0:
72,174,180355,2,0,L|72:199,1,25,10|8,2:0|2:0,3:0:0:0:
144,65,180522,5,2,3:2:0:0:
144,182,180605,2,0,L|144:212,1,29.9999999999999,10|8,2:0|2:0,3:0:0:0:
216,52,180772,5,2,3:2:0:0:
216,190,180855,2,0,L|216:225,1,35,10|8,2:0|2:0,3:0:0:0:
288,39,181022,5,2,3:2:0:0:
288,238,181105,2,0,L|288:198,1,40,10|8,2:0|2:0,3:0:0:0:
360,26,181272,5,2,3:2:0:0:
360,251,181355,2,0,L|360:206,1,45,10|8,2:0|2:0,3:0:0:0:
432,13,181522,5,2,3:2:0:0:
432,264,181605,2,0,L|432:214,1,50,10|8,2:0|2:0,3:0:0:0:
504,0,181772,5,2,3:2:0:0:
504,277,181855,2,0,L|504:222,1,55,10|8,2:0|2:0,3:0:0:0:
256,192,182022,12,0,183064,2:0:0:0:
212,280,184022,6,0,P|252:272|294:277,1,75,6|0,3:2|2:0,3:0:0:0:
388,316,184188,2,0,P|392:275|410:237,1,75,10|0,2:0|3:0,3:0:0:0:
476,159,184355,2,0,P|438:141|407:113,1,75,2|8,3:2|2:0,3:0:0:0:
353,27,184522,2,0,P|325:56|288:77,1,75,2|8,2:0|2:0,3:0:0:0:
167,370,184688,2,0,L|194:106,1,225,2|8,3:2|2:0,3:0:0:0:
200,61,185022,1,2,3:2:0:0:
139,384,185188,1,10,2:0:0:0:
329,178,185355,6,0,P|297:197|255:199,1,75,2|0,3:2|2:0,3:0:0:0:
67,185,185522,1,10,2:0:0:0:
70,146,185605,1,2,3:2:0:0:
35,179,185688,1,2,3:2:0:0:
38,140,185772,1,2,2:0:0:0:
347,62,185938,2,0,L|398:73,1,37.5,10|0,2:0|2:0,3:0:0:0:
406,76,186022,2,0,P|441:118|446:142,1,75,2|8,3:2|2:0,3:0:0:0:
193,187,186272,1,8,2:0:0:0:
268,153,186355,2,0,P|321:143|345:151,1,75,2|0,3:2|2:0,3:0:0:0:
238,344,186522,6,0,L|294:328,2,50,2|0|0,2:0|3:0|3:0,3:0:0:0:
220,365,186688,2,0,L|145:371,1,75,2|0,3:2|2:0,3:0:0:0:
13,227,186855,1,8,2:0:0:0:
268,153,187022,2,0,P|321:143|345:151,1,75,2|0,3:2|2:0,3:0:0:0:
440,264,187188,6,0,L|496:248,2,50,2|0|0,2:0|3:0|3:0,3:0:0:0:
422,285,187355,2,0,L|347:291,1,75,2|0,3:2|2:0,3:0:0:0:
150,32,187605,1,0,3:0:0:0:
234,24,187688,5,10,3:2:0:0:
258,126,187855,1,2,2:0:0:0:
221,224,188022,2,0,P|249:262|285:272,1,62.5,2|0,3:2|2:0,3:0:0:0:
122,259,188188,2,0,P|131:299|154:332,1,75,10|0,2:0|3:0,3:0:0:0:
19,237,188355,2,0,P|16:286|28:338,1,100,2|8,3:2|2:0,3:0:0:0:
258,126,188522,1,2,2:0:0:0:
262,71,188605,1,8,3:2:0:0:
234,24,188688,6,0,P|184:3|142:15,1,75,2|8,3:2|2:0,3:0:0:0:
42,88,188855,1,8,2:0:0:0:
53,154,188938,1,8,2:0:0:0:
105,197,189022,1,0,3:0:0:0:
129,180,189105,1,0,3:0:0:0:
153,162,189188,1,10,2:0:0:0:
215,213,189272,1,10,2:0:0:0:
229,293,189355,6,0,P|179:345|161:352,1,75,6|0,3:2|2:0,3:0:0:0:
99,287,189522,2,0,P|28:269|13:257,1,75,10|0,2:0|3:0,3:0:0:0:
39,171,189688,2,0,P|18:101|21:82,1,75,2|8,3:2|2:0,3:0:0:0:
109,61,189855,2,0,P|159:8|176:1,1,75,2|8,2:0|2:0,3:0:0:0:
354,71,190022,5,2,3:2:0:0:
252,63,190105,2,0,L|286:154,1,75,0|0,2:0|2:0,3:0:0:0:
311,224,190272,1,8,2:0:0:0:
410,218,190355,2,0,L|376:309,1,75,2|0,3:2|3:0,3:0:0:0:
274,384,190522,1,10,2:0:0:0:
56,172,190688,6,0,P|96:169|129:186,1,75,2|0,3:2|2:0,3:0:0:0:
187,338,190855,1,10,2:0:0:0:
155,338,190938,1,2,3:2:0:0:
187,359,191022,1,2,3:2:0:0:
155,359,191105,1,2,2:0:0:0:
204,59,191272,2,0,L|241:68,1,37.5,10|0,2:0|2:0,3:0:0:0:
262,73,191355,2,0,B|291:103|291:103|296:148,1,75,2|8,3:2|2:0,3:0:0:0:
375,21,191605,1,8,2:0:0:0:
393,131,191688,2,0,B|392:172|392:172|364:208,1,75,2|2,3:2|2:0,3:0:0:0:
210,278,191855,2,0,B|169:270|169:270|139:236,1,75,2|2,2:0|2:0,3:0:0:0:
90,0,192022,5,2,3:2:0:0:
32,41,192105,1,2,2:0:0:0:
47,111,192188,1,10,2:0:0:0:
116,126,192272,1,2,3:2:0:0:
185,86,192355,5,2,3:2:0:0:
247,99,192438,1,2,2:0:0:0:
260,162,192522,1,2,2:0:0:0:
208,199,192605,1,10,2:0:0:0:
118,207,192688,5,2,3:2:0:0:
106,235,192772,2,0,L|128:273,1,37.5,2|0,2:0|3:0,3:0:0:0:
452,265,192938,1,0,3:0:0:0:
354,332,193022,2,0,B|375:222|375:222|352:189,1,150,10|0,3:2|2:0,3:0:0:0:
70,33,193355,5,2,3:2:0:0:
18,91,193438,1,2,2:0:0:0:
58,159,193522,1,10,2:0:0:0:
134,141,193605,1,2,3:2:0:0:
141,63,193688,1,2,3:2:0:0:
241,185,193855,5,2,2:0:0:0:
254,30,193938,1,10,3:2:0:0:
354,347,194188,6,0,L|300:360,2,50,2|2|2,2:0|2:0|2:0,3:0:0:0:
444,318,194355,2,0,L|497:343,2,50,2|2|2,2:0|2:0|2:0,3:0:0:0:
328,249,194522,2,0,L|274:281,2,50,2|2|2,2:0|2:0|2:0,3:0:0:0:
482,169,194688,6,0,P|439:139|403:138,1,75,6|0,3:2|2:0,3:0:0:0:
171,299,194855,1,10,2:0:0:0:
4,12,195022,1,2,3:2:0:0:
78,70,195105,2,0,L|165:76,1,75,8|2,2:0|2:0,3:0:0:0:
235,147,195272,1,8,3:2:0:0:
152,198,195355,2,0,L|54:205,2,75,2|0|0,3:2|2:0|2:0,3:0:0:0:
331,239,195605,1,0,3:0:0:0:
424,264,195688,1,10,3:2:0:0:
216,59,195855,1,2,2:0:0:0:
310,384,196022,6,0,P|338:352|348:309,1,75,2|0,3:2|2:0,3:0:0:0:
343,123,196188,1,2,2:0:0:0:
374,121,196272,1,2,3:2:0:0:
341,108,196355,1,2,3:2:0:0:
372,106,196438,1,2,2:0:0:0:
86,113,196605,2,0,L|33:134,1,37.5,10|0,2:0|2:0,3:0:0:0:
120,115,196688,2,0,B|160:119|160:119|209:160,1,75,2|8,3:2|2:0,3:0:0:0:
213,22,196938,1,0,3:0:0:0:
270,109,197022,2,0,B|280:135|280:135|275:208,1,75,10|0,2:0|2:0,3:0:0:0:
165,384,197188,6,0,L|223:380,2,37.5,2|2|2,2:0|2:0|2:0,3:0:0:0:
143,357,197355,2,0,L|57:345,1,75,2|0,3:2|2:0,3:0:0:0:
10,211,197522,1,0,2:0:0:0:
270,109,197688,2,0,B|280:135|280:135|275:208,1,75,2|0,3:2|3:0,3:0:0:0:
173,290,197855,6,0,L|231:286,2,37.5,2|2|10,2:0|2:0|2:0,3:0:0:0:
151,263,198022,2,0,L|65:251,1,75,2|0,3:2|2:0,3:0:0:0:
419,302,198272,1,0,3:0:0:0:
505,352,198355,5,10,3:2:0:0:
481,250,198522,1,2,2:0:0:0:
417,166,198688,2,0,P|438:122|454:117,1,62.5,2|0,3:2|2:0,3:0:0:0:
317,130,198855,2,0,P|318:92|337:60,1,75,2|0,2:0|3:0,3:0:0:0:
213,140,199022,2,0,P|202:95|213:42,1,100,2|0,3:2|2:0,3:0:0:0:
481,250,199188,1,2,2:0:0:0:
512,296,199272,1,8,2:0:0:0:
505,352,199355,6,0,P|459:374|423:373,1,75,2|8,3:2|2:0,3:0:0:0:
337,355,199522,1,8,2:0:0:0:
278,317,199605,1,8,3:0:0:0:
241,258,199688,1,8,3:0:0:0:
222,258,199772,1,8,3:2:0:0:
203,258,199855,1,10,3:2:0:0:
158,329,199938,1,2,3:2:0:0:
88,374,200022,6,0,P|76:330|56:308,1,75,6|0,3:2|2:0,3:0:0:0:
9,235,200188,2,0,P|41:202|50:174,1,75,10|0,2:0|3:0,3:0:0:0:
89,97,200355,2,0,P|133:108|162:102,1,75,2|8,3:2|2:0,3:0:0:0:
326,102,200522,1,2,2:0:0:0:
248,145,200605,2,0,L|282:222,1,75,8|2,3:2|3:2,3:0:0:0:
352,338,200772,2,0,L|386:261,1,75,0|0,2:0|2:0,3:0:0:0:
432,117,200938,1,0,3:0:0:0:
467,26,201022,2,0,L|361:37,1,75,10|0,3:2|3:0,3:0:0:0:
154,52,201188,1,2,2:0:0:0:
480,264,201355,6,0,P|468:225|421:205,1,75,2|0,3:2|2:0,3:0:0:0:
169,201,201522,1,2,2:0:0:0:
171,229,201605,1,2,3:2:0:0:
191,202,201688,1,2,3:2:0:0:
193,230,201772,1,2,2:0:0:0:
293,39,201938,2,0,L|232:41,1,37.5,10|0,2:0|2:0,3:0:0:0:
306,39,202022,2,0,B|345:52|345:52|375:89,1,75,2|8,3:2|2:0,3:0:0:0:
71,166,202272,1,0,3:0:0:0:
92,130,202355,5,10,2:0:0:0:
141,125,202438,1,2,2:0:0:0:
191,121,202522,1,2,2:0:0:0:
241,116,202605,1,2,2:0:0:0:
338,133,202688,5,2,3:2:0:0:
411,157,202772,1,2,2:0:0:0:
418,236,202855,1,2,2:0:0:0:
349,274,202938,1,2,3:2:0:0:
260,254,203022,1,2,3:2:0:0:
279,318,203105,1,2,3:2:0:0:
224,363,203188,1,2,2:0:0:0:
161,332,203272,1,10,2:0:0:0:
132,224,203355,5,2,3:2:0:0:
107,234,203438,2,0,L|105:275,1,37.5,2|0,2:0|3:0,3:0:0:0:
199,12,203605,1,0,3:0:0:0:
128,90,203688,2,0,B|244:100|244:100|282:123,1,150,10|0,3:2|2:0,3:0:0:0:
486,336,204022,5,2,3:2:0:0:
493,247,204105,1,2,2:0:0:0:
411,212,204188,1,2,2:0:0:0:
352,280,204272,1,10,3:2:0:0:
398,355,204355,1,10,3:2:0:0:
292,182,204522,5,2,2:0:0:0:
238,309,204605,1,14,2:0:0:0:
16,64,204771,5,2,2:0:0:0:
51,93,204855,1,10,2:0:0:0:
98,63,204938,1,10,2:0:0:0:
159,100,205022,1,10,2:0:0:0:
210,43,205105,1,14,3:2:0:0:
264,109,205188,1,10,2:0:0:0:
332,44,205272,2,0,L|431:39,1,75,10|12,2:0|3:2,3:0:0:0:
28,207,205605,6,0,B|187:195|187:195|233:208,1,200,2|0,2:0|2:0,3:0:0:0:
16,295,205855,1,2,2:0:0:0:
366,297,206022,2,0,L|244:287,1,100,2|8,3:2|2:0,3:0:0:0:
468,280,206188,1,0,3:0:0:0:
395,194,206272,2,0,L|273:184,1,100,2|8,2:0|2:0,3:0:0:0:
418,384,206522,1,2,2:0:0:0:
153,3,206688,5,2,3:2:0:0:
144,82,206772,1,8,2:0:0:0:
156,161,206855,1,0,2:0:0:0:
197,233,206938,2,0,L|-41:271,1,200,2|0,2:0|2:0,3:0:0:0:
291,216,207188,1,2,3:2:0:0:
458,100,207355,2,0,L|489:297,1,200,2|0,3:2|3:0,3:0:0:0:
508,197,207605,2,0,L|476:0,1,200,2|0,2:0|2:0,3:0:0:0:
350,22,207855,1,2,2:0:0:0:
343,310,208022,6,0,P|247:316|130:245,1,200,2|0,3:2|2:0,3:0:0:0:
245,280,208272,2,0,P|158:237|93:117,1,200,2|0,2:0|2:0,3:0:0:0:
99,4,208522,1,2,2:0:0:0:
123,6,208605,1,0,3:0:0:0:
146,11,208688,1,2,3:2:0:0:
176,35,208772,1,8,3:0:0:0:
181,74,208855,1,0,2:0:0:0:
175,114,208938,1,0,3:0:0:0:
189,150,209022,5,10,3:2:0:0:
245,168,209105,1,2,2:0:0:0:
302,154,209188,1,2,2:0:0:0:
343,112,209272,1,2,2:0:0:0:
268,73,209355,5,2,3:2:0:0:
258,149,209438,1,10,2:0:0:0:
296,218,209522,1,2,2:0:0:0:
368,249,209605,1,2,2:0:0:0:
420,188,209688,5,10,2:0:0:0:
480,214,209772,1,2,2:0:0:0:
512,271,209855,1,2,2:0:0:0:
504,336,209938,1,10,2:0:0:0:
431,384,210022,5,2,3:2:0:0:
406,384,210105,1,10,2:0:0:0:
381,384,210188,1,2,3:2:0:0:
356,384,210272,1,2,2:0:0:0:
274,330,210355,5,10,2:0:0:0:
184,330,210466,5,2,2:0:0:0:
94,330,210577,5,2,2:0:0:0:
290,224,210688,5,6,3:2:0:0:
103,85,210938,2,0,L|313:52,1,200,2|0,2:0|2:0,3:0:0:0:
12,99,211188,1,2,3:2:0:0:
145,297,211355,2,0,L|267:287,1,100,2|8,3:2|2:0,3:0:0:0:
43,280,211522,1,0,3:0:0:0:
116,194,211605,2,0,L|238:184,1,100,2|8,2:0|2:0,3:0:0:0:
93,384,211855,1,2,3:2:0:0:
255,104,212022,6,0,P|305:20|400:3,1,200,2|0,3:2|2:0,3:0:0:0:
268,5,212272,2,0,P|218:88|123:106,1,200,2|0,2:0|2:0,3:0:0:0:
346,44,212522,2,0,P|442:37|512:105,1,200,2|0,2:0|3:0,3:0:0:0:
176,63,212772,2,0,P|79:69|9:1,1,200,2|0,2:0|2:0,3:0:0:0:
15,155,213022,1,2,2:0:0:0:
175,333,213188,1,2,2:0:0:0:
253,127,213355,2,0,L|265:27,2,100,2|8|0,3:2|2:0|2:0,3:0:0:0:
136,189,213688,5,8,2:0:0:0:
168,195,213772,1,0,2:0:0:0:
201,202,213855,1,2,2:0:0:0:
135,214,213938,1,2,3:2:0:0:
69,228,214022,1,2,3:2:0:0:
332,166,214188,5,0,3:0:0:0:
365,160,214272,1,0,2:0:0:0:
398,153,214355,1,8,2:0:0:0:
431,147,214438,1,0,2:0:0:0:
464,140,214522,1,2,2:0:0:0:
381,125,214605,1,2,2:0:0:0:
298,108,214688,1,2,3:2:0:0:
344,363,214855,6,0,L|224:342,1,100,0|0,2:0|3:0,3:0:0:0:
448,354,215022,1,8,2:0:0:0:
382,262,215105,2,0,L|262:241,1,100,0|0,3:0|2:0,3:0:0:0:
19,158,215355,5,2,3:2:0:0:
93,76,215466,5,2,2:0:0:0:
191,137,215577,5,2,3:2:0:0:
274,81,215688,5,10,2:0:0:0:
351,129,215799,5,2,3:2:0:0:
424,95,215910,5,2,3:2:0:0:
496,130,216022,5,14,3:2:0:0:
512,247,216188,1,0,2:0:0:0:
361,267,216355,2,0,L|287:278,1,75.0000000000002,10|2,2:0|2:0,3:0:0:0:
412,351,216605,5,2,3:2:0:0:
433,195,216772,1,2,2:0:0:0:
232,167,216938,2,0,L|133:153,1,100,2|0,2:0|2:0,3:0:0:0:
220,77,217188,1,2,2:0:0:0:
269,72,217272,1,2,2:0:0:0:
319,68,217355,5,2,3:2:0:0:
340,224,217522,1,2,2:0:0:0:
139,252,217688,2,0,L|40:265,1,100,10|2,2:0|2:0,3:0:0:0:
94,384,217938,5,2,3:2:0:0:
62,150,218105,1,2,2:0:0:0:
364,108,218272,2,0,L|512:87,1,150,2|0,2:0|2:0,3:0:0:0:
276,122,218522,1,2,2:0:0:0:
315,384,218688,1,2,3:2:0:0:
59,271,218855,6,0,L|28:276,2,31.25,2|0|0,2:0|2:0|2:0,3:0:0:0:
92,291,219022,1,10,3:2:0:0:
59,70,219188,1,2,2:0:0:0:
279,40,219355,1,10,2:0:0:0:
310,258,219605,1,2,2:0:0:0:
142,160,219855,5,6,3:2:0:0:
170,177,219910,2,0,L|217:171,12,41.6666666666667,2|2|2|2|2|2|2|10|2|2|2|2|2,2:0|2:0|2:0|2:0|2:0|2:0|2:0|2:0|3:2|2:0|2:0|2:0|2:0,3:0:0:0:
115,288,220688,6,0,L|189:278,1,75,8|0,2:0|3:0,3:0:0:0:
281,53,220855,2,0,L|206:62,1,75,10|0,2:0|3:0,3:0:0:0:
307,208,221022,1,10,2:0:0:0:
378,232,221105,1,8,2:0:0:0:
449,256,221188,2,0,B|476:220|476:220|454:94,1,150,2|4,2:0|3:2,3:0:0:0:
500,344,221522,5,0,2:0:0:0:
261,358,221688,2,0,B|297:385|297:385|401:367,1,150,2|0,3:2|2:0,3:0:0:0:
205,294,222022,2,0,B|169:267|169:267|65:285,1,150,2|0,3:2|2:0,3:0:0:0:
256,197,222272,2,0,P|208:154|125:162,1,150,2|0,2:0|2:0,3:0:0:0:
137,384,222522,1,2,2:0:0:0:
353,157,222688,6,0,P|339:261|290:297,2,150,2|0|2,3:2|2:0|3:2,3:0:0:0:
134,35,223188,5,2,2:0:0:0:
172,71,223272,1,2,2:0:0:0:
224,79,223355,2,0,L|327:67,1,75,2|0,3:2|2:0,3:0:0:0:
43,278,223605,1,0,3:0:0:0:
84,189,223688,2,0,L|65:135,2,50,10|10|2,2:0|2:0|2:0,3:0:0:0:
153,334,223855,2,0,L|134:388,2,50,10|10|10,2:0|2:0|2:0,3:0:0:0:
210,159,224022,6,0,B|246:198|246:198|347:204,1,150,14|8,3:2|2:0,3:0:0:0:
60,57,224355,1,2,3:2:0:0:
112,21,224438,2,0,P|161:19|195:32,1,75,8|0,2:0|3:0,3:0:0:0:
427,341,224688,2,0,B|391:302|391:302|290:296,1,150,10|0,3:2|3:0,3:0:0:0:
244,293,224938,1,10,2:0:0:0:
194,290,225022,1,0,3:0:0:0:
452,210,225188,1,10,2:0:0:0:
47,149,225355,5,10,3:2:0:0:
367,38,225605,5,10,3:2:0:0:
148,365,225855,5,10,3:2:0:0:
177,37,226022,5,10,2:0:0:0:
276,248,226188,1,8,2:0:0:0:
381,112,226355,1,0,3:0:0:0:
322,126,226438,1,0,3:0:0:0:
264,141,226522,1,8,2:0:0:0:
206,156,226605,1,8,2:0:0:0:
148,171,226688,6,0,P|80:153|56:123,1,87.5000000000001,6|0,3:2|2:0,3:0:0:0:
86,0,226855,1,10,2:0:0:0:
0,252,227022,1,2,3:2:0:0:
59,313,227105,2,0,L|151:318,1,87.5000000000001,8|2,2:0|2:0,3:0:0:0:
205,384,227272,1,8,2:0:0:0:
264,323,227355,2,0,L|356:318,1,87.5000000000001,2|0,3:2|2:0,3:0:0:0:
512,186,227522,1,0,2:0:0:0:
439,239,227605,2,0,L|347:234,1,87.5000000000001,8|2,2:0|3:2,3:0:0:0:
11,211,227855,1,10,2:0:0:0:
347,31,228022,5,2,3:2:0:0:
179,274,228188,1,10,2:0:0:0:
136,338,228272,1,2,3:2:0:0:
58,328,228355,1,2,3:2:0:0:
100,264,228438,1,2,2:0:0:0:
469,315,228605,2,0,L|532:324,1,43.75,10|0,2:0|2:0,3:0:0:0:
389,302,228688,2,0,B|344:295|344:295|321:226,1,87.5000000000001,2|8,3:2|2:0,3:0:0:0:
436,71,228938,1,8,2:0:0:0:
377,146,229022,2,0,B|363:106|363:106|318:99,1,87.5000000000001,2|0,3:2|2:0,3:0:0:0:
28,162,229188,6,0,L|22:112,2,43.75,2|2|2,2:0|2:0|2:0,3:0:0:0:
59,178,229355,2,0,L|85:268,1,87.5000000000001,2|0,3:2|2:0,3:0:0:0:
14,14,229522,1,8,2:0:0:0:
377,146,229688,2,0,B|363:106|363:106|318:99,1,87.5000000000001,2|0,3:2|2:0,3:0:0:0:
158,222,229855,6,0,L|152:172,2,43.75,2|2|10,2:0|2:0|2:0,3:0:0:0:
189,238,230022,2,0,L|215:328,1,87.5000000000001,2|0,3:2|2:0,3:0:0:0:
137,51,230272,1,0,3:0:0:0:
205,15,230355,5,10,3:2:0:0:
318,60,230522,1,2,2:0:0:0:
337,181,230688,2,0,P|364:212|377:217,1,50,2|0,3:2|2:0,3:0:0:0:
254,271,230855,2,0,P|271:318|307:348,1,75,10|0,2:0|3:0,3:0:0:0:
134,248,231022,2,0,P|121:316|133:358,1,100,2|8,3:2|2:0,3:0:0:0:
318,60,231188,1,2,2:0:0:0:
205,15,231272,6,0,P|156:22|111:45,1,100,8|2,3:2|3:2,3:0:0:0:
21,149,231438,1,8,2:0:0:0:
91,186,231522,1,8,2:0:0:0:
170,175,231605,1,8,2:0:0:0:
239,136,231688,1,0,3:0:0:0:
246,166,231772,1,0,3:0:0:0:
253,196,231855,1,10,2:0:0:0:
339,174,231938,1,10,2:0:0:0:
427,189,232022,6,0,P|450:245|456:293,1,87.5000000000001,6|0,3:2|2:0,3:0:0:0:
364,384,232188,1,10,2:0:0:0:
460,0,232355,1,2,3:2:0:0:
362,9,232438,2,0,L|375:108,1,87.5000000000001,8|2,2:0|2:0,3:0:0:0:
281,118,232605,1,8,2:0:0:0:
183,109,232688,2,0,L|196:9,1,87.5000000000001,2|0,3:2|2:0,3:0:0:0:
102,0,232855,1,0,2:0:0:0:
4,9,232938,2,0,L|19:121,1,87.5000000000001,8|2,2:0|3:2,3:0:0:0:
72,384,233188,1,10,2:0:0:0:
452,221,233355,6,0,P|375:190|346:199,1,87.5000000000001,2|0,3:2|2:0,3:0:0:0:
128,222,233522,1,10,2:0:0:0:
52,236,233605,1,2,3:2:0:0:
4,174,233688,1,2,3:2:0:0:
79,159,233772,1,2,2:0:0:0:
288,335,233938,2,0,L|286:387,1,43.75,10|0,2:0|2:0,3:0:0:0:
290,262,234022,2,0,B|291:214|291:214|250:173,1,87.5000000000001,2|8,3:2|2:0,3:0:0:0:
435,372,234272,1,8,2:0:0:0:
512,349,234355,5,2,3:2:0:0:
494,302,234438,1,2,2:0:0:0:
476,255,234522,1,2,2:0:0:0:
459,208,234605,1,2,2:0:0:0:
485,121,234688,5,2,3:2:0:0:
426,200,234772,1,2,2:0:0:0:
333,230,234855,1,10,2:0:0:0:
239,201,234938,1,2,3:2:0:0:
224,283,235022,5,2,3:2:0:0:
148,259,235105,1,2,2:0:0:0:
74,283,235188,1,2,2:0:0:0:
28,348,235272,1,10,2:0:0:0:
135,384,235355,5,2,3:2:0:0:
156,364,235438,2,0,L|219:380,1,43.75,2|0,2:0|3:0,3:0:0:0:
0,72,235605,1,0,3:0:0:0:
45,151,235688,2,0,B|84:110|84:110|234:119,1,175,10|0,3:2|2:0,3:0:0:0:
465,324,236022,5,2,3:2:0:0:
392,291,236105,1,2,2:0:0:0:
468,275,236188,1,10,2:0:0:0:
416,333,236272,1,2,3:2:0:0:
425,255,236355,1,2,3:2:0:0:
139,372,236522,5,2,2:0:0:0:
317,333,236605,1,10,3:2:0:0:
512,47,236855,5,10,2:0:0:0:
502,47,236910,1,10,2:0:0:0:
485,49,236966,1,10,2:0:0:0:
462,51,237022,1,10,2:0:0:0:
433,53,237077,1,6,3:2:0:0:
398,57,237133,1,2,2:0:0:0:
358,60,237188,1,2,2:0:0:0:
311,64,237244,1,2,2:0:0:0:
260,69,237299,1,10,2:0:0:0:
203,74,237355,6,0,P|139:106|124:144,1,100,6|0,3:2|3:0,3:0:0:0:
79,363,237522,1,10,2:0:0:0:
454,278,237688,1,2,3:2:0:0:
382,384,237772,2,0,L|372:282,1,100,8|2,2:0|2:0,3:0:0:0:
377,139,237938,1,8,2:0:0:0:
504,149,238022,2,0,L|420:208,1,100,2|0,3:2|2:0,3:0:0:0:
295,276,238188,1,0,2:0:0:0:
241,161,238272,2,0,L|334:203,1,100,0|10,3:0|3:2,3:0:0:0:
0,51,238522,1,2,2:0:0:0:
165,384,238688,5,2,3:2:0:0:
304,37,238855,1,10,2:0:0:0:
398,0,238938,1,2,3:2:0:0:
431,95,239022,1,2,3:2:0:0:
338,129,239105,1,2,2:0:0:0:
58,268,239272,2,0,L|1:279,1,50,10|0,2:0|2:0,3:0:0:0:
156,249,239355,2,0,B|215:239|215:239|264:269,1,100,2|8,3:2|2:0,3:0:0:0:
0,110,239605,5,0,3:0:0:0:
29,69,239688,5,10,3:2:0:0:
107,82,239772,1,2,2:0:0:0:
186,96,239855,1,2,2:0:0:0:
264,111,239938,1,2,3:2:0:0:
366,184,240022,5,2,3:2:0:0:
442,162,240105,1,2,2:0:0:0:
423,85,240188,1,10,2:0:0:0:
345,106,240272,1,2,2:0:0:0:
293,240,240355,5,2,3:2:0:0:
271,158,240438,2,0,B|105:180|105:180|66:140,1,200,2|10,2:0|2:0,3:0:0:0:
191,85,240688,5,2,3:2:0:0:
138,252,240799,1,2,2:0:0:0:
12,115,240910,1,10,2:0:0:0:
202,93,241022,5,2,3:2:0:0:
114,263,241133,1,2,2:0:0:0:
4,92,241244,1,2,2:0:0:0:
268,160,241355,5,10,3:2:0:0:
288,159,241397,1,8,3:2:0:0:
35,265,241522,5,10,3:2:0:0:
18,277,241563,1,8,3:2:0:0:
161,42,241688,5,10,3:2:0:0:
167,23,241730,1,8,3:2:0:0:
190,296,241855,5,10,3:2:0:0:
196,316,241897,1,8,3:2:0:0:
17,107,242022,5,10,3:2:0:0:
0,95,242063,1,8,3:2:0:0:
224,384,242244,5,0,3:0:0:0:
250,384,242299,1,0,3:0:0:0:
277,380,242355,2,0,B|365:377|417:315|417:315|452:162|276:173|278:309|417:315|417:315|497:292|524:228,1,600,12|0,2:0|2:0,3:0:0:0:
512,114,242688,6,0,P|468:63|399:42,1,125,6|0,3:2|2:0,3:0:0:0:
42,68,242855,1,10,2:0:0:0:
247,263,243022,1,2,3:2:0:0:
285,123,243105,2,0,L|153:187,1,125,8|2,2:0|2:0,3:0:0:0:
58,275,243272,1,8,2:0:0:0:
158,379,243355,2,0,L|167:232,1,125,2|0,3:2|2:0,3:0:0:0:
141,106,243522,1,0,2:0:0:0:
0,142,243605,2,0,L|122:223,1,125,8|2,2:0|3:2,3:0:0:0:
397,384,243855,1,10,2:0:0:0:
284,0,244022,6,0,P|227:39|219:98,1,125,2|0,3:2|2:0,3:0:0:0:
269,316,244188,1,10,2:0:0:0:
345,252,244272,1,2,3:2:0:0:
250,218,244355,1,2,3:2:0:0:
269,316,244438,1,2,2:0:0:0:
6,62,244605,2,0,L|-1:-13,1,62.5,10|0,2:0|2:0,3:0:0:0:
13,154,244688,2,0,B|20:216|20:216|74:264,1,125,2|8,3:2|2:0,3:0:0:0:
460,101,244938,5,8,2:0:0:0:
480,55,245022,5,2,3:2:0:0:
391,72,245105,1,2,2:0:0:0:
303,90,245188,1,2,2:0:0:0:
215,108,245272,1,2,2:0:0:0:
97,197,245355,5,2,3:2:0:0:
131,100,245438,1,2,2:0:0:0:
32,64,245522,1,10,2:0:0:0:
3,163,245605,1,2,3:2:0:0:
157,215,245688,5,2,3:2:0:0:
128,292,245772,1,2,2:0:0:0:
51,266,245855,1,2,2:0:0:0:
77,191,245938,1,10,2:0:0:0:
176,198,246022,5,2,3:2:0:0:
192,211,246105,2,0,L|255:194,1,62.5,2|0,2:0|3:0,3:0:0:0:
512,22,246272,1,0,3:0:0:0:
492,147,246355,2,0,B|456:104|456:104|262:111,1,250,10|0,3:2|2:0,3:0:0:0:
58,229,246688,5,2,3:2:0:0:
113,149,246772,1,2,2:0:0:0:
114,246,246855,1,10,2:0:0:0:
58,168,246938,1,2,3:2:0:0:
150,198,247022,1,2,3:2:0:0:
57,43,247188,5,2,2:0:0:0:
229,99,247272,1,10,3:2:0:0:
269,384,247438,5,2,2:0:0:0:
269,366,247522,1,2,2:0:0:0:
269,348,247605,1,2,2:0:0:0:
269,330,247688,1,2,2:0:0:0:
269,312,247772,1,2,2:0:0:0:
269,294,247855,1,2,2:0:0:0:
269,276,247938,1,2,2:0:0:0:
268,256,248022,5,6,3:2:0:0:
271,210,248105,1,2,2:0:0:0:
303,177,248188,1,2,2:0:0:0:
348,171,248272,1,2,2:0:0:0:
354,123,248355,5,2,3:2:0:0:
392,148,248438,1,2,2:0:0:0:
437,143,248522,1,2,2:0:0:0:
469,110,248605,1,2,2:0:0:0:
405,66,248688,5,2,3:2:0:0:
420,40,248772,2,0,L|416:2,1,25,2|0,2:0|2:0,3:0:0:0:
455,248,249022,5,2,3:2:0:0:
153,100,249355,5,2,3:2:0:0:
115,117,249438,1,2,2:0:0:0:
115,159,249522,1,2,2:0:0:0:
155,171,249605,1,2,2:0:0:0:
180,136,249688,1,2,3:2:0:0:
99,307,249855,5,2,2:0:0:0:
111,267,249938,1,2,2:0:0:0:
256,384,250105,5,2,2:0:0:0:
256,359,250188,1,2,2:0:0:0:
256,324,250272,1,2,2:0:0:0:
256,278,250355,1,2,3:2:0:0:
256,223,250438,1,2,2:0:0:0:
256,158,250522,1,2,2:0:0:0:
256,82,250605,1,2,2:0:0:0:
308,6,250688,5,6,3:2:0:0:
393,0,250772,1,2,2:0:0:0:
449,64,250855,1,2,2:0:0:0:
430,149,250938,2,0,P|371:177|314:177,1,100,2|10,2:0|3:2,3:0:0:0:
0,114,251105,5,2,2:0:0:0:
69,50,251188,1,2,2:0:0:0:
149,95,251272,1,2,2:0:0:0:
132,186,251355,1,2,3:2:0:0:
43,197,251438,1,10,2:0:0:0:
26,288,251522,2,0,B|60:339|60:339|126:346,1,100,10|10,2:0|2:0,3:0:0:0:
268,359,251688,6,0,L|357:380,2,66.6666666666667,2|2|10,3:2|2:0|2:0,3:0:0:0:
243,344,251855,1,2,3:2:0:0:
226,321,251910,1,2,2:0:0:0:
215,296,251966,1,2,2:0:0:0:
214,268,252022,1,2,2:0:0:0:
220,241,252077,1,2,2:0:0:0:
233,216,252133,1,2,2:0:0:0:
248,194,252188,1,10,2:0:0:0:
264,171,252244,1,2,2:0:0:0:
275,145,252299,1,10,2:0:0:0:
280,118,252355,1,2,2:0:0:0:
278,90,252410,1,10,2:0:0:0:
269,64,252466,1,2,2:0:0:0:
256,39,252522,1,10,2:0:0:0:
321,277,252605,5,14,3:2:0:0:
