osu file format v14

[General]
AudioFilename: audio.mp3
AudioLeadIn: 0
PreviewTime: 84411
Countdown: 0
SampleSet: Soft
StackLeniency: 0.3
Mode: 0
LetterboxInBreaks: 0
WidescreenStoryboard: 1

[Editor]
Bookmarks: 17416,28955,47416,73955,75397,79724,80878,84339,93426,103955,113186,113762,116070
DistanceSpacing: 1.4
BeatDivisor: 4
GridSize: 32
TimelineZoom: 2.3

[Metadata]
Title:(0,0)
TitleUnicode:(0,0)
Artist:NIWASHI
ArtistUnicode:庭師
Creator:PaRaDogi
Version:Down's EXTREME
Source:
Tags:fa mpg featured artist mappers guild quest electronic instrumental hardcore artcore down allice calliecube obamacube syncro -syncro Guchiry yokespai emoji entry gordon
BeatmapID:3467954
BeatmapSetID:1696794

[Difficulty]
HPDrainRate:5
CircleSize:4.1
OverallDifficulty:9.3
ApproachRate:9.6
SliderMultiplier:2.2
SliderTickRate:1

[Events]
//Background and Video events
0,0,"93495842_p0_master1200.jpg",0,0
//Break Periods
//Storyboard Layer 0 (Background)
//Storyboard Layer 1 (Fail)
//Storyboard Layer 2 (Pass)
//Storyboard Layer 3 (Foreground)
//Storyboard Layer 4 (Overlay)
//Storyboard Sound Samples

[TimingPoints]
1622,400,4,2,1,45,1,0
1622,-200,4,2,1,45,0,0
6422,294.117647058823,3,2,1,45,1,0
6422,-200,3,2,1,45,0,0
8186,288.461538461539,4,2,1,100,1,0
8186,-66.6666666666667,4,2,1,100,0,0
8402,-66.6666666666667,4,2,1,55,0,0
8907,-133.333333333333,4,2,1,55,0,0
10493,-66.6666666666667,4,2,1,55,0,0
11214,-133.333333333333,4,2,1,55,0,0
12224,-133.333333333333,4,2,1,45,0,0
12945,-66.6666666666667,4,2,1,55,0,0
13666,-133.333333333333,4,2,1,55,0,0
15109,-66.6666666666667,4,2,1,55,0,0
15830,-133.333333333333,4,2,1,55,0,0
16262,-133.333333333333,4,2,1,45,0,0
17128,-133.333333333333,4,2,1,35,0,0
17416,-100,4,2,1,55,0,0
24339,-66.6666666666667,4,2,1,40,0,0
25493,-50,4,2,1,65,0,0
28955,-100,4,2,1,65,0,0
49291,-66.6666666666667,4,2,1,65,0,0
49580,-100,4,2,1,65,0,0
50012,-66.6666666666667,4,2,1,65,0,0
51022,-100,4,2,1,65,0,0
55493,-66.6666666666667,4,2,1,65,0,0
56070,-100,4,2,1,65,0,0
57801,-133.333333333333,4,2,1,45,0,0
64724,-133.333333333333,4,2,1,45,0,0
67032,-100,4,2,1,55,0,0
84484,-50,4,2,1,70,0,0
85493,-83.3333333333333,4,2,1,65,0,1
94724,-200,4,2,1,65,0,1
95012,-83.3333333333333,4,2,1,65,0,1
103955,-83.3333333333333,4,2,1,65,0,0
110878,-66.6666666666667,4,2,1,65,0,0

[Colours]
Combo1 : 199,142,255
Combo2 : 255,125,125
Combo3 : 113,176,255
Combo4 : 255,169,128

[HitObjects]
323,150,1622,6,0,P|314:213|310:260,2,110,4|2|2,0:2|0:2|0:2,0:0:0:0:
323,150,2822,1,2,0:2:0:0:
205,38,3222,6,0,P|177:49|140:65,2,55,2|0|0,0:2|0:0|0:0,0:0:0:0:
92,179,3822,1,2,0:2:0:0:
177,157,4022,2,0,P|172:187|168:233,1,55,2|2,0:2|0:0,0:0:0:0:
6,99,4422,2,0,P|11:129|15:175,1,55,0|2,0:0|0:2,0:0:0:0:
92,179,4722,1,0,0:0:0:0:
92,179,4822,6,0,P|80:240|78:269,2,73.3333333333333,2|0|0,0:2|0:0|0:0,0:0:0:0:
92,179,5622,1,2,0:2:0:0:
369,112,6422,6,0,P|394:153|405:235,1,110,2|2,0:2|0:2,0:0:0:0:
406,213,7010,1,2,0:2:0:0:
471,112,7304,6,0,P|359:95|274:25,1,220,2|2,0:2|0:0,0:0:0:0:
277,29,8186,6,0,B|234:73|249:131|249:131|229:90|171:95,1,165.000006294251,12|0,2:3|0:0,0:0:0:0:
88,95,8402,2,0,B|145:121|133:186|133:186|180:189|199:139,1,165.000006294251,12|0,2:3|0:0,0:0:0:0:
151,38,8618,6,0,P|227:179|220:288,1,247.500009441376,12|0,2:3|0:0,0:0:0:0:
164,308,8907,5,2,0:2:0:0:
291,361,9051,2,0,P|330:364|377:372,1,82.5000031471254,2|2,0:2|0:2,0:0:0:0:
446,248,9339,6,0,P|414:186|379:160,1,82.5000031471254,2|2,0:2|0:2,0:0:0:0:
449,47,9628,1,2,0:2:0:0:
368,17,9772,1,2,0:2:0:0:
345,24,9844,1,2,0:2:0:0:
330,43,9916,1,2,0:2:0:0:
291,149,10061,1,2,0:2:0:0:
168,239,10205,1,2,0:2:0:0:
19,166,10349,1,2,0:2:0:0:
216,70,10493,6,0,B|192:46|200:1|200:1|114:7|111:82,1,165.000006294251,12|0,2:3|0:0,0:0:0:0:
13,169,10710,2,0,B|59:153|72:99|72:99|29:63|49:-4,1,165.000006294251,12|0,2:3|0:0,0:0:0:0:
278,21,10926,6,0,P|183:89|140:220,1,247.500009441376,12|0,2:3|0:0,0:0:0:0:
94,270,11214,5,2,0:2:0:0:
257,272,11359,2,0,P|246:313|241:367,1,82.5000031471254,2|2,0:2|0:2,0:0:0:0:
164,306,11647,5,2,0:2:0:0:
331,323,11791,1,2,0:2:0:0:
345,315,11863,1,2,0:2:0:0:
351,300,11936,1,2,0:2:0:0:
335,166,12080,1,2,0:2:0:0:
210,112,12224,5,2,0:2:0:0:
353,17,12368,1,2,0:2:0:0:
161,53,12512,5,2,0:2:0:0:
402,78,12657,1,2,0:2:0:0:
402,78,12945,6,0,B|389:114|358:138|358:138|420:121|462:201,1,165.000006294251,12|0,2:3|0:0,0:0:0:0:
415,287,13161,2,0,B|400:308|391:329|391:329|386:249|368:175,1,165.000006294251,12|0,2:3|0:0,0:0:0:0:
476,237,13378,6,0,P|332:290|228:366,1,247.500009441376,12|0,2:3|0:0,0:0:0:0:
191,299,13666,6,0,P|199:250|205:206,1,82.5000031471254,2|0,0:2|0:0,0:0:0:0:
0,18,13955,6,0,P|9:63|17:138,1,82.5000031471254,2|2,0:2|0:2,0:0:0:0:
216,87,14243,1,2,0:2:0:0:
138,170,14387,1,2,0:2:0:0:
150,156,14460,1,2,0:2:0:0:
152,139,14532,1,2,0:2:0:0:
98,52,14676,1,2,0:2:0:0:
20,195,14820,1,2,0:2:0:0:
191,299,14964,1,2,0:2:0:0:
383,180,15109,6,0,P|390:120|413:3,1,165.000006294251,12|0,2:3|0:0,0:0:0:0:
466,139,15325,2,0,P|422:126|289:43,1,165.000006294251,12|0,2:3|0:0,0:0:0:0:
484,58,15541,6,0,P|335:134|230:205,1,247.500009441376,12|0,2:3|0:0,0:0:0:0:
196,151,15830,5,2,0:2:0:0:
170,328,15974,2,0,P|130:312|74:300,1,82.5000031471254,2|2,0:2|0:2,0:0:0:0:
256,192,16262,12,6,17128,3:1:0:0:
91,302,17416,6,0,B|116:316|116:316|208:286,1,110,4|0,0:2|0:0,0:0:0:0:
285,169,17705,1,2,0:3:0:0:
193,290,17849,6,0,B|218:276|218:276|310:306,1,110,4|0,0:2|0:0,0:0:0:0:
339,114,18138,1,2,0:3:0:0:
295,301,18282,6,0,B|320:315|320:315|412:285,1,110,4|0,0:2|0:0,0:0:0:0:
419,118,18570,1,2,0:3:0:0:
397,289,18714,6,0,B|422:275|422:275|514:305,1,110,4|0,0:2|0:0,0:0:0:0:
481,167,19003,1,2,0:2:0:0:
463,15,19147,5,0,0:0:0:0:
419,118,19291,1,2,0:2:0:0:
310,164,19436,5,0,0:0:0:0:
263,41,19580,1,2,0:2:0:0:
176,231,19724,6,0,B|103:199|103:199|89:155,1,110,4|0,0:2|0:0,0:0:0:0:
282,283,20012,1,2,0:3:0:0:
93,170,20157,6,0,B|20:202|20:202|6:246,1,110,4|0,0:2|0:0,0:0:0:0:
252,208,20445,1,2,0:3:0:0:
10,230,20589,6,0,B|83:262|83:262|92:290,1,110,4|0,0:2|0:0,0:0:0:0:
283,137,20878,1,2,0:3:0:0:
92,290,21022,6,0,B|165:258|165:258|179:214,1,110,4|0,0:2|0:0,0:0:0:0:
239,73,21311,1,2,0:2:0:0:
64,31,21455,5,0,0:0:0:0:
166,105,21599,1,2,0:2:0:0:
250,260,21743,5,4,0:3:0:0:
288,246,21815,1,4,0:3:0:0:
320,209,21887,1,4,0:3:0:0:
334,154,21960,1,4,0:3:0:0:
296,89,22032,6,0,P|271:99|201:123,1,55,4|0,0:3|0:0,0:0:0:0:
268,19,22176,2,0,P|243:29|173:53,1,55,4|0,0:3|0:0,0:0:0:0:
415,156,22320,6,0,P|440:166|510:190,1,55,4|0,0:3|0:0,0:0:0:0:
443,86,22464,2,0,P|468:96|538:120,1,55,4|0,0:3|0:0,0:0:0:0:
507,277,22609,6,0,P|496:305|487:344,1,55,4|0,0:3|0:0,0:0:0:0:
433,247,22753,2,0,P|422:275|413:314,1,55,4|0,0:3|0:0,0:0:0:0:
305,298,22897,6,0,P|294:270|285:231,1,55,4|0,0:3|0:0,0:0:0:0:
231,328,23041,2,0,P|220:300|211:261,1,55,4|0,0:3|0:0,0:0:0:0:
56,104,23186,6,0,P|88:114|118:124,1,55,4|0,0:3|0:0,0:0:0:0:
308,171,23330,2,0,P|276:161|246:151,1,55,4|0,0:3|0:0,0:0:0:0:
48,134,23474,6,0,P|81:135|113:137,1,55,4|0,0:3|0:0,0:0:0:0:
310,140,23618,2,0,P|276:138|244:136,1,55,4|0,0:3|0:0,0:0:0:0:
48,165,23762,6,0,P|80:157|111:151,1,55,4|0,0:3|0:0,0:0:0:0:
304,109,23906,2,0,P|271:116|240:122,1,55,4|0,0:3|0:0,0:0:0:0:
60,194,24051,6,0,P|89:178|117:164,1,55,4|0,0:3|0:0,0:0:0:0:
294,80,24195,2,0,P|264:95|236:109,1,55,4|0,0:3|0:0,0:0:0:0:
165,112,24339,6,0,B|146:87|118:72|118:72|142:79|179:102,1,110.000004196167,4|0,0:2|0:0,0:0:0:0:
347,272,24532,2,0,B|366:297|394:311|394:311|370:305|333:282,1,110.000004196167,4|0,0:2|0:0,0:0:0:0:
279,73,24724,2,0,B|291:44|290:12|290:12|296:36|295:80,1,110.000004196167,4|0,0:2|0:0,0:0:0:0:
232,310,24916,2,0,B|220:339|221:371|221:371|215:347|216:303,1,110.000004196167,4|0,0:2|0:0,0:0:0:0:
370,153,25109,2,0,B|401:149|428:132|428:132|410:149|372:170,1,110.000004196167,4|0,0:2|0:0,0:0:0:0:
141,230,25301,2,0,B|110:234|83:251|83:251|101:234|139:213,1,110.000004196167,4|0,0:2|0:0,0:0:0:0:
347,272,25493,6,0,B|380:285|400:317|400:317|399:285|399:285|382:284|356:266,1,146.666666666667,4|0,0:2|0:0,0:0:0:0:
232,310,25686,2,0,B|237:346|219:380|219:380|247:363|247:363|238:347|241:316,1,146.666666666667,4|0,0:0|0:0,0:0:0:0:
141,230,25878,2,0,B|113:252|74:254|74:254|103:270|103:270|112:254|140:241,1,146.666666666667,4|0,0:0|0:0,0:0:0:0:
164,111,26070,2,0,B|131:98|111:66|111:66|112:98|112:98|129:99|155:117,1,146.666666666667,4|0,0:2|0:0,0:0:0:0:
279,73,26262,2,0,B|274:37|292:3|292:3|264:20|264:20|273:36|270:67,1,146.666666666667,4|0,0:0|0:0,0:0:0:0:
370,153,26455,2,0,B|398:131|437:129|437:129|408:113|408:113|399:129|371:142,1,146.666666666667,4|0,0:0|0:0,0:0:0:0:
256,192,26647,12,12,28666,0:3:0:0:
138,135,28955,6,0,P|234:120|327:102,1,165,4|0,0:2|0:0,0:0:0:0:
358,159,29243,2,0,B|381:181|381:181|380:247,1,55,8|0,0:0|0:0,0:0:0:0:
310,272,29387,1,2,1:2:0:0:
293,280,29460,1,2,0:0:0:0:
280,294,29532,1,2,0:2:0:0:
87,334,29676,2,0,P|97:293|112:253,1,55,0|0,1:1|0:0,0:0:0:0:
0,127,29820,2,0,P|49:176|62:230,1,110,8|0,0:0|1:1,0:0:0:0:
187,266,30036,1,0,0:0:0:0:
187,266,30109,6,0,P|207:189|233:113,1,110,0|0,1:1|0:0,0:0:0:0:
83,22,30397,2,0,P|99:58|111:120,1,55,8|0,0:2|0:0,0:0:0:0:
225,86,30541,1,2,0:2:0:0:
242,78,30614,1,2,1:2:0:0:
255,64,30686,1,2,0:2:0:0:
393,120,30830,2,0,P|381:148|374:200,1,55,0|0,1:1|0:0,0:0:0:0:
222,358,30974,2,0,P|266:324|330:299,1,110,8|0,0:2|0:0,0:0:0:0:
437,307,31190,1,0,0:0:0:0:
437,307,31262,6,0,P|364:295|314:213,1,165,0|0,1:1|0:0,0:0:0:0:
375,171,31551,2,0,P|391:120|409:55,1,110,8|2,0:2|0:0,0:0:0:0:
285,11,31767,1,0,0:0:0:0:
285,11,31839,2,0,P|322:32|351:45,1,55,2|0,0:0|0:0,0:0:0:0:
169,108,31984,2,0,B|145:124|145:124|140:178,1,55,0|0,1:1|0:0,0:0:0:0:
32,139,32128,2,0,P|124:176|153:268,1,165,8|0,0:2|0:0,0:0:0:0:
236,326,32416,6,0,B|210:328|188:347|188:347|227:282|231:217,1,165,0|0,1:1|0:0,0:0:0:0:
274,183,32705,2,0,B|297:202|297:202|309:247,1,55,8|0,0:2|0:0,0:0:0:0:
386,301,32849,1,2,0:2:0:0:
403,293,32922,1,2,1:2:0:0:
416,279,32994,1,2,0:2:0:0:
444,138,33137,2,0,P|455:90|472:65,1,55,0|0,1:1|0:0,0:0:0:0:
281,20,33282,2,0,P|311:78|332:152,1,110,8|0,0:2|0:0,0:0:0:0:
389,47,33498,1,0,0:0:0:0:
389,47,33570,6,0,P|346:62|211:141,1,165,0|0,1:1|0:0,0:0:0:0:
165,109,33859,2,0,P|130:90|113:51,1,55,8|0,0:2|0:0,0:0:0:0:
39,148,34003,1,2,0:2:0:0:
22,156,34076,1,2,0:2:0:0:
9,170,34148,1,2,0:2:0:0:
118,296,34291,2,0,P|131:319|146:372,1,55,0|0,1:1|0:0,0:0:0:0:
27,318,34436,2,0,P|51:254|87:200,1,110,8|0,0:2|0:0,0:0:0:0:
230,327,34652,1,0,0:0:0:0:
230,327,34724,6,0,P|197:271|184:200,1,110,0|0,1:1|0:0,0:0:0:0:
370,113,35012,2,0,P|360:134|344:194,1,55,8|0,0:2|0:0,0:0:0:0:
246,169,35157,1,2,0:2:0:0:
229,161,35230,1,2,1:2:0:0:
216,147,35302,1,2,0:2:0:0:
275,27,35445,2,0,P|314:41|353:51,1,55,0|0,1:1|0:0,0:0:0:0:
456,117,35589,2,0,P|431:171|405:265,1,110,8|0,0:2|0:0,0:0:0:0:
456,337,35806,1,0,0:0:0:0:
456,337,35878,6,0,P|363:320|368:225,1,165,0|0,1:1|0:0,0:0:0:0:
272,249,36166,2,0,P|261:215|243:169,1,55,8|0,0:2|0:0,0:0:0:0:
169,65,36311,2,0,P|205:77|239:81,1,55
328,22,36455,6,0,P|306:77|294:148,1,110,2|0,0:2|1:1,0:0:0:0:
186,156,36671,1,0,0:0:0:0:
186,156,36743,2,0,P|145:178|114:213,1,55,8|0,0:2|0:0,0:0:0:0:
2,50,36887,2,0,P|39:67|62:119,1,55
112,32,37032,6,2,P|77:96|56:233,1,165,2|0,1:1|0:0,0:1:0:0:
39,268,37320,2,0,P|67:259|107:254,1,55,8|0,0:2|0:0,0:0:0:0:
183,316,37464,1,2,0:2:0:0:
200,308,37537,1,2,1:2:0:0:
213,294,37609,1,2,1:2:0:0:
300,203,37753,2,0,P|325:212|366:233,1,55,0|0,1:1|0:0,0:0:0:0:
414,359,37897,1,10,0:2:0:0:
435,341,37969,1,2,0:2:0:0:
458,327,38041,1,2,0:2:0:0:
484,318,38113,1,2,0:2:0:0:
511,313,38186,6,0,B|462:291|451:241|451:241|481:209|465:153,1,165,6|0,0:2|0:0,0:0:0:0:
374,137,38474,2,0,P|392:183|399:219,1,55,8|0,0:2|0:0,0:0:0:0:
293,260,38618,1,2,0:2:0:0:
276,252,38691,1,2,0:2:0:0:
263,238,38763,1,2,0:2:0:0:
197,141,38907,2,0,P|170:148|124:178,1,55,0|0,1:1|0:0,0:0:0:0:
61,15,39051,2,0,P|147:33|217:66,1,165,8|0,0:2|0:0,0:0:0:0:
90,101,39339,6,0,P|68:144|36:296,1,165,0|0,1:1|0:0,0:0:0:0:
74,325,39628,2,0,B|99:313|99:313|116:271,1,55,8|0,0:2|0:0,0:0:0:0:
192,228,39772,1,2,0:2:0:0:
209,236,39845,1,2,1:2:0:0:
222,250,39917,1,2,0:2:0:0:
359,240,40061,2,0,P|350:272|342:307,1,55,0|0,1:1|0:0,0:0:0:0:
481,200,40205,2,0,P|468:138|452:64,1,110,8|0,0:2|0:0,0:0:0:0:
340,26,40421,1,0,0:0:0:0:
340,26,40493,6,0,B|380:50|377:95|377:95|335:119|317:166,1,165,0|0,1:1|0:0,0:0:0:0:
168,100,40782,2,0,P|213:120|248:220,1,110,8|2,0:2|0:2,0:0:0:0:
408,176,40998,1,0,0:0:0:0:
408,176,41070,2,0,P|387:215|389:262,1,55,2|0,0:2|0:0,0:0:0:0:
221,246,41214,2,0,P|253:254|280:282,1,55,0|0,1:1|0:0,0:0:0:0:
415,369,41359,2,0,P|358:333|353:274,1,110,8|0,0:2|0:0,0:0:0:0:
322,154,41575,1,2,0:2:0:0:
322,154,41647,6,0,P|231:140|127:122,1,165,0|0,1:1|0:0,0:0:0:0:
54,207,41936,2,0,P|88:194|126:176,1,55,8|0,0:2|0:0,0:0:0:0:
169,295,42080,1,2,0:2:0:0:
186,303,42153,1,2,1:2:0:0:
199,317,42225,1,2,1:2:0:0:
315,284,42368,2,0,P|327:246|345:210,1,55,0|0,1:1|0:0,0:0:0:0:
464,136,42512,2,0,P|441:81|404:-3,1,110,8|0,0:2|0:0,0:0:0:0:
305,51,42729,1,2,0:2:0:0:
305,51,42801,6,0,P|244:81|142:137,1,165,0|0,1:1|0:0,0:0:0:0:
61,41,43089,2,0,P|83:53|106:80,1,55,8|0,0:2|0:0,0:0:0:0:
115,191,43234,1,2,0:2:0:0:
98,199,43307,1,2,0:2:0:0:
85,213,43379,1,2,0:2:0:0:
224,296,43522,2,0,P|254:282|301:270,1,55,0|0,1:1|0:0,0:0:0:0:
357,189,43666,2,0,P|337:229|306:378,1,165,8|2,0:2|0:2,0:0:0:0:
475,212,43955,6,0,P|394:169|357:72,1,165,0|0,1:1|0:0,0:0:0:0:
291,149,44243,2,0,P|272:156|212:172,1,55,8|0,0:2|0:0,0:0:0:0:
274,275,44387,1,2,0:2:0:0:
291,283,44460,1,2,1:2:0:0:
304,297,44532,1,2,0:2:0:0:
442,285,44676,2,0,P|431:312|426:337,1,55,0|0,1:1|0:0,0:0:0:0:
235,342,44820,2,0,P|183:322|165:257,1,110,8|2,0:2|0:2,0:0:0:0:
80,152,45036,1,2,0:2:0:0:
80,152,45109,6,0,P|185:115|264:91,1,165,0|0,1:1|0:0,0:0:0:0:
303,141,45397,2,0,P|316:104|326:60,1,55,8|0,0:2|0:0,0:0:0:0:
226,8,45541,1,2,0:2:0:0:
209,16,45614,1,2,0:2:0:0:
196,30,45686,1,2,0:2:0:0:
391,143,45830,2,0,P|406:183|435:259,1,110,0|8,1:1|0:2,0:0:0:0:
366,295,46046,1,0,0:0:0:0:
366,295,46118,2,0,P|349:323|343:370,1,55,2|2,0:2|0:2,0:0:0:0:
216,299,46262,6,0,P|204:263|195:219,1,55,6|0,1:1|0:0,0:0:0:0:
97,107,46407,2,0,P|94:128|71:199,1,55,2|0,0:2|0:0,0:0:0:0:
19,266,46551,2,0,P|69:247|160:218,1,110,8|0,0:2|0:0,0:0:0:0:
175,144,46767,1,0,1:1:0:0:
175,144,46839,2,0,P|212:156|251:165,1,55,0|0,1:1|0:0,0:0:0:0:
283,253,46984,2,0,P|315:238|355:222,1,55,0|0,1:1|0:0,0:0:0:0:
512,191,47128,5,10,0:2:0:0:
466,186,47200,1,2,0:2:0:0:
428,150,47272,1,2,0:2:0:0:
433,91,47344,1,2,0:2:0:0:
493,48,47416,5,4,0:2:0:0:
344,103,47561,1,4,0:3:0:0:
195,158,47705,1,8,0:2:0:0:
68,105,47849,5,4,0:2:0:0:
49,221,47993,1,8,0:3:0:0:
49,221,48065,1,2,0:0:0:0:
49,221,48137,1,10,0:2:0:0:
223,15,48282,5,4,0:2:0:0:
195,158,48426,1,4,0:3:0:0:
167,301,48570,1,8,0:2:0:0:
344,103,48714,5,4,0:2:0:0:
325,219,48858,1,12,0:3:0:0:
325,219,48930,1,12,0:3:0:0:
325,219,49002,5,12,0:3:0:0:
167,301,49147,1,8,0:2:0:0:
451,233,49291,2,2,B|383:234|385:305|385:305|437:267|388:151,1,247.500009441376,4|0,0:2|0:0,0:1:0:0:
337,131,49580,6,0,P|365:113|401:91,1,55,12|12,0:3|0:3,0:0:0:0:
467,142,49724,5,4,0:2:0:0:
496,78,49820,5,0,0:2:0:0:
448,25,49916,5,2,0:2:0:0:
383,101,50012,6,0,P|293:87|245:23,1,165.000006294251,8|4,0:2|0:2,0:0:0:0:
25,48,50301,1,0,0:0:0:0:
95,247,50445,1,0,1:1:0:0:
296,215,50589,5,12,0:2:0:0:
122,165,50734,1,0,0:0:0:0:
246,48,50878,1,0,1:1:0:0:
467,145,51022,5,6,0:2:0:0:
440,149,51094,1,2,0:2:0:0:
420,170,51166,1,8,0:2:0:0:
410,208,51238,1,8,0:2:0:0:
421,255,51311,1,8,0:2:0:0:
397,299,51383,1,0,0:0:0:0:
346,320,51455,1,8,0:2:0:0:
290,294,51527,1,0,0:0:0:0:
250,231,51599,6,0,P|267:184|285:117,1,110,6|0,0:2|0:0,0:0:0:0:
58,16,51887,1,8,0:3:0:0:
58,16,51960,1,8,0:3:0:0:
58,16,52032,6,0,P|83:71|93:122,1,110,4|2,0:2|0:2,0:0:0:0:
74,300,52320,1,8,0:2:0:0:
250,231,52464,2,0,P|308:205|322:140,1,110,2|0,0:2|1:1,0:0:0:0:
483,83,52753,2,0,B|492:101|492:101|468:160,1,55
409,199,52897,6,0,P|398:138|379:69,1,110,8|0,0:2|0:0,0:0:0:0:
256,45,53186,1,0,1:1:0:0:
250,231,53330,2,0,P|199:262|172:344,1,110,2|8,0:2|0:2,0:0:0:0:
16,129,53618,2,0,P|40:160|58:218,1,55,0|2,0:0|0:2,0:0:0:0:
14,278,53762,6,0,P|69:251|149:230,1,110,0|4,1:1|0:3,0:0:0:0:
127,157,53979,1,4,0:3:0:0:
127,157,54051,2,0,P|168:177|194:192,1,55,8|0,0:2|0:0,0:0:0:0:
315,273,54195,1,8,0:3:0:0:
332,265,54268,1,8,0:3:0:0:
345,251,54340,5,4,1:1:0:0:
303,142,54484,1,0,0:0:0:0:
261,33,54628,1,8,0:2:0:0:
412,100,54772,5,2,0:2:0:0:
303,142,54916,1,0,1:1:0:0:
194,184,55060,1,0,0:0:0:0:
405,188,55205,6,0,P|439:203|477:219,1,55,8|0,0:2|0:0,0:0:0:0:
211,101,55349,2,0,P|177:86|139:70,1,55,2|0,0:2|0:0,0:0:0:0:
303,142,55493,6,0,B|326:117|316:91|316:91|317:121|284:148,1,110.000004196167,4|0,0:2|0:0,0:0:0:0:
160,78,55686,2,0,B|149:45|123:41|123:41|148:55|155:97,1,110.000004196167,4|0,0:0|0:0,0:0:0:0:
82,198,55878,2,0,B|48:190|32:211|32:211|56:196|96:211,1,110.000004196167,4|0,0:0|0:0,0:0:0:0:
267,217,56070,6,0,B|251:229|232:235|232:235|257:238|267:223,1,73.3333333333333,4|0,0:0|0:0,0:0:0:0:
352,286,56262,2,0,B|354:305|350:324|350:324|365:304|357:289,1,73.3333333333333,4|0,0:0|0:0,0:0:0:0:
453,253,56455,2,0,B|471:260|485:273|485:273|476:250|458:249,1,73.3333333333333,4|0,0:0|0:0,0:0:0:0:
383,153,56647,5,2,0:2:0:0:
383,153,56695,1,2,0:2:0:0:
383,153,56743,1,2,0:2:0:0:
383,153,56791,2,2,P|391:128|386:102,2,36.6666666666667,2|2|2,0:2|0:2|0:2,0:2:0:0:
298,119,56936,5,2,0:2:0:0:
298,119,56984,1,2,0:2:0:0:
298,119,57032,1,2,0:2:0:0:
298,119,57080,2,2,P|281:133|269:165,8,36.6666666666667,2|2|2|2|2|2|2|2|2,0:2|0:2|0:2|0:2|0:2|0:2|0:2|0:2|0:2,0:2:0:0:
241,49,57512,6,2,P|218:41|207:12,5,36.6666666666667,2|2|2|2|2|2,0:2|0:2|0:2|0:2|0:2|0:2,0:2:0:0:
190,114,57801,6,0,P|169:163|156:241,1,110.000004196167,6|2,0:1|0:2,0:0:0:0:
321,341,58186,1,2,0:2:0:0:
395,207,58378,1,2,0:2:0:0:
402,354,58570,5,2,0:2:0:0:
460,255,58762,1,2,0:2:0:0:
482,374,58955,5,2,0:2:0:0:
306,262,59147,1,2,0:2:0:0:
114,184,59339,1,2,0:2:0:0:
389,38,59532,5,2,0:2:0:0:
331,81,59628,5,2,0:2:0:0:
338,152,59724,5,2,0:2:0:0:
403,181,59820,5,2,0:1:0:0:
461,139,59916,5,2,0:1:0:0:
454,68,60012,5,2,0:1:0:0:
389,38,60109,6,0,P|340:50|267:64,1,110.000004196167,2|2,0:1|0:1,0:0:0:0:
202,186,60493,1,2,0:2:0:0:
28,127,60686,1,2,0:1:0:0:
157,248,60878,5,2,0:1:0:0:
33,203,61070,1,2,0:1:0:0:
118,314,61262,5,2,0:2:0:0:
306,247,61455,1,2,0:2:0:0:
490,173,61647,1,2,0:2:0:0:
196,9,61839,6,0,B|171:58|203:131|232:79|266:145|237:208,1,220.000008392334,2|0,0:1|0:0,0:0:0:0:
98,247,62320,5,2,0:2:0:0:
109,249,62368,1,2,0:2:0:0:
114,257,62416,5,6,0:2:0:0:
162,312,62512,5,2,0:2:0:0:
231,335,62609,5,2,0:2:0:0:
302,320,62705,5,2,0:2:0:0:
355,271,62801,5,2,0:2:0:0:
376,202,62897,5,2,0:2:0:0:
313,158,62993,5,2,0:2:0:0:
255,115,63089,5,2,0:2:0:0:
262,44,63185,5,2,0:2:0:0:
327,15,63281,5,2,0:2:0:0:
385,57,63377,5,2,0:2:0:0:
378,128,63473,5,2,0:2:0:0:
313,158,63570,5,2,0:2:0:0:
250,197,63666,5,2,0:2:0:0:
177,202,63763,5,2,0:2:0:0:
113,168,63859,5,2,0:2:0:0:
74,108,63955,5,2,0:2:0:0:
72,35,64051,5,2,0:2:0:0:
144,13,64147,5,2,0:2:0:0:
209,48,64243,5,2,0:2:0:0:
250,108,64340,5,2,0:2:0:0:
252,181,64436,5,2,0:2:0:0:
220,244,64532,5,2,0:2:0:0:
157,283,64628,5,2,0:2:0:0:
84,261,64724,5,2,0:0:0:0:
60,251,64796,1,2,0:0:0:0:
50,228,64868,1,2,0:0:0:0:
56,201,64940,1,2,0:0:0:0:
85,186,65012,1,2,0:0:0:0:
126,193,65085,1,2,0:0:0:0:
159,230,65157,1,2,0:0:0:0:
173,288,65229,1,2,0:0:0:0:
152,359,65301,6,0,P|122:365|87:375,3,41.2500015735627,2|2|2|2,0:0|0:0|0:0|0:0,0:0:0:0:
230,372,65589,1,2,0:0:0:0:
262,359,65661,1,2,0:0:0:0:
295,325,65734,1,2,0:0:0:0:
308,268,65806,1,2,0:0:0:0:
252,221,65878,5,2,0:0:0:0:
226,208,65950,1,2,0:0:0:0:
209,181,66022,1,2,0:0:0:0:
202,139,66094,1,2,0:0:0:0:
228,98,66166,1,2,0:0:0:0:
280,81,66238,1,2,0:0:0:0:
334,99,66311,1,2,0:0:0:0:
361,155,66383,1,2,0:0:0:0:
341,225,66455,6,0,P|331:251|326:284,3,41.2500015735627,2|2|2|2,0:1|0:1|0:1|0:1,0:0:0:0:
423,232,66743,1,2,0:1:0:0:
450,213,66815,1,2,0:1:0:0:
465,170,66887,1,2,0:1:0:0:
259,320,67032,6,0,P|216:314|118:267,1,146.666666666667,6|2,0:1|0:2,0:0:0:0:
206,124,67416,1,8,0:2:0:0:
390,63,67609,1,2,0:2:0:0:
257,187,67801,5,0,1:1:0:0:
67,137,67993,1,2,0:2:0:0:
252,62,68186,5,8,0:2:0:0:
322,235,68378,1,2,0:2:0:0:
485,331,68570,1,0,1:1:0:0:
63,336,68762,5,2,0:1:0:0:
91,270,68859,5,2,0:1:0:0:
159,245,68955,5,2,0:1:0:0:
280,128,69147,5,2,0:1:0:0:
252,62,69244,5,2,0:1:0:0:
184,37,69339,6,0,P|131:49|39:73,1,146.666666666667,6|2,0:1|0:0,0:0:0:0:
227,283,69724,1,8,0:2:0:0:
403,193,69916,1,2,0:2:0:0:
291,333,70109,5,0,1:1:0:0:
106,281,70301,1,2,0:0:0:0:
229,382,70493,5,8,0:2:0:0:
285,215,70686,1,2,0:2:0:0:
406,87,70878,1,2,0:1:0:0:
43,36,71070,5,2,0:1:0:0:
43,36,71551,5,2,0:3:0:0:
52,41,71599,1,2,0:3:0:0:
54,50,71647,5,6,0:2:0:0:
80,118,71743,5,2,0:0:0:0:
137,164,71840,5,2,0:0:0:0:
209,174,71936,5,0,1:1:0:0:
276,146,72032,5,2,0:0:0:0:
319,88,72128,5,2,0:0:0:0:
251,62,72224,5,0,1:1:0:0:
178,63,72320,5,2,0:0:0:0:
115,101,72417,5,2,0:0:0:0:
81,165,72513,5,0,1:1:0:0:
84,237,72609,5,2,0:0:0:0:
124,298,72705,5,2,0:0:0:0:
189,328,72801,5,0,1:1:0:0:
247,285,72897,5,2,0:0:0:0:
240,214,72993,5,2,0:0:0:0:
175,185,73089,5,0,1:1:0:0:
117,227,73185,5,2,0:0:0:0:
124,298,73281,5,2,0:0:0:0:
189,328,73378,5,0,1:1:0:0:
259,325,73474,5,2,0:0:0:0:
323,287,73571,5,2,0:0:0:0:
357,222,73667,5,0,1:1:0:0:
354,149,73763,5,2,0:0:0:0:
314,90,73859,5,2,0:0:0:0:
244,62,73955,5,6,0:2:0:0:
218,66,74027,1,0,0:0:0:0:
200,86,74099,1,2,0:2:0:0:
193,119,74171,1,0,0:0:0:0:
207,159,74243,1,2,0:2:0:0:
182,206,74315,1,2,0:2:0:0:
128,213,74387,1,0,1:1:0:0:
79,182,74460,1,2,0:2:0:0:
22,137,74532,6,0,P|28:99|38:58,3,55,2|0|2|0,0:2|0:0|0:2|1:1,0:0:0:0:
5,214,74820,1,2,0:2:0:0:
0,251,74892,1,2,0:2:0:0:
22,292,74964,1,2,0:2:0:0:
74,306,75036,1,2,0:0:0:0:
141,269,75109,5,0,1:1:0:0:
167,256,75181,1,2,0:2:0:0:
184,229,75253,1,2,0:2:0:0:
191,187,75325,1,2,0:2:0:0:
165,146,75397,1,2,0:2:0:0:
113,129,75469,1,0,0:0:0:0:
59,147,75542,1,0,1:1:0:0:
32,203,75613,1,2,0:0:0:0:
19,275,75686,6,0,P|25:298|39:362,3,55,2|0|2|0,0:0|0:0|0:2|0:0,0:0:0:0:
105,282,75974,1,2,0:2:0:0:
140,294,76046,1,2,0:0:0:0:
164,332,76118,1,2,1:1:0:0:
329,339,76262,5,6,0:1:0:0:
375,191,76407,1,4,0:3:0:0:
417,258,76551,5,4,0:3:0:0:
276,170,76695,1,4,0:3:0:0:
339,24,76839,5,12,0:3:0:0:
242,75,76984,1,12,0:3:0:0:
215,222,77128,5,12,0:3:0:0:
138,194,77272,1,12,0:3:0:0:
26,112,77416,5,2,0:1:0:0:
78,247,77561,1,4,0:3:0:0:
104,125,77705,5,4,0:3:0:0:
137,21,77849,1,4,0:3:0:0:
276,170,77993,5,4,0:3:0:0:
247,83,78137,1,12,0:3:0:0:
382,99,78282,5,12,0:3:0:0:
406,27,78426,1,12,0:3:0:0:
492,153,78570,5,2,0:1:0:0:
334,215,78714,1,4,0:3:0:0:
372,360,78859,5,4,0:3:0:0:
496,371,79003,1,4,0:3:0:0:
496,231,79147,5,4,0:3:0:0:
395,267,79291,1,12,0:3:0:0:
372,360,79436,5,12,0:3:0:0:
294,346,79580,1,12,0:3:0:0:
162,208,79724,6,0,P|113:220|17:244,1,110,2|12,0:1|0:3,0:0:0:0:
45,338,80012,1,12,0:3:0:0:
140,98,80157,1,2,0:1:0:0:
8,169,80301,5,0,0:0:0:0:
223,257,80445,1,2,0:1:0:0:
361,57,80589,5,2,0:1:0:0:
162,208,80734,1,2,1:1:0:0:
435,379,80878,6,0,P|448:325|473:238,1,110,0|0,1:1|1:1,0:0:0:0:
314,120,81166,1,0,1:1:0:0:
506,22,81311,1,0,1:1:0:0:
411,102,81455,6,0,P|404:134|393:198,1,55,0|2,1:1|0:0,0:0:0:0:
487,117,81599,2,0,P|480:149|469:213,1,55,0|2,1:1|0:0,0:0:0:0:
340,233,81743,5,0,1:1:0:0:
300,243,81815,1,2,0:0:0:0:
267,272,81887,1,0,1:1:0:0:
255,326,81960,1,2,0:0:0:0:
194,370,82032,5,8,0:2:0:0:
152,383,82104,1,2,0:0:0:0:
107,365,82176,1,8,0:2:0:0:
87,321,82248,1,2,0:0:0:0:
105,272,82320,1,8,0:2:0:0:
154,245,82392,1,2,0:0:0:0:
178,192,82464,1,8,0:2:0:0:
153,137,82536,1,2,0:0:0:0:
89,99,82609,5,8,0:2:0:0:
107,42,82681,1,2,0:0:0:0:
159,16,82753,1,8,0:2:0:0:
210,25,82825,1,2,0:0:0:0:
244,55,82897,1,8,0:2:0:0:
251,91,82969,1,2,0:0:0:0:
244,121,83041,1,8,0:2:0:0:
227,133,83113,1,2,0:0:0:0:
213,130,83186,5,8,0:2:0:0:
189,120,83258,1,8,0:2:0:0:
157,121,83330,1,8,0:2:0:0:
128,151,83402,1,8,0:2:0:0:
122,197,83474,1,8,0:2:0:0:
147,241,83546,1,8,0:2:0:0:
199,263,83618,1,8,0:2:0:0:
255,242,83690,1,8,0:2:0:0:
291,178,83762,5,8,0:2:0:0:
264,130,83835,1,8,0:2:0:0:
273,75,83907,1,8,0:2:0:0:
324,44,83979,1,8,0:2:0:0:
387,51,84051,1,8,0:2:0:0:
433,104,84123,1,8,0:2:0:0:
437,179,84195,1,8,0:2:0:0:
397,250,84267,1,8,0:2:0:0:
175,52,84484,6,0,B|145:59|143:89|143:89|160:64|220:33,1,110,4|0,0:0|0:0,0:3:0:0:
337,52,84628,2,0,B|367:59|368:89|368:89|352:64|292:33,1,110,4|0,0:0|0:0,0:3:0:0:
67,110,84772,6,0,P|116:129|170:201,1,110,4|0,0:0|0:0,0:3:0:0:
445,110,84916,2,0,P|396:129|342:201,1,110,4|0,0:0|0:0,0:3:0:0:
96,318,85061,6,0,P|137:258|196:245,1,110,4|0,0:0|0:0,0:3:0:0:
416,318,85205,2,6,P|375:258|316:245,1,110,6|0,0:1|0:0,0:3:0:0:
256,192,85349,5,14,0:3:0:0:
478,8,85493,6,0,P|462:81|437:214,1,197.99999395752,4|0,0:2|0:0,0:0:0:0:
360,207,85782,2,0,P|340:171|323:136,1,65.9999979858399,8|0,0:2|0:0,0:0:0:0:
159,41,85926,2,0,B|137:68|137:68|143:149,1,65.9999979858399
217,92,86070,6,0,P|301:74|374:60,1,131.99999597168,2|0,0:2|1:1,0:0:0:0:
163,186,86286,1,0,0:0:0:0:
163,186,86359,2,0,P|97:172|7:158,1,131.99999597168,8|0,0:2|0:0,0:0:0:0:
293,252,86647,6,0,P|365:308|391:393,1,131.99999597168,2|0,1:1|0:0,0:0:0:0:
512,50,86936,2,0,P|484:111|399:189,1,131.99999597168,10|0,0:2|0:0,0:0:0:0:
489,230,87152,1,0,1:1:0:0:
489,230,87224,2,0,P|462:240|406:268,1,65.9999979858399,0|0,0:2|0:2,0:0:0:0:
313,183,87368,2,0,P|276:160|269:129,1,65.9999979858399,0|0,1:1|0:0,0:0:0:0:
215,32,87512,6,0,P|190:41|102:64,1,65.9999979858399,8|0,0:2|0:0,0:0:0:0:
5,197,87657,2,0,P|61:204|114:214,1,65.9999979858399,2|0,0:2|0:0,0:0:0:0:
45,4,87801,6,0,P|71:70|83:148,1,131.99999597168,2|0,1:1|0:0,0:0:0:0:
167,141,88017,1,2,0:2:0:0:
167,141,88089,2,0,P|155:182|147:238,1,65.9999979858399,8|0,0:0|0:0,0:0:0:0:
36,279,88234,1,2,0:2:0:0:
198,371,88378,5,2,0:1:0:0:
298,246,88522,1,2,0:2:0:0:
308,230,88595,1,2,0:2:0:0:
312,211,88667,1,10,0:2:0:0:
476,261,88811,2,0,P|492:292|489:324,1,65.9999979858399,2|0,0:2|0:0,0:0:0:0:
400,286,88955,6,0,B|389:252|389:252|440:162|440:162|395:101,1,197.99999395752,2|0,1:1|0:0,0:0:0:0:
279,35,89243,2,0,B|314:53|327:95|327:95|339:59|391:29,1,131.99999597168,10|2,0:2|0:2,0:0:0:0:
246,110,89460,1,0,1:1:0:0:
246,110,89532,6,0,P|207:98|171:88,1,65.9999979858399,0|0,1:1|0:0,0:0:0:0:
42,212,89676,2,0,P|81:200|117:190,1,65.9999979858399,0|0,1:1|0:0,0:0:0:0:
38,64,89820,6,0,P|50:96|63:151,1,65.9999979858399,8|0,0:2|0:0,0:0:0:0:
200,175,89964,2,0,P|188:207|175:262,1,65.9999979858399,2|0,0:2|0:0,0:0:0:0:
105,362,90109,6,0,P|187:279|272:261,1,197.99999395752,4|0,0:2|0:0,0:0:0:0:
351,277,90397,2,0,P|341:224|333:166,1,65.9999979858399,8|0,0:2|0:0,0:0:0:0:
101,223,90541,6,2,P|178:293|215:398,1,197.99999395752,2|0,0:1|0:0,0:1:0:0:
289,381,90830,2,0,P|330:361|366:350,1,65.9999979858399,0|0,1:1|0:0,0:0:0:0:
424,228,90974,2,0,P|436:156|454:78,1,131.99999597168,8|0,0:2|0:0,0:0:0:0:
190,18,91262,6,0,P|201:56|213:119,1,65.9999979858399,0|0,1:1|0:0,0:0:0:0:
322,132,91407,1,2,0:2:0:0:
334,120,91480,1,2,0:2:0:0:
339,103,91552,1,10,0:2:0:0:
116,94,91695,1,2,1:1:0:0:
116,94,91767,2,0,P|149:152|170:249,1,131.99999597168,0|0,1:1|0:0,0:0:0:0:
236,251,91984,2,0,P|272:235|285:189,1,65.9999979858399,0|0,1:1|0:0,0:0:0:0:
205,81,92128,2,0,P|143:130|84:284,1,197.99999395752,8|0,0:2|0:0,0:0:0:0:
5,232,92416,6,0,P|17:261|32:313,1,65.9999979858399,0|0,1:1|0:0,0:0:0:0:
130,354,92561,1,2,0:2:0:0:
142,342,92634,1,2,0:2:0:0:
147,325,92706,1,10,0:2:0:0:
236,251,92849,2,2,P|332:284|438:324,1,197.99999395752,2|0,0:1|0:0,0:1:0:0:
491,355,93137,6,0,B|508:331|508:331|493:271,1,65.9999979858399,0|0,1:1|0:0,0:0:0:0:
408,192,93282,2,0,P|371:199|299:208,1,65.9999979858399,10|0,0:1|0:0,0:0:0:0:
275,92,93426,2,0,B|258:68|258:68|273:8,1,65.9999979858399,2|0,0:2|0:0,0:0:0:0:
411,65,93570,6,0,P|381:60|322:50,1,65.9999979858399,0|0,1:1|0:0,0:0:0:0:
203,181,93714,2,0,P|233:176|292:166,1,65.9999979858399,8|0,0:2|0:0,0:0:0:0:
408,192,93859,6,0,P|401:223|391:298,1,65.9999979858399,8|0,0:2|0:0,0:0:0:0:
266,285,94003,1,10,0:2:0:0:
254,273,94076,1,10,0:2:0:0:
249,256,94148,1,10,0:2:0:0:
189,320,94291,6,2,B|187:249|231:230|231:230|236:241|236:241|314:207|303:121|303:121|297:163|250:176,1,329.9999899292,6|0,0:1|0:0,0:1:0:0:
226,104,94724,6,0,P|173:119|139:135,1,82.5,4|0,1:1|0:0,0:0:0:0:
23,59,95012,6,0,P|69:90|140:216,1,197.99999395752,10|0,0:2|0:0,0:0:0:0:
128,286,95301,2,0,B|150:295|150:295|209:264,1,65.9999979858399,2|0,0:2|0:0,0:0:0:0:
267,169,95445,2,0,P|311:178|342:189,1,65.9999979858399,0|0,1:1|0:0,0:0:0:0:
430,311,95589,2,0,P|450:237|479:149,1,131.99999597168,8|0,0:2|0:0,0:0:0:0:
313,9,95878,6,0,P|355:71|391:153,1,131.99999597168,2|0,1:1|0:0,0:0:0:0:
350,328,96166,2,0,P|290:310|286:229,1,131.99999597168,8|0,0:2|0:0,0:0:0:0:
303,151,96383,1,0,1:1:0:0:
303,151,96455,2,0,P|263:170|200:193,1,65.9999979858399
430,311,96599,2,0,P|470:330|533:353,1,65.9999979858399,0|0,1:1|0:0,0:0:0:0:
379,122,96743,6,0,P|367:91|350:63,1,65.9999979858399,8|0,0:2|0:0,0:0:0:0:
504,187,96887,2,0,P|483:219|480:265,1,65.9999979858399,2|0,0:2|0:0,0:0:0:0:
503,2,97032,6,0,P|485:28|457:139,1,131.99999597168,2|0,1:1|0:0,0:0:0:0:
408,200,97248,1,2,0:2:0:0:
408,200,97320,2,0,P|372:212|317:229,1,65.9999979858399,8|0,0:0|0:0,0:0:0:0:
243,131,97464,1,2,0:2:0:0:
242,354,97609,5,2,0:2:0:0:
51,279,97753,1,0,1:1:0:0:
38,264,97826,1,2,0:2:0:0:
37,244,97898,1,10,0:2:0:0:
170,100,98041,2,0,P|149:123|145:193,1,65.9999979858399,2|0,0:2|0:0,0:0:0:0:
98,21,98186,6,2,B|119:57|119:57|289:94,1,197.99999395752,2|0,0:1|0:0,0:1:0:0:
313,173,98474,2,0,B|363:95|363:95|342:57,1,131.99999597168,8|2,0:2|0:2,0:0:0:0:
228,166,98690,1,0,1:1:0:0:
228,166,98762,2,0,P|243:205|257:258,1,65.9999979858399,0|0,1:1|0:0,0:0:0:0:
427,294,98907,2,0,P|409:326|391:396,1,65.9999979858399,0|0,1:1|0:0,0:0:0:0:
224,329,99051,6,0,P|262:309|298:296,1,65.9999979858399,8|0,0:2|0:0,0:0:0:0:
456,221,99195,2,0,P|417:201|382:188,1,65.9999979858399,0|2,0:0|0:2,0:0:0:0:
228,166,99339,6,0,P|137:114|164:8,1,197.99999395752,4|0,1:1|0:0,0:0:0:0:
305,50,99628,2,0,P|291:89|290:142,1,65.9999979858399,8|0,0:2|0:0,0:0:0:0:
62,146,99772,6,0,P|7:275|45:347,1,197.99999395752,2|0,1:1|0:0,0:0:0:0:
87,279,100061,2,0,P|86:240|110:202,1,65.9999979858399,0|0,1:1|0:0,0:0:0:0:
238,273,100205,2,0,P|320:293|381:302,1,131.99999597168,8|0,0:2|0:0,0:0:0:0:
427,105,100493,6,0,P|399:142|382:191,1,65.9999979858399,4|0,1:1|0:0,0:0:0:0:
292,210,100637,1,2,0:2:0:0:
280,198,100710,1,2,0:2:0:0:
275,181,100782,1,10,0:2:0:0:
390,159,100926,2,0,P|321:183|223:314,1,197.99999395752,2|0,1:1|0:0,0:0:0:0:
366,300,101214,2,0,P|370:335|415:372,1,65.9999979858399,0|0,1:1|0:0,0:0:0:0:
497,244,101359,5,8,0:2:0:0:
270,373,101503,1,0,0:0:0:0:
390,159,101647,6,0,P|413:74|452:16,1,131.99999597168,4|2,1:1|0:2,0:0:0:0:
42,29,101936,2,0,P|84:89|102:158,1,131.99999597168,8|0,1:1|0:0,0:0:0:0:
180,183,102152,1,0,0:0:0:0:
180,183,102224,2,0,P|215:164|235:125,1,65.9999979858399,0|0,1:1|0:0,0:0:0:0:
211,34,102368,1,2,0:2:0:0:
0,156,102512,1,8,1:1:0:0:
150,257,102657,2,0,P|179:285|188:346,1,65.9999979858399,2|0,0:2|0:0,0:0:0:0:
261,344,102801,6,0,P|292:318|327:299,1,65.9999979858399,0|0,1:1|0:0,0:0:0:0:
458,213,102945,2,0,P|417:209|373:209,1,65.9999979858399,8|0,0:2|0:0,0:0:0:0:
165,48,103089,6,0,P|205:104|242:216,1,131.99999597168,8|8,0:2|0:2,0:0:0:0:
316,171,103306,1,8,0:2:0:0:
316,171,103378,1,0,1:1:0:0:
316,171,103450,2,0,P|342:140|326:80,1,65.9999979858399,8|0,2:0|0:2,0:0:0:0:
460,18,103594,2,0,P|486:49|470:109,1,65.9999979858399,8|6,0:2|0:3,0:0:0:0:
446,153,103738,1,6,0:3:0:0:
430,159,103811,1,12,0:3:0:0:
418,171,103884,1,12,0:3:0:0:
413,188,103955,6,0,P|333:209|258:332,1,197.99999395752,4|0,0:2|0:0,0:0:0:0:
190,347,104243,2,0,P|186:306|170:260,1,65.9999979858399,8|0,0:2|0:0,0:0:0:0:
25,69,104387,6,0,P|97:84|234:133,1,197.99999395752,4|0,0:2|0:0,0:0:0:0:
293,101,104676,2,0,B|307:80|307:80|288:29,1,65.9999979858399,8|0,0:2|0:0,0:0:0:0:
182,11,104820,6,0,P|141:63|96:228,1,197.99999395752,4|0,0:2|0:0,0:0:0:0:
18,179,105109,2,0,P|26:213|48:268,1,65.9999979858399,8|0,0:2|0:0,0:0:0:0:
176,202,105253,6,0,P|207:265|289:322,1,131.99999597168,4|0,0:2|0:0,0:0:0:0:
310,366,105469,1,0,0:0:0:0:
310,366,105541,2,0,P|354:307|420:250,1,131.99999597168,4|0,0:2|1:1,0:0:0:0:
453,116,105758,1,0,0:0:0:0:
453,116,105830,6,0,P|463:152|468:199,1,65.9999979858399,4|0,2:0|0:0,0:0:0:0:
387,187,105974,1,2,0:0:0:0:
352,191,106046,1,2,0:0:0:0:
314,172,106118,1,14,0:3:0:0:
301,120,106190,1,14,0:3:0:0:
331,48,106262,5,6,0:2:0:0:
287,16,106335,1,2,0:0:0:0:
236,19,106407,1,2,0:0:0:0:
214,53,106479,1,2,0:0:0:0:
215,88,106551,1,10,0:2:0:0:
184,120,106623,1,2,0:0:0:0:
131,118,106695,1,6,0:2:0:0:
105,66,106767,1,2,0:0:0:0:
30,83,106839,5,2,0:0:0:0:
6,152,106935,5,2,0:0:0:0:
20,223,107032,5,2,0:0:0:0:
69,277,107128,5,6,0:2:0:0:
138,298,107224,5,2,0:0:0:0:
208,282,107320,5,2,0:0:0:0:
260,228,107416,6,0,P|266:194|275:154,1,65.9999979858399,10|0,0:2|0:0,0:0:0:0:
165,31,107561,6,0,P|182:96|193:185,1,131.99999597168,4|12,0:2|0:3,0:0:0:0:
267,85,107777,1,12,0:3:0:0:
267,85,107849,2,0,P|351:104|404:123,1,131.99999597168,4|0,0:2|1:1,0:0:0:0:
136,216,108065,1,0,0:0:0:0:
136,216,108137,6,0,P|22:168|41:78,1,197.99999395752,4|0,0:2|0:0,0:0:0:0:
18,15,108426,2,0,P|50:35|82:58,1,65.9999979858399,12|12,0:3|0:3,0:0:0:0:
191,160,108570,6,0,P|267:106|387:73,1,197.99999395752,4|2,0:2|0:2,0:0:0:0:
420,134,108859,2,0,P|457:161|469:197,1,65.9999979858399,8|0,0:2|0:0,0:0:0:0:
177,32,109003,6,0,P|202:55|271:240,1,197.99999395752,4|2,0:2|0:2,0:0:0:0:
344,228,109291,2,0,P|333:267|323:302,1,65.9999979858399,8|0,0:2|0:0,0:0:0:0:
162,141,109436,6,0,P|269:108|353:89,1,197.99999395752,4|2,0:2|0:2,0:0:0:0:
420,134,109724,2,0,P|465:149|494:161,1,65.9999979858399,8|0,0:2|0:0,0:0:0:0:
294,360,109868,6,0,P|197:340|190:271,1,131.99999597168,4|12,0:2|0:3,0:0:0:0:
125,267,110085,1,12,0:3:0:0:
125,267,110157,2,0,P|141:196|166:129,1,131.99999597168,4|0,1:1|1:1,0:0:0:0:
70,35,110373,1,0,0:0:0:0:
70,35,110445,2,0,P|90:77|94:119,1,65.9999979858399,4|0,0:2|0:0,0:0:0:0:
172,62,110589,5,0,0:0:0:0:
202,33,110661,1,0,0:0:0:0:
256,31,110734,1,12,0:3:0:0:
304,66,110806,1,12,0:3:0:0:
324,135,110878,6,0,P|310:205|301:315,1,165.000006294251,4|0,0:2|0:0,0:0:0:0:
188,135,111166,2,0,P|203:215|210:298,1,165.000006294251,0|0,1:1|0:0,0:0:0:0:
394,95,111455,6,0,P|358:124|315:238,1,165.000006294251,0|0,1:1|0:0,0:0:0:0:
118,95,111743,2,0,P|154:124|197:238,1,165.000006294251,0|0,1:1|0:0,0:0:0:0:
466,66,112032,6,0,P|383:68|335:2,1,165.000006294251,0|0,1:1|0:0,0:0:0:0:
46,66,112320,2,0,P|129:68|177:2,1,165.000006294251,0|0,1:1|0:0,0:0:0:0:
512,274,112609,6,0,P|434:286|339:307,1,165.000006294251,0|0,1:1|0:0,0:0:0:0:
0,274,112897,2,0,P|78:286|173:307,1,165.000006294251,0|0,1:1|0:0,0:0:0:0:
245,99,113186,5,2,3:0:0:0:
187,142,113282,5,2,3:0:0:0:
194,213,113378,5,2,3:0:0:0:
259,242,113474,5,2,3:0:0:0:
317,200,113570,5,2,3:0:0:0:
310,129,113666,5,2,3:0:0:0:
256,192,113762,12,2,116070,0:0:0:0:
