osu file format v14

[General]
AudioFilename: audio.mp3
AudioLeadIn: 0
PreviewTime: 84411
Countdown: 0
SampleSet: Soft
StackLeniency: 0.7
Mode: 0
LetterboxInBreaks: 0
WidescreenStoryboard: 1

[Editor]
Bookmarks: 1622,8186,17416,28955,47416,57801,67032,85493,103955,113762,116070
DistanceSpacing: 1.4
BeatDivisor: 4
GridSize: 8
TimelineZoom: 2.1

[Metadata]
Title:(0,0)
TitleUnicode:(0,0)
Artist:NIWASHI
ArtistUnicode:庭師
Creator:PaRaDogi
Version:Allice's INSANE
Source:
Tags:fa mpg featured artist mappers guild quest electronic instrumental hardcore artcore down allice calliecube obamacube syncro -syncro Guchiry yokespai emoji entry gordon
BeatmapID:3466808
BeatmapSetID:1696794

[Difficulty]
HPDrainRate:5
CircleSize:4
OverallDifficulty:8
ApproachRate:9
SliderMultiplier:1.8
SliderTickRate:1

[Events]
//Background and Video events
0,0,"93495842_p0_master1200.jpg",0,0
//Break Periods
2,8818,9893
2,11125,12345
2,13578,14509
//Storyboard Layer 0 (Background)
//Storyboard Layer 1 (Fail)
//Storyboard Layer 2 (Pass)
//Storyboard Layer 3 (Foreground)
//Storyboard Layer 4 (Overlay)
//Storyboard Sound Samples

[TimingPoints]
1622,400,4,2,1,45,1,0
6422,294.117647058823,3,2,1,45,1,0
8186,288.461538461539,4,2,1,100,1,0
8402,-100,4,2,1,55,0,0
12224,-100,4,2,1,45,0,0
12945,-100,4,2,1,55,0,0
16262,-100,4,2,1,45,0,0
17128,-133.333333333333,4,2,1,35,0,0
17416,-100,4,2,1,55,0,0
23186,-83.3333333333333,4,2,1,55,0,0
24339,-83.3333333333333,4,2,1,40,0,0
25493,-83.3333333333333,4,2,1,65,0,0
26647,-100,4,2,1,65,0,0
37032,-83.3333333333333,4,2,1,65,0,0
38186,-100,4,2,1,65,0,0
46262,-83.3333333333333,4,2,1,65,0,0
47416,-100,4,2,1,65,0,0
53907,-83.3333333333333,4,2,1,65,0,0
56070,-125,4,2,1,65,0,0
56647,-666.666666666667,4,2,1,65,0,0
57801,-666.666666666667,4,2,1,45,0,0
58955,-200,4,2,1,45,0,0
62416,-100,4,2,1,45,0,0
62705,-105.263157894737,4,2,1,45,0,0
62993,-111.111111111111,4,2,1,45,0,0
63282,-117.647058823529,4,2,1,45,0,0
63570,-125,4,2,1,45,0,0
63859,-133.333333333333,4,2,1,45,0,0
64147,-142.857142857143,4,2,1,45,0,0
64436,-142.857142857143,4,2,1,45,0,0
64724,-142.857142857143,4,2,1,45,0,0
67032,-100,4,2,1,55,0,0
67416,-133.333333333333,4,2,1,55,0,0
67801,-200,4,2,1,55,0,0
69339,-100,4,2,1,45,0,0
69724,-133.333333333333,4,2,1,45,0,0
70108,-200,4,2,1,45,0,0
71647,-100,4,2,1,45,0,0
72032,-105.263157894737,4,2,1,45,0,0
72416,-111.111111111111,4,2,1,45,0,0
72801,-117.647058823529,4,2,1,45,0,0
73186,-125,4,2,1,45,0,0
73570,-133.333333333333,4,2,1,45,0,0
73955,-200,4,2,1,45,0,0
74724,-133.333333333333,4,2,1,45,0,0
75493,-100,4,2,1,45,0,0
76262,-133.333333333333,4,2,1,45,0,0
76551,-166.666666666667,4,2,1,45,0,0
76839,-222.222222222222,4,2,1,45,0,0
77128,-333.333333333333,4,2,1,45,0,0
77416,-133.333333333333,4,2,1,45,0,0
77705,-166.666666666667,4,2,1,45,0,0
77993,-222.222222222222,4,2,1,45,0,0
78282,-333.333333333333,4,2,1,45,0,0
78570,-133.333333333333,4,2,1,45,0,0
78859,-166.666666666667,4,2,1,45,0,0
79147,-222.222222222222,4,2,1,45,0,0
79436,-333.333333333333,4,2,1,45,0,0
79724,-133.333333333333,4,2,1,45,0,0
84484,-133.333333333333,4,2,1,70,0,0
85493,-83.3333333333333,4,2,1,65,0,0
87801,-66.6666666666667,4,2,1,65,0,0
88378,-83.3333333333333,4,2,1,65,0,0
88955,-100,4,2,1,65,0,0
89532,-100,4,2,1,65,0,0
90109,-83.3333333333333,4,2,1,65,0,0
90541,-66.6666666666667,4,2,1,65,0,0
90974,-83.3333333333333,4,2,1,65,0,0
91551,-66.6666666666667,4,2,1,65,0,0
92128,-83.3333333333333,4,2,1,65,0,0
92849,-66.6666666666667,4,2,1,65,0,0
94291,-133.333333333333,4,2,1,65,0,0
94868,-83.3333333333333,4,2,1,65,0,0
97032,-66.6666666666667,4,2,1,65,0,0
97609,-83.3333333333333,4,2,1,65,0,0
98186,-100,4,2,1,65,0,0
99339,-83.3333333333333,4,2,1,65,0,0
99772,-66.6666666666667,4,2,1,65,0,0
100205,-83.3333333333333,4,2,1,65,0,0
100493,-83.3333333333333,4,2,1,65,0,0
100926,-66.6666666666667,4,2,1,65,0,0
101359,-83.3333333333333,4,2,1,65,0,0
102657,-66.6666666666667,4,2,1,65,0,0
103955,-83.3333333333333,4,2,1,65,0,0
110878,-200,4,2,1,65,0,0
111166,-133.333333333333,4,2,1,65,0,0
111455,-100,4,2,1,65,0,0
111743,-80,4,2,1,65,0,0
112032,-66.6666666666667,4,2,1,65,0,0
112320,-57.1428571428571,4,2,1,65,0,0
112609,-50,4,2,1,65,0,0
112897,-44.4444444444445,4,2,1,65,0,0
113186,-100,4,2,1,65,0,0

[Colours]
Combo1 : 199,142,255
Combo2 : 255,125,125
Combo3 : 113,176,255
Combo4 : 255,169,128

[HitObjects]
256,192,6422,12,2,7892,0:0:0:0:
38,166,8186,5,12,2:3:0:0:
187,13,8402,1,12,2:3:0:0:
222,223,8618,1,12,2:3:0:0:
500,325,10493,5,12,2:3:0:0:
351,172,10709,1,12,2:3:0:0:
316,382,10925,1,12,2:3:0:0:
175,44,12945,5,12,2:3:0:0:
60,184,13161,1,12,2:3:0:0:
148,342,13378,1,12,2:3:0:0:
325,341,15109,5,12,2:3:0:0:
440,201,15325,1,12,2:3:0:0:
352,43,15542,1,12,2:3:0:0:
428,69,16262,6,2,B|348:45|348:103|235:166|151:67|174:-45|324:-85|370:24|327:122|268:84|295:212,1,495,2|0,0:1|0:0,0:1:0:0:
199,309,17128,6,0,B|183:318|183:318|164:312|164:312|146:323|146:323|126:317|126:317|107:328,1,101.250003862381,6|0,3:1|0:0,0:0:0:0:
184,295,17416,6,0,B|238:263|238:263|340:351,1,180,4|2,0:2|0:3,0:0:0:0:
459,254,17849,2,0,B|405:222|405:222|303:310,1,180,4|2,0:2|0:3,0:0:0:0:
166,211,18282,2,0,B|220:179|220:179|322:267,1,180,4|2,0:2|0:3,0:0:0:0:
441,170,18715,2,0,B|387:138|387:138|285:226,1,180,4|2,0:2|0:2,0:0:0:0:
192,291,19147,6,0,L|102:287,1,90,0|2,0:0|0:2,0:0:0:0:
26,301,19436,2,0,L|30:211,1,90,0|2,0:0|0:2,0:0:0:0:
77,78,19724,6,0,B|117:62|117:62|209:181,1,180,4|2,0:2|0:3,0:0:0:0:
205,19,20157,2,0,B|245:3|245:3|337:122,1,180,4|2,0:2|0:3,0:0:0:0:
410,247,20589,6,0,B|370:231|370:231|278:350,1,180,4|2,0:2|0:3,0:0:0:0:
282,188,21022,2,0,B|242:172|242:172|150:291,1,180,4|2,0:2|0:2,0:0:0:0:
58,376,21455,2,0,L|148:380,1,90,0|2,0:0|0:2,0:0:0:0:
53,269,21743,5,4,0:3:0:0:
51,249,21815,1,4,0:3:0:0:
51,230,21887,1,4,0:3:0:0:
50,213,21960,1,4,0:3:0:0:
50,194,22032,2,0,P|37:143|6:98,1,90,4|4,0:3|0:3,0:0:0:0:
177,199,22320,2,0,P|189:149|186:94,1,90,4|4,0:3|0:3,0:0:0:0:
290,254,22609,2,0,P|333:218|358:175,1,90,4|4,0:3|0:3,0:0:0:0:
357,357,22897,2,0,P|402:338|447:303,1,90,4|4,0:3|0:3,0:0:0:0:
143,295,23186,6,0,P|78:294|25:306,1,107.999996704102,4|4,0:3|0:3,0:0:0:0:
193,197,23474,2,0,P|143:143|97:113,1,107.999996704102,4|4,0:3|0:3,0:0:0:0:
315,179,23762,2,0,P|324:119|319:65,1,107.999996704102,4|4,0:3|0:3,0:0:0:0:
419,243,24051,2,0,P|472:207|503:171,1,107.999996704102,4|4,0:3|0:3,0:0:0:0:
429,0,24339,5,4,0:2:0:0:
394,26,24532,1,4,0:2:0:0:
441,51,24724,5,4,0:2:0:0:
406,77,24917,1,4,0:2:0:0:
453,102,25109,5,4,0:2:0:0:
418,128,25302,1,4,0:2:0:0:
232,137,25493,5,4,0:2:0:0:
300,184,25686,1,4,0:0:0:0:
220,188,25878,5,4,0:0:0:0:
288,235,26071,1,4,0:2:0:0:
208,239,26263,5,4,0:0:0:0:
276,286,26456,1,4,0:0:0:0:
14,335,26647,6,0,B|140:431|320:378|390:224|349:86|256:16|256:16|256:16|256:16|130:111|132:298|261:408|404:406|498:335,1,1260,14|12,0:3|0:3,0:0:0:0:
489,328,28955,6,0,P|402:332|297:350,1,180,4|8,0:2|0:0,0:0:0:0:
259,204,29387,1,0,1:1:0:0:
259,204,29460,1,0,0:0:0:0:
259,204,29532,2,0,L|245:308,1,90,2|0,0:2|1:1,0:0:0:0:
206,367,29820,2,0,P|127:357|61:334,1,135,8|0,0:0|0:0,0:0:0:0:
56,359,30109,2,0,L|31:159,1,180,0|8,1:1|0:2,0:0:0:0:
156,101,30541,5,0,0:0:0:0:
156,101,30613,2,0,P|166:156|137:246,1,135,0|0,1:1|1:1,0:0:0:0:
271,213,30974,2,0,P|270:159|282:120,1,90,8|0,0:2|0:0,0:0:0:0:
349,93,31190,1,0,0:0:0:0:
349,93,31262,6,0,B|438:110|438:110|469:94,2,120,0|0|0,1:1|0:0|0:0,0:0:0:0:
187,123,31839,2,0,B|98:106|98:106|67:122,2,120,2|0|0,0:0|0:0|0:0,0:0:0:0:
288,221,32416,2,0,P|300:265|310:373,1,135,0|0,1:1|0:0,0:0:0:0:
301,367,32705,1,8,0:2:0:0:
391,283,32849,5,2,0:2:0:0:
391,283,32921,1,0,1:1:0:0:
391,283,32993,2,0,L|482:292,1,90,0|0,0:0|1:1,0:0:0:0:
305,204,33282,2,0,L|214:213,1,90,8|0,0:2|0:0,0:0:0:0:
132,324,33570,6,0,P|56:316|0:203,1,180,0|8,1:1|0:2,0:0:0:0:
139,145,34003,1,2,0:2:0:0:
139,145,34075,1,0,0:0:0:0:
139,145,34147,2,0,P|92:159|38:165,1,90,2|0,0:2|1:1,0:0:0:0:
201,82,34436,2,0,P|248:68|302:62,1,90,8|0,0:2|0:0,0:0:0:0:
352,7,34724,6,0,P|402:69|409:141,1,135,0|0,1:1|0:0,0:0:0:0:
417,129,35012,2,0,P|434:72|477:37,1,90,8|2,0:2|0:2,0:0:0:0:
512,4,35229,1,0,1:1:0:0:
407,208,35445,1,0,1:1:0:0:
330,147,35589,2,0,L|209:167,1,90,8|0,0:2|0:0,0:0:0:0:
177,117,35806,1,0,0:0:0:0:
177,117,35878,6,0,B|115:113|115:113|68:165,2,120,0|0|0,1:1|0:0|0:0,0:0:0:0:
252,244,36455,2,0,B|314:240|314:240|361:292,2,120,2|0|0,0:2|0:0|0:0,0:0:0:0:
17,316,37032,6,2,P|105:366|254:334,1,215.999993408203,2|8,1:1|0:2,0:1:0:0:
100,267,37464,1,2,0:2:0:0:
100,267,37536,1,0,1:1:0:0:
100,267,37609,2,0,L|78:120,1,107.999996704102,0|0,1:1|1:1,0:0:0:0:
224,54,37897,2,0,L|246:201,1,107.999996704102,8|0,0:2|0:0,0:0:0:0:
308,212,38113,1,0,0:0:0:0:
308,212,38186,6,0,P|413:218|485:184,1,180,4|8,0:2|0:2,0:0:0:0:
491,71,38618,1,2,0:2:0:0:
491,71,38690,1,0,0:0:0:0:
491,71,38762,2,0,P|422:53|374:61,1,90,2|0,0:2|1:1,0:0:0:0:
283,0,39051,2,0,L|272:139,1,135,8|0,0:2|0:0,0:0:0:0:
239,160,39339,2,0,P|165:140|65:168,1,180,0|8,1:1|0:2,0:0:0:0:
0,308,39772,5,0,0:0:0:0:
0,308,39844,2,0,L|162:338,1,135,0|0,1:1|1:1,0:0:0:0:
125,239,40205,2,0,L|214:257,1,90,8|0,0:2|0:0,0:0:0:0:
245,331,40421,1,0,0:0:0:0:
245,331,40493,6,0,B|272:343|272:343|362:331,2,120,0|0|0,1:1|0:0|0:0,0:0:0:0:
394,244,41070,2,0,B|421:256|421:256|511:244,2,120,2|0|0,0:2|0:0|0:0,0:0:0:0:
307,140,41647,2,0,P|297:43|282:-26,1,135,0|0,1:1|0:0,0:0:0:0:
278,0,41936,1,8,0:2:0:0:
395,37,42080,5,0,0:0:0:0:
395,37,42152,1,0,1:1:0:0:
395,37,42224,2,0,P|396:93|407:139,1,90,0|0,1:1|1:1,0:0:0:0:
482,28,42512,2,0,P|490:72|489:117,1,90,8|0,0:2|0:0,0:0:0:0:
510,260,42801,6,0,P|467:322|341:316,1,180,0|8,1:1|0:2,0:0:0:0:
267,384,43234,1,2,0:2:0:0:
267,384,43306,1,0,0:0:0:0:
267,384,43378,2,0,L|251:258,1,90,2|0,0:2|1:1,0:0:0:0:
184,189,43666,2,0,L|168:63,1,90,8|0,0:2|0:0,0:0:0:0:
285,21,43955,6,0,P|350:21|396:72,1,135,0|0,1:1|0:0,0:0:0:0:
404,78,44243,2,0,P|355:82|315:124,1,90,8|0,0:2|0:0,0:0:0:0:
387,152,44460,1,0,1:1:0:0:
206,22,44676,1,0,1:1:0:0:
149,79,44820,2,0,L|50:90,1,90,8|2,0:2|0:2,0:0:0:0:
12,156,45036,1,2,0:2:0:0:
12,156,45109,6,0,B|89:197|89:197|105:233,2,120,0|0|0,1:1|0:0|0:0,0:0:0:0:
138,301,45686,2,0,B|215:260|215:260|231:224,2,120,2|0|0,0:2|0:0|0:0,0:0:0:0:
259,152,46262,6,0,P|316:175|372:310,1,215.999993408203,6|8,1:1|0:2,0:0:0:0:
496,187,46695,1,0,0:0:0:0:
496,187,46767,1,0,1:1:0:0:
496,187,46839,2,0,P|427:192|379:233,1,107.999996704102,0|0,1:1|1:1,0:0:0:0:
300,371,47128,2,0,P|221:372|146:292,1,161.999995056153,8|2,0:2|0:2,0:0:0:0:
164,305,47416,6,0,B|129:333|129:333|83:329,1,90,4|4,0:2|0:3,0:0:0:0:
67,348,47705,1,8,0:2:0:0:
112,165,47849,6,0,B|153:181|153:181|173:222,1,90,4|8,0:2|0:3,0:0:0:0:
198,228,48138,1,8,0:2:0:0:
17,280,48282,6,0,B|10:235|10:235|35:198,1,90,4|4,0:2|0:3,0:0:0:0:
28,174,48571,1,8,0:2:0:0:
132,290,48714,6,0,L|257:317,1,90,4|12,0:2|0:3,0:0:0:0:
355,265,49003,2,0,L|480:292,1,90,12|8,0:3|0:2,0:0:0:0:
512,158,49291,6,2,B|490:67|490:67|405:82,1,180,4|12,0:2|0:3,0:1:0:0:
397,93,49652,1,12,0:3:0:0:
389,104,49724,6,0,L|414:202,1,90,4|0,0:2|0:0,0:0:0:0:
436,197,50012,1,8,0:2:0:0:
295,192,50157,6,0,L|320:290,1,90,4|0,0:2|0:0,0:0:0:0:
342,285,50445,1,0,1:1:0:0:
201,280,50589,6,0,L|226:378,1,90,12|0,0:2|0:0,0:0:0:0:
248,373,50877,1,0,1:1:0:0:
60,349,51022,6,0,L|105:355,3,45,6|2|8|8,0:2|0:2|0:2|0:2,0:0:0:0:
47,265,51311,2,0,L|92:271,3,45,8|0|8|0,0:2|0:0|0:2|0:0,0:0:0:0:
37,176,51599,2,0,L|82:182,3,45,6|0|0|0,0:2|0:0|0:0|0:0,0:0:0:0:
170,201,51887,5,8,0:3:0:0:
170,201,51960,1,8,0:3:0:0:
170,201,52032,2,0,P|225:190|263:175,1,90,4|2,0:2|0:2,0:0:0:0:
333,208,52320,2,0,P|344:148|342:92,1,90,8|2,0:2|0:2,0:0:0:0:
410,72,52609,2,0,P|381:29|344:0,1,90,0|0,1:1|0:0,0:0:0:0:
170,201,52897,6,0,P|207:243|239:268,1,90,8|0,0:2|0:0,0:0:0:0:
244,345,53185,2,0,P|301:324|348:294,1,90,0|2,1:1|0:2,0:0:0:0:
401,344,53474,2,0,P|423:297|430:250,1,90,8|0,0:2|0:0,0:0:0:0:
508,246,53762,1,0,1:1:0:0:
371,159,53907,6,0,B|283:167|283:167|257:190|257:190|164:198,1,215.999993408203,4|8,0:3|0:3,0:0:0:0:
142,216,54267,1,8,0:3:0:0:
121,233,54339,1,4,1:1:0:0:
40,213,54484,1,0,0:0:0:0:
64,293,54628,1,8,0:2:0:0:
74,176,54772,5,2,0:2:0:0:
23,292,54916,1,0,1:1:0:0:
134,337,55061,1,0,0:0:0:0:
177,216,55205,2,0,P|165:146|161:76,1,107.999996704102,8|2,0:2|0:2,0:0:0:0:
451,47,55493,6,0,P|464:116|473:199,2,143.999995605469,4|4|4,0:2|0:0|0:0,0:0:0:0:
312,90,56070,6,0,P|317:137|326:184,2,96,4|4|4,0:0|0:0|0:0,0:0:0:0:
180,123,56647,6,0,P|187:162|191:203,1,80.9999975280763,2|2,0:2|0:1,0:0:0:0:
160,239,57801,5,6,0:1:0:0:
31,200,57993,1,2,0:2:0:0:
61,330,58186,1,2,0:2:0:0:
117,220,58378,1,2,0:2:0:0:
44,245,58570,1,2,0:2:0:0:
103,298,58762,1,2,0:2:0:0:
20,294,58955,2,0,P|106:253|203:296,1,180,2|2,0:2|0:2,0:0:0:0:
417,43,60109,5,2,0:1:0:0:
435,172,60301,1,2,0:1:0:0:
455,301,60493,1,2,0:2:0:0:
399,241,60686,1,2,0:1:0:0:
417,165,60878,1,2,0:1:0:0:
435,89,61070,1,2,0:1:0:0:
314,194,61262,2,0,P|264:165|126:150,1,180,2|2,0:2|0:1,0:0:0:0:
7,136,62320,6,0,L|10:117,1,15,2|2,0:2|0:2,0:0:0:0:
11,110,62416,6,0,L|17:50,2,60,6|2|2,0:2|0:2|0:2,0:0:0:0:
91,144,62705,2,0,L|144:98,2,56.9999984779358,2|2|2,0:2|0:2|0:2,0:0:0:0:
124,226,62993,2,0,L|184:224,2,53.9999983520508,2|2|2,0:2|0:2|0:2,0:0:0:0:
100,311,63282,2,0,L|145:342,2,51.0000009727478,2|2|2,0:2|0:2|0:2,0:0:0:0:
40,249,63570,6,0,L|-9:217,2,48,2|2|2,0:2|0:2|0:2,0:0:0:0:
105,198,63859,2,0,L|91:151,2,45.0000017166138,2|2|2,0:2|0:2|0:2,0:0:0:0:
186,211,64147,2,0,L|213:169,2,41.9999987182618,2|2|2,0:2|0:2|0:2,0:0:0:0:
235,274,64436,2,0,L|275:259,2,41.9999987182618,2|2|2,0:2|0:2|0:2,0:0:0:0:
255,356,64724,6,0,B|299:192|81:83|-19:246|18:345|18:345|160:333|181:207|141:93|10:72,1,881.999973083497,2|2,0:0|0:1,0:0:0:0:
6,89,67032,6,0,L|140:65,1,120,6|2,0:1|0:2,0:0:0:0:
296,133,67416,2,0,L|202:116,1,90.0000034332277,8|2,0:2|0:2,0:0:0:0:
366,180,67801,2,0,L|431:168,1,60,0|2,1:1|0:2,0:0:0:0:
492,208,68186,5,8,0:2:0:0:
500,225,68570,5,0,1:1:0:0:
508,242,68955,5,2,0:1:0:0:
467,32,69339,6,0,L|452:175,1,120,6|2,0:1|0:0,0:0:0:0:
319,359,69724,2,0,L|308:259,1,90.0000034332277,8|2,0:2|0:2,0:0:0:0:
206,132,70109,2,0,L|199:191,1,60,0|2,1:1|0:0,0:0:0:0:
126,296,70493,5,8,0:2:0:0:
86,304,70878,5,2,0:1:0:0:
46,312,71262,5,2,0:1:0:0:
189,347,71551,6,0,L|210:351,1,15,2|2,0:3|0:3,0:0:0:0:
219,352,71647,6,0,L|290:339,3,60,6|2|2|0,0:2|0:0|0:0|1:1,0:0:0:0:
261,254,72032,2,0,L|205:265,3,56.9999984779358,2|2|0|2,0:0|0:0|1:1|0:0,0:0:0:0:
192,175,72416,2,0,L|245:165,3,53.9999983520508,2|0|2|2,0:0|1:1|0:0|0:0,0:0:0:0:
324,190,72801,6,0,L|377:199,3,51.0000009727478,0|2|2|0,1:1|0:0|0:0|1:1,0:0:0:0:
388,119,73186,2,0,L|337:109,3,48,2|2|0|2,0:0|0:0|1:1|0:0,0:0:0:0:
360,33,73570,2,0,L|404:41,3,45.0000017166138,2|0|2|2,0:0|1:1|0:0|0:0,0:0:0:0:
472,1,73955,6,0,P|495:40|506:129,1,120,6|0,0:2|0:0,0:0:0:0:
271,333,74724,6,0,P|360:324|437:279,1,180.000006866455,0|0,0:0|1:1,0:0:0:0:
218,85,75493,6,0,P|100:96|0:161,1,240,0|2,0:0|0:2,0:0:0:0:
85,63,76070,5,2,0:2:0:0:
68,240,76262,6,0,P|103:270|143:274,1,67.5000025749208,6|4,0:1|0:3,0:0:0:0:
179,352,76551,2,0,P|212:341|232:326,1,53.9999983520508,4|4,0:3|0:3,0:0:0:0:
311,337,76839,2,0,P|324:304|323:285,1,40.4999987640381,12|12,0:3|0:3,0:0:0:0:
362,272,77128,2,0,P|358:248|356:244,1,26.9999991760254,12|12,0:3|0:3,0:0:0:0:
308,5,77416,6,0,P|264:20|240:53,1,67.5000025749208,2|4,0:1|0:3,0:0:0:0:
155,45,77705,2,0,P|148:79|150:104,1,53.9999983520508,4|4,0:3|0:3,0:0:0:0:
102,167,77993,2,0,P|124:194|141:203,1,40.4999987640381,4|12,0:3|0:3,0:0:0:0:
133,243,78282,2,0,P|155:251|160:252,1,26.9999991760254,12|12,0:3|0:3,0:0:0:0:
391,330,78570,6,0,P|400:284|383:247,1,67.5000025749208,2|4,0:1|0:3,0:0:0:0:
433,178,78859,2,0,P|407:154|384:144,1,53.9999983520508,4|4,0:3|0:3,0:0:0:0:
354,71,79147,2,0,P|319:76|303:86,1,40.4999987640381,4|12,0:3|0:3,0:0:0:0:
272,60,79436,2,0,P|254:75|251:79,1,26.9999991760254,12|12,0:3|0:3,0:0:0:0:
280,339,79724,6,0,P|289:297|283:267,1,67.5000025749208,2|12,0:1|0:3,0:0:0:0:
255,199,80012,1,12,0:3:0:0:
276,273,80157,2,0,P|224:313|158:311,1,135.000005149842,2|2,0:1|0:1,0:0:0:0:
125,178,80589,2,0,P|149:153|180:142,1,67.5000025749208,2|2,0:1|1:1,0:0:0:0:
29,220,80878,5,0,1:1:0:0:
104,278,81022,1,0,1:1:0:0:
193,300,81166,1,0,1:1:0:0:
270,292,81311,1,0,1:1:0:0:
339,266,81455,1,0,1:1:0:0:
382,225,81599,1,0,1:1:0:0:
409,185,81743,1,0,1:1:0:0:
421,143,81887,1,0,1:1:0:0:
326,85,82032,5,8,0:2:0:0:
319,130,82176,1,8,0:2:0:0:
322,167,82320,1,8,0:2:0:0:
334,194,82464,1,8,0:2:0:0:
349,217,82609,1,8,0:2:0:0:
365,232,82753,1,8,0:2:0:0:
378,240,82897,1,8,0:2:0:0:
393,243,83041,1,8,0:2:0:0:
453,187,83186,6,0,L|458:142,1,33.7500012874604,8|8,0:2|0:2,0:0:0:0:
461,186,83330,2,0,L|466:141,1,33.7500012874604,8|8,0:2|0:2,0:0:0:0:
469,185,83474,2,0,L|474:140,1,33.7500012874604,8|8,0:2|0:2,0:0:0:0:
477,184,83618,2,0,L|482:139,1,33.7500012874604,8|8,0:2|0:2,0:0:0:0:
485,183,83762,2,0,L|490:138,1,33.7500012874604,8|8,0:2|0:2,0:0:0:0:
493,182,83906,2,0,L|498:137,1,33.7500012874604,8|8,0:2|0:2,0:0:0:0:
501,181,84050,2,0,L|506:136,1,33.7500012874604,8|8,0:2|0:2,0:0:0:0:
509,180,84195,2,0,L|514:135,1,33.7500012874604,8|8,0:2|0:2,0:0:0:0:
426,85,84484,5,4,0:0:0:0:
315,0,84628,1,4,0:0:0:0:
301,163,84772,5,4,0:0:0:0:
198,143,84916,1,4,0:0:0:0:
201,265,85061,5,4,0:0:0:0:
118,286,85205,2,6,B|102:295|102:295|83:289|83:289|65:300|65:300|45:294|45:294|26:305,1,101.250003862381,6|0,0:1|0:0,0:3:0:0:
132,313,85493,6,0,P|180:347|253:332,1,107.999996704102,4|0,0:2|0:0,0:0:0:0:
426,384,85782,2,0,P|460:336|445:263,1,107.999996704102,8|0,0:2|0:0,0:0:0:0:
497,90,86070,2,0,P|449:55|376:70,1,107.999996704102,2|0,0:2|1:1,0:0:0:0:
203,19,86359,2,0,P|168:67|183:140,1,107.999996704102,8|0,0:2|0:0,0:0:0:0:
242,258,86647,2,0,L|370:159,1,161.999995056153,2|0,1:1|0:0,0:0:0:0:
295,107,86936,2,0,L|316:267,1,161.999995056153,10|0,0:2|1:1,0:0:0:0:
399,228,87224,2,0,L|249:166,1,161.999995056153,0|0,0:2|0:0,0:0:0:0:
165,239,87512,2,0,B|121:270|121:270|45:239,1,107.999996704102,8|2,0:2|0:2,0:0:0:0:
27,313,87801,6,0,P|44:247|26:180,1,135.000005149842,2|0,1:1|0:0,0:0:0:0:
0,108,88017,1,2,0:2:0:0:
0,108,88089,2,0,P|47:155|113:173,1,135.000005149842,8|2,0:0|0:2,0:0:0:0:
314,100,88378,6,0,P|301:49|261:15,1,107.999996704102,2|0,0:1|0:0,0:0:0:0:
227,18,88594,1,2,0:2:0:0:
227,18,88666,2,0,P|189:55|181:108,1,107.999996704102,10|2,0:2|0:2,0:0:0:0:
257,236,88955,6,0,L|446:253,1,180,2|10,1:1|0:2,0:0:0:0:
216,334,89460,1,0,1:1:0:0:
216,334,89532,2,0,L|305:342,1,90,0|0,1:1|1:1,0:0:0:0:
401,375,89820,2,0,P|409:331|407:287,1,90,8|2,0:2|0:2,0:0:0:0:
502,182,90109,6,0,P|471:115|424:88,1,107.999996704102,4|0,0:2|0:0,0:0:0:0:
351,34,90397,1,8,0:2:0:0:
351,34,90469,1,0,0:0:0:0:
351,34,90541,2,2,P|342:118|208:194,1,202.500007724762,2|0,0:1|0:0,0:1:0:0:
184,156,90830,1,0,1:1:0:0:
61,243,90974,2,0,L|41:137,1,107.999996704102,8|0,0:2|0:0,0:0:0:0:
184,24,91262,6,0,L|204:130,1,107.999996704102,0|2,1:1|0:2,0:0:0:0:
158,241,91551,1,8,0:2:0:0:
158,241,91623,1,0,0:0:0:0:
158,241,91695,2,0,P|241:227|349:337,1,202.500007724762,2|0,1:1|0:0,0:0:0:0:
319,370,91984,1,0,1:1:0:0:
196,317,92128,2,0,L|80:348,1,107.999996704102,8|0,0:2|0:0,0:0:0:0:
12,384,92416,6,0,P|8:318|23:278,1,107.999996704102,0|2,1:1|0:2,0:0:0:0:
158,241,92705,1,8,0:2:0:0:
158,241,92777,1,0,0:0:0:0:
158,241,92849,2,2,P|79:210|40:61,1,202.500007724762,2|0,0:1|0:0,0:1:0:0:
82,49,93137,1,0,1:1:0:0:
170,156,93282,2,0,L|305:128,1,135.000005149842,10|2,0:1|0:2,0:0:0:0:
361,55,93570,5,0,1:1:0:0:
510,166,93714,1,8,0:2:0:0:
349,238,93859,1,8,0:2:0:0:
409,154,94003,1,8,0:2:0:0:
409,154,94075,1,8,0:2:0:0:
409,154,94147,1,8,0:2:0:0:
469,305,94291,6,2,B|450:314|450:314|427:309|427:309|404:320|404:320|379:312|379:312|355:324|355:324|331:319|331:319|312:327,1,168.750006437302,6|0,0:1|0:0,0:1:0:0:
292,348,94724,1,4,1:1:0:0:
163,381,95012,6,0,L|33:323,1,107.999996704102,10|0,0:2|0:0,0:0:0:0:
35,110,95301,2,0,L|150:26,1,107.999996704102,2|0,0:2|1:1,0:0:0:0:
333,134,95589,2,0,L|347:275,1,107.999996704102,8|0,0:2|0:0,0:0:0:0:
103,235,95878,2,0,P|132:155|233:119,1,161.999995056153,2|0,1:1|0:0,0:0:0:0:
231,269,96166,2,0,P|147:283|66:213,1,161.999995056153,8|0,0:2|1:1,0:0:0:0:
196,140,96455,2,0,P|250:205|230:310,1,161.999995056153
219,356,96743,2,0,P|285:352|325:315,1,107.999996704102,8|2,0:2|0:2,0:0:0:0:
470,375,97032,6,0,L|523:201,1,135.000005149842,2|0,1:1|0:0,0:0:0:0:
475,214,97248,1,2,0:2:0:0:
475,214,97320,2,0,L|297:255,1,135.000005149842,8|2,0:0|0:2,0:0:0:0:
157,231,97609,6,0,L|51:255,1,107.999996704102,2|0,0:2|1:1,0:0:0:0:
24,229,97825,1,0,0:0:0:0:
24,229,97897,2,0,L|55:126,1,107.999996704102,8|2,0:2|0:2,0:0:0:0:
0,32,98186,6,2,P|89:22|178:30,1,180,2|8,0:1|0:2,0:1:0:0:
427,98,98690,1,0,1:1:0:0:
427,98,98762,2,0,P|382:102|337:98,1,90,0|0,1:1|1:1,0:0:0:0:
258,24,99051,2,0,P|254:68|258:113,1,90,8|0,0:2|0:0,0:0:0:0:
312,206,99339,6,0,P|287:247|283:316,1,107.999996704102,4|0,1:1|0:2,0:0:0:0:
512,287,99628,1,8,0:2:0:0:
512,287,99700,1,0,0:0:0:0:
512,287,99772,2,0,P|392:304|328:403,1,202.500007724762,2|0,1:1|0:0,0:0:0:0:
268,384,100061,1,0,1:1:0:0:
194,267,100205,2,0,L|78:277,1,107.999996704102,8|0,0:2|0:0,0:0:0:0:
223,111,100493,6,0,P|248:152|252:221,1,107.999996704102,4|0,1:1|0:2,0:0:0:0:
23,192,100782,1,8,0:2:0:0:
23,192,100854,1,0,0:0:0:0:
23,192,100926,2,0,P|142:209|206:308,1,202.500007724762,2|0,1:1|0:0,0:0:0:0:
267,289,101215,1,0,1:1:0:0:
341,172,101359,2,0,L|457:182,1,107.999996704102,8|0,0:2|0:0,0:0:0:0:
432,15,101647,6,0,B|442:67|442:67|372:118,1,107.999996704102,4|2,1:1|0:2,0:0:0:0:
165,180,101936,2,0,B|205:144|205:144|284:179,1,107.999996704102,8|0,1:1|0:0,0:0:0:0:
443,328,102224,2,0,B|392:311|392:311|383:224,1,107.999996704102,0|2,1:1|0:2,0:0:0:0:
341,172,102512,1,8,1:1:0:0:
271,299,102657,6,0,B|158:375|158:375|13:268,1,270.000010299683,2|8,0:2|0:2,0:0:0:0:
170,188,103089,1,8,0:2:0:0:
9,217,103234,2,0,B|-1:80|-1:80|164:9,1,270.000010299683,8|0,0:2|0:0,0:0:0:0:
263,58,103666,2,0,B|324:87|324:87|314:177,1,135.000005149842,0|12,0:0|0:3,0:0:0:0:
366,279,103955,6,0,L|508:269,1,107.999996704102,4|0,0:2|0:0,0:0:0:0:
494,287,104243,1,8,0:2:0:0:
379,371,104387,6,0,L|237:381,1,107.999996704102,4|0,0:2|0:0,0:0:0:0:
251,363,104675,1,8,0:2:0:0:
281,235,104820,6,0,L|139:245,1,107.999996704102,4|0,0:2|0:0,0:0:0:0:
153,227,105108,1,8,0:2:0:0:
39,217,105253,6,0,B|-3:175|-3:175|13:108,1,107.999996704102,4|0,0:2|0:0,0:0:0:0:
0,100,105469,1,0,0:0:0:0:
29,106,105541,2,0,B|86:90|86:90|136:137,1,107.999996704102,4|0,0:2|1:1,0:0:0:0:
217,0,105830,6,0,P|235:98|241:223,1,215.999993408203,4|12,2:0|0:3,0:0:0:0:
354,246,106190,1,14,0:3:0:0:
375,235,106262,2,0,P|357:137|351:12,1,215.999993408203,4|8,0:2|0:2,0:0:0:0:
485,62,106695,6,0,L|477:182,1,107.999996704102,4|0,0:2|0:0,0:0:0:0:
496,204,106984,1,8,0:2:0:0:
397,218,107128,6,0,L|389:338,1,107.999996704102,4|0,0:2|0:0,0:0:0:0:
408,360,107417,1,8,0:2:0:0:
278,334,107561,6,0,P|214:296|160:328,1,107.999996704102,4|12,0:2|0:3,0:0:0:0:
183,341,107777,1,12,0:3:0:0:
157,327,107849,2,0,P|93:365|39:333,1,107.999996704102,4|0,0:2|1:1,0:0:0:0:
34,240,108137,6,0,P|26:144|27:88,1,107.999996704102,4|0,0:2|0:0,0:0:0:0:
50,111,108426,1,12,0:3:0:0:
146,0,108570,6,0,P|154:96|153:152,1,107.999996704102,4|0,0:2|0:0,0:0:0:0:
178,131,108859,1,8,0:2:0:0:
295,244,109003,6,0,P|287:148|288:92,1,107.999996704102,4|0,0:2|0:0,0:0:0:0:
311,115,109292,1,8,0:2:0:0:
407,4,109436,6,0,P|415:100|414:156,1,107.999996704102,4|0,0:2|0:0,0:0:0:0:
439,135,109725,1,8,0:2:0:0:
512,278,109868,6,0,L|400:367,1,107.999996704102,4|12,0:2|0:3,0:0:0:0:
405,367,110085,1,12,0:3:0:0:
384,343,110157,2,0,L|294:231,1,107.999996704102,4|0,1:1|1:1,0:0:0:0:
264,377,110445,6,0,L|139:386,1,107.999996704102,4|0,0:2|0:0,0:0:0:0:
32,330,110734,1,12,0:3:0:0:
32,330,110806,1,12,0:3:0:0:
32,330,110878,6,0,P|66:316|108:323,1,67.5,4|0,0:2|0:0,0:0:0:0:
117,296,111166,6,0,P|135:353|188:367,1,101.250003862381,0|0,1:1|0:0,0:0:0:0:
198,345,111455,6,0,P|198:277|264:231,1,135,0|0,1:1|0:0,0:0:0:0:
255,202,111743,6,0,P|291:263|420:269,1,168.75,0|0,1:1|0:0,0:0:0:0:
412,313,112032,6,0,P|452:248|419:95,1,202.500007724762,0|12,1:1|0:3,0:0:0:0:
472,56,112320,6,0,P|390:136|276:125,1,236.250002253056,0|12,1:1|0:3,0:0:0:0:
238,59,112609,6,0,P|131:31|40:206,1,270,0|12,1:1|0:3,0:0:0:0:
0,234,112897,6,0,P|190:240|262:363,1,303.750011587143,0|0,1:1|0:0,0:0:0:0:
196,379,113186,6,0,L|127:383,6,60,2|2|2|2|2|2|6,3:0|3:0|3:0|3:0|3:0|3:0|3:0,0:0:0:0:
256,192,113780,12,2,116070,0:0:0:0:
