osu file format v14

[General]
AudioFilename: audio.mp3
AudioLeadIn: 0
PreviewTime: -1
Countdown: 0
SampleSet: Soft
StackLeniency: 0.7
Mode: 0
LetterboxInBreaks: 0
WidescreenStoryboard: 0

[Editor]
DistanceSpacing: 0.7
BeatDivisor: 6
GridSize: 32
TimelineZoom: 1.8

[Metadata]
Title:Nami / Otoyoshi
TitleUnicode:波/音陽師
Artist:NIWASHI & taiyo_c
ArtistUnicode:NIWASHI & taiyo_c
Creator:oatm
Version:Breeze
Source:
Tags:
BeatmapID:3603368
BeatmapSetID:1760583

[Difficulty]
HPDrainRate:5
CircleSize:4
OverallDifficulty:9
ApproachRate:9.3
SliderMultiplier:1.4
SliderTickRate:1

[Events]
//Background and Video events
0,0,"bg fr.jpg",0,0
//Break Periods
2,53364,58011
2,91664,93611
2,158764,162277
//Storyboard Layer 0 (Background)
//Storyboard Layer 1 (Fail)
//Storyboard Layer 2 (Pass)
//Storyboard Layer 3 (Foreground)
//Storyboard Layer 4 (Overlay)
//Storyboard Sound Samples

[TimingPoints]
165,400,4,2,0,60,1,0
465,-66.6666666666667,4,2,0,60,0,0
6265,-50,4,2,0,60,0,0
6565,-33.3333333333333,4,2,0,60,0,0
6865,-28.5714285714286,4,2,0,60,0,0
8165,-27.027027027027,4,2,0,60,0,0
9765,-40,4,2,0,60,0,0
10165,-33.3333333333333,4,2,0,60,0,0
10565,-28.5714285714286,4,2,0,60,0,0
12565,-66.6666666666667,4,2,0,60,0,0
12965,-33.3333333333333,4,2,0,60,0,0
14465,-133.333333333333,4,2,0,60,0,0
14765,-66.6666666666667,4,2,0,60,0,0
16765,-33.3333333333333,4,2,0,60,0,0
17365,-66.6666666666667,4,2,0,60,0,0
22565,-40,4,2,0,60,0,0
23765,-66.6666666666667,4,2,0,60,0,0
24165,-50,4,2,0,60,0,0
25565,-40,4,2,0,60,0,0
26565,-50,4,2,0,60,0,0
27365,-40,4,2,0,60,0,0
30565,-44.4444444444445,4,2,0,60,0,0
38365,-66.6666666666667,4,2,0,60,0,0
38965,-50,4,2,0,60,0,0
39165,-44.4444444444445,4,2,0,60,0,0
39362,-40,4,2,0,60,0,0
42965,-33.3333333333333,4,2,0,60,0,0
43365,-66.6666666666667,4,2,0,60,0,0
43865,-50,4,2,0,60,0,0
46765,-66.6666666666667,4,2,0,60,0,0
49759,-33.3333333333333,4,2,0,60,0,0
51965,-333.333333333333,4,2,0,60,0,0
52165,-28.5714285714286,4,2,0,60,0,0
58765,-50,4,2,0,60,0,0
59065,-44.4444444444445,4,2,0,60,0,0
59365,-33.3333333333333,4,2,0,60,0,0
60965,-28.5714285714286,4,2,0,60,0,0
62565,-50,4,2,0,60,0,0
62965,-40,4,2,0,60,0,0
63365,-33.3333333333333,4,2,0,60,0,0
65365,-66.6666666666667,4,2,0,60,0,0
65765,-28.5714285714286,4,2,0,60,0,1
84965,-36.3636363636364,4,2,0,60,0,1
90565,-28.5714285714286,4,2,0,60,0,0
92065,-66.6666666666667,4,2,0,60,0,0
94165,-33.3333333333333,4,2,0,60,0,0
94965,-66.6666666666667,4,2,0,60,0,0
97765,-33.3333333333333,4,2,0,60,0,0
98165,-66.6666666666667,4,2,0,60,0,0
100965,-33.3333333333333,4,2,0,60,0,0
102965,-500,4,2,0,60,0,0
104165,-66.6666666666667,4,2,0,60,0,0
109965,-100,4,2,0,60,0,0
110065,-80,4,2,0,60,0,0
110165,-66.6666666666667,4,2,0,60,0,0
110265,-50,4,2,0,60,0,0
110365,-40,4,2,0,60,0,0
110465,-33.3333333333333,4,2,0,60,0,0
114031,-50,4,2,0,60,0,0
130965,-33.3333333333333,4,2,0,60,0,0
131365,-28.5714285714286,4,2,0,60,0,1
156965,-50,4,2,0,60,0,0
163365,-33.3333333333333,4,2,0,60,0,0
164165,-30.7692307692308,4,2,0,60,0,0
164965,-28.5714285714286,4,2,0,60,0,0
165765,-26.6666666666667,4,2,0,60,0,0
170065,-33.3333333333333,4,2,0,60,0,0
170365,-50,4,2,0,60,0,0
170665,-100,4,2,0,60,0,0
170965,-200,4,2,0,60,0,0
171565,-400,4,2,0,60,0,0
172165,-111.111111111111,4,2,0,60,0,0

[Colours]
Combo1 : 255,177,140
Combo2 : 192,192,192
Combo3 : 255,255,255
Combo4 : 0,128,0
Combo5 : 128,255,128
Combo6 : 255,128,64

[HitObjects]
106,30,165,6,0,P|142:12|188:16,1,70
221,95,465,2,0,P|201:119|157:150,1,52.5000020027161
81,171,665,2,0,P|101:193|145:224,1,52.5000020027161
237,240,865,2,0,P|252:216|287:188,1,52.5000020027161
331,112,1065,2,0,P|352:139|406:167,1,52.5000020027161
483,192,1265,1,0,0:0:0:0:
483,192,1365,1,0,0:0:0:0:
415,318,1565,2,0,P|466:304|503:303,1,52.5000020027161
296,271,1765,1,0,0:0:0:0:
234,259,1865,1,0,0:0:0:0:
184,213,1965,1,0,0:0:0:0:
164,155,2065,2,0,P|223:136|261:146,1,52.5000020027161
358,200,2265,6,0,P|321:150|323:119,1,52.5000020027161
298,16,2465,2,0,P|198:62|110:80,1,157.500006008148
146,150,2865,1,0,0:0:0:0:
190,205,2965,1,0,0:0:0:0:
254,225,3065,1,0,0:0:0:0:
319,216,3165,1,0,0:0:0:0:
411,174,3265,1,0,0:0:0:0:
411,174,3315,1,0,0:0:0:0:
411,174,3365,6,0,L|319:217,1,91.8750035047532
198,278,3665,1,0,0:0:0:0:
287,146,3865,1,0,0:0:0:0:
127,247,4065,1,0,0:0:0:0:
213,121,4265,1,0,0:0:0:0:
36,166,4465,1,0,0:0:0:0:
0,108,4565,1,0,0:0:0:0:
0,41,4665,1,0,0:0:0:0:
0,41,4715,2,0,P|61:38|98:50,1,78.7500030040742
279,45,4965,6,0,P|250:59|230:80,1,52.5000020027161
139,198,5115,2,0,L|183:181,1,35.0000013351441
257,155,5265,1,0,0:0:0:0:
346,120,5465,1,0,0:0:0:0:
436,83,5665,1,0,0:0:0:0:
306,364,5965,6,0,P|262:338|183:342,1,105.000004005432
112,263,6265,2,0,P|184:233|279:240,1,140
381,202,6565,6,0,P|317:151|152:128,1,210.000008010865
12,27,6865,2,0,P|82:56|118:106,1,122.500001168251
0,293,7065,1,0,0:0:0:0:
231,339,7265,1,0,0:0:0:0:
231,339,7365,2,0,P|286:189|279:54,1,245.000002336502
381,135,7665,2,0,P|376:193|351:272,1,122.500001168251
153,384,7865,1,0,0:0:0:0:
10,215,8065,1,0,0:0:0:0:
10,215,8165,6,0,P|94:118|222:59,1,258.999999011993
414,41,8465,2,0,P|346:23|236:57,1,129.499999505997
44,84,8665,1,0,0:0:0:0:
150,304,8865,1,0,0:0:0:0:
150,304,8964,2,0,P|266:302|383:208,1,258.999999011993
449,234,9265,2,0,L|382:367,1,129.499999505997
411,343,9465,2,0,L|480:198,1,129.499999505997
396,29,9765,6,0,L|272:63,1,87.5
189,81,9965,2,0,L|111:102,2,43.75
402,109,10165,2,0,L|269:150,1,105.000004005432
170,175,10365,2,0,L|119:187,2,52.5000020027161
411,191,10565,2,0,L|244:247,1,122.500001168251
160,273,10765,2,0,L|102:290,2,61.2500005841255
349,202,10965,1,0,0:0:0:0:
261,170,11065,1,0,0:0:0:0:
181,139,11165,1,0,0:0:0:0:
102,111,11265,1,0,0:0:0:0:
46,374,11565,5,0,0:0:0:0:
405,326,11898,1,0,0:0:0:0:
367,243,12031,1,0,0:0:0:0:
331,154,12165,1,0,0:0:0:0:
112,259,12465,1,0,0:0:0:0:
102,227,12565,2,0,P|151:206|178:224,1,78.7500030040742
257,349,12865,5,0,0:0:0:0:
257,349,12915,1,0,0:0:0:0:
257,349,12965,2,0,P|303:248|432:239,1,210.000008010865
483,162,13265,2,0,P|381:115|372:-13,1,210.000008010865
272,88,13565,2,0,P|226:189|97:198,1,210.000008010865
52,139,13865,2,0,P|98:38|227:29,1,210.000008010865
272,88,14165,2,0,P|301:185|395:223,1,210.000008010865
389,298,14465,2,0,P|367:295|352:300,1,26.2500010013581
155,176,14765,2,0,B|58:237|57:335|57:335|124:311|159:291|183:263|183:263|232:222|256:134|269:98|269:98|294:20|375:-9|375:-9|418:91|294:211,1,892.500034046174
212,218,16765,6,0,L|270:164,1,52.5000020027161
293,165,16865,2,0,L|254:200,1,52.5000020027161
0,111,17365,6,0,P|49:151|130:172,1,105.000004005432
222,178,17665,1,0,0:0:0:0:
222,178,17715,1,0,0:0:0:0:
222,178,17765,2,0,P|196:223|139:262,1,105.000004005432
64,53,18065,1,0,0:0:0:0:
252,356,18265,1,0,0:0:0:0:
307,314,18365,1,0,0:0:0:0:
373,318,18465,1,0,0:0:0:0:
466,262,18665,1,0,0:0:0:0:
508,213,18765,1,0,0:0:0:0:
493,147,18865,1,0,0:0:0:0:
425,135,18965,2,0,P|385:187|344:229,1,105.000004005432
207,282,19265,1,0,0:0:0:0:
147,269,19365,6,0,P|167:247|180:215,1,52.5000020027161
244,80,19565,1,0,0:0:0:0:
302,87,19665,2,0,P|304:51|287:25,1,52.5000020027161
147,8,19965,2,0,P|140:30|126:50,2,26.2500010013581
0,68,20231,2,0,P|55:97|116:192,1,175.00000667572
209,303,20665,1,0,0:0:0:0:
257,332,20765,1,0,0:0:0:0:
315,323,20865,1,0,0:0:0:0:
352,281,20965,6,0,P|374:211|404:186,1,105.000004005432
478,131,21265,2,0,P|431:95|378:97,1,105.000004005432
271,171,21565,2,0,P|305:154|320:138,1,52.5000020027161
286,29,21765,2,0,P|240:63|185:84,1,105.000004005432
76,141,22065,2,0,P|83:165|111:189,1,52.5000020027161
321,203,22265,1,0,0:0:0:0:
373,223,22365,2,0,P|395:251|397:267,1,52.5000020027161
227,355,22565,6,0,B|295:328|272:273|242:255|198:276|198:276|184:282|177:286|160:299|121:368|67:306|45:257|53:186|104:155|104:155|133:220|194:187,1,525
329,175,23265,1,0,0:0:0:0:
394,162,23365,2,0,P|356:117|307:94,1,87.5
163,20,23565,1,0,0:0:0:0:
113,42,23665,1,0,0:0:0:0:
49,39,23765,2,0,P|93:87|113:133,1,105.000004005432
0,312,24065,1,0,0:0:0:0:
0,312,24115,1,0,0:0:0:0:
0,312,24165,6,0,P|73:236|122:242,1,140
245,315,24465,1,0,0:0:0:0:
295,354,24565,1,0,0:0:0:0:
358,330,24665,1,0,0:0:0:0:
371,263,24765,1,0,0:0:0:0:
329,212,24865,1,0,0:0:0:0:
332,149,24965,1,0,0:0:0:0:
389,121,25065,1,0,0:0:0:0:
397,57,25165,2,0,P|366:53|320:42,1,70
226,25,25365,1,0,0:0:0:0:
0,80,25565,2,0,B|40:90|51:110|57:134|57:134|62:157|79:179|120:192,1,175
273,180,25865,5,0,0:0:0:0:
335,180,25965,1,0,0:0:0:0:
385,147,26065,2,0,P|405:187|436:215,1,87.5
468,274,26265,1,0,0:0:0:0:
413,307,26365,2,0,P|343:327|310:347,1,87.5
240,283,26565,2,0,P|282:236|285:145,1,140
282,23,26865,2,0,P|244:35|206:64,1,70
0,188,27065,1,0,0:0:0:0:
27,169,27165,2,0,P|61:152|94:126,1,70
106,22,27365,6,0,B|185:93|156:203,1,175
265,333,27698,2,0,B|296:376|341:354,1,87.5
366,273,27865,2,0,B|334:229|289:251,1,87.5
78,364,28065,1,0,0:0:0:0:
113,372,28165,2,0,P|178:305|214:229,1,175
280,22,28465,1,0,0:0:0:0:
280,22,28515,2,0,P|284:82|330:136,1,131.25
475,176,28765,1,0,0:0:0:0:
501,241,28865,1,0,0:0:0:0:
495,302,28965,6,0,P|475:345|421:370,1,87.5
351,307,29215,2,0,P|413:283|398:202,1,131.25
336,225,29415,2,0,P|348:177|310:104,1,131.25
237,142,29665,2,0,P|223:121|210:105,1,43.75
258,176,29765,2,0,P|251:234|162:309,1,175
0,201,30065,1,0,0:0:0:0:
0,201,30115,1,0,0:0:0:0:
0,201,30165,2,0,P|9:127|96:68,1,175
461,258,30465,1,0,0:0:0:0:
484,252,30565,6,0,B|526:195|486:149|424:152|395:174|386:227|380:276|380:276|304:173|342:128|398:104|453:63|453:63|383:60|333:82|284:144|181:91,1,787.500030040742
105,31,31665,1,0,0:0:0:0:
48,26,31765,2,0,P|73:87|63:121,1,78.7500030040742
43,212,31965,1,0,0:0:0:0:
10,259,32065,1,0,0:0:0:0:
16,314,32165,6,0,P|65:376|151:374,1,157.500006008148
291,230,32465,2,0,P|243:219|210:229,1,78.7500030040742
251,308,32665,1,0,0:0:0:0:
286,352,32765,1,0,0:0:0:0:
353,346,32865,1,0,0:0:0:0:
383,293,32965,2,0,P|396:205|346:146,1,157.500006008148
291,109,33265,1,0,0:0:0:0:
218,124,33365,2,0,P|199:160|158:184,1,78.7500030040742
48,122,33565,1,0,0:0:0:0:
0,75,33665,1,0,0:0:0:0:
0,12,33765,6,0,P|73:35|91:48,1,78.7500030040742
136,112,33965,1,0,0:0:0:0:
164,188,34065,2,0,P|231:232|311:235,1,157.500006008148
450,187,34365,2,0,P|418:167|389:132,1,78.7500030040742
390,39,34565,2,0,P|339:62|311:174,1,157.500006008148
478,268,34865,2,0,P|496:318|476:352,1,78.7500030040742
385,365,35065,1,0,0:0:0:0:
291,341,35265,2,0,P|309:319|310:298,1,26.2500010013581
270,249,35365,6,0,B|271:263|159:359|107:320|72:267|103:221|123:214|132:209|144:206|157:195|166:198|171:214|183:211|198:202|209:193|212:184|216:164|213:149|208:145|205:136|182:112|159:104|159:104|194:94|223:58,1,472.500018024445
316,39,36065,1,0,0:0:0:0:
387,31,36165,2,0,P|419:53|411:101,1,78.7500030040742
301,150,36365,1,0,0:0:0:0:
245,117,36465,1,0,0:0:0:0:
180,118,36565,2,0,P|186:189|252:264,1,157.500006008148
300,313,36865,1,0,0:0:0:0:
383,334,36965,6,0,B|342:273|421:278|451:314|465:379|491:386|548:366|571:300|537:227|467:206|412:231|364:227|331:206|318:194|301:175|301:175|277:146|263:106|285:46|372:57|423:90|452:64|484:98|607:157|442:264|362:142,1,945.000036048891
224,79,38265,1,0,0:0:0:0:
192,50,38365,2,0,P|124:13|54:52,1,157.500006008148
1,319,38798,2,0,P|17:314|35:302,1,35.0000013351441
86,375,38965,2,0,P|111:346|127:311,1,70.0000026702882
200,358,39165,2,0,P|221:305|224:266,1,78.7500030040742
304,328,39365,2,0,P|307:255|256:159,1,175
184,85,39665,1,0,0:0:0:0:
131,69,39765,2,0,P|231:34|312:36,1,175
445,38,40065,2,0,L|465:-1,1,43.75
477,88,40165,6,0,P|381:125|187:293,1,350
297,302,40765,2,0,P|327:261|374:245,1,87.5
505,211,40898,1,0,0:0:0:0:
505,211,40965,2,0,P|411:188|395:167,1,87.5
423,12,41165,2,0,B|404:57|376:85,1,87.5
306,169,41365,1,0,0:0:0:0:
266,197,41431,1,0,0:0:0:0:
219,167,41498,1,0,0:0:0:0:
229,125,41565,2,0,B|233:115|229:79|203:22|163:112|135:14|105:11|105:11|115:55|115:55|156:244|156:244|170:338|54:372|-16:355|-53:292|-27:255|39:206|104:242,1,787.5
393,259,42565,6,0,P|372:294|326:334,1,87.5
428,354,42965,2,0,P|331:268|217:192,1,210.000008010865
13,179,43265,1,0,0:0:0:0:
13,179,43315,1,0,0:0:0:0:
13,179,43365,6,0,B|36:152|65:138,1,52.5000020027161
175,158,43565,1,0,0:0:0:0:
175,158,43615,2,0,B|219:154|249:109,1,78.7500030040742
385,25,43865,2,0,B|346:25|306:74,1,70
312,171,44165,2,0,P|299:215|325:270,1,105
444,322,44365,1,0,0:0:0:0:
461,361,44465,2,0,P|393:353|335:374,1,105
75,304,44765,2,0,P|111:288|158:256,1,70
221,156,44965,5,0,0:0:0:0:
221,156,45015,2,0,B|198:170|160:186|160:186,1,35
9,175,45165,2,0,P|41:164|76:147,1,70
285,41,45365,1,0,0:0:0:0:
341,20,45465,1,0,0:0:0:0:
405,17,45565,2,0,P|441:12|474:19,1,70
502,119,45765,2,0,B|470:141|451:203,1,70
384,146,45965,2,0,B|375:183|403:242,1,70
295,182,46165,1,0,0:0:0:0:
294,231,46265,2,0,P|304:264|322:294,1,70
340,376,46465,1,0,0:0:0:0:
282,375,46565,6,0,L|185:353,1,70
109,116,46765,2,0,P|71:81|20:85,1,105.000004005432
0,166,47065,2,0,P|27:198|89:197,1,105.000004005432
190,282,47365,2,0,P|218:255|245:242,1,52.5000020027161
406,135,47565,2,0,P|386:154|350:174,1,52.5000020027161
179,152,47765,2,0,P|202:169|240:180,1,52.5000020027161
399,268,47965,2,0,P|380:248|348:234,1,52.5000020027161
203,352,48165,6,0,L|246:320,1,52.5000020027161
356,299,48315,2,0,L|399:267,1,52.5000020027161
441,174,48465,2,0,L|484:142,1,52.5000020027161
454,46,48665,2,0,P|421:85|363:109,1,105.000004005432
24,244,48965,2,0,P|40:222|65:206,1,52.5000020027161
132,202,49165,1,0,0:0:0:0:
196,204,49265,1,0,0:0:0:0:
251,172,49365,1,0,0:0:0:0:
285,125,49465,1,0,0:0:0:0:
289,61,49565,1,0,0:0:0:0:
256,17,49665,1,0,0:0:0:0:
206,23,49765,6,0,P|158:79|90:246,1,210.000008010865
224,384,50065,2,0,P|288:301|330:205,1,210.000008010865
270,52,50365,1,0,0:0:0:0:
133,151,50465,2,0,P|166:201|196:206,2,52.5000020027161
309,230,50665,2,0,P|276:280|246:285,2,52.5000020027161
188,336,50865,1,0,0:0:0:0:
115,307,50965,6,0,P|233:252|349:224,1,210.000008010865
429,182,51265,2,0,P|328:152|234:105,1,210.000008010865
126,33,51565,5,0,0:0:0:0:
13,56,51765,1,0,0:0:0:0:
26,68,51815,1,0,0:0:0:0:
26,86,51865,1,0,0:0:0:0:
20,189,51965,2,0,P|17:188|21:189,1,10.4999996795654
84,252,52165,2,0,P|130:334|280:338,1,245.000002336502
398,117,52465,2,0,P|352:35|198:31,1,245.000002336502
308,196,52765,2,0,P|360:238|419:269,1,122.500001168251
324,268,52965,2,0,B|229:176|90:102,1,245.000002336502
75,228,58565,5,0,0:0:0:0:
47,262,58631,1,0,0:0:0:0:
54,305,58698,1,0,0:0:0:0:
80,335,58765,2,0,P|150:357|211:314,1,140
369,132,59065,2,0,P|292:156|248:226,1,157.500006008148
350,357,59365,6,0,P|438:285|456:182,1,210.000008010865
430,21,59665,2,0,P|310:57|271:36,1,105.000004005432
90,197,59865,1,0,0:0:0:0:
33,206,59965,1,0,0:0:0:0:
5,263,60065,1,0,0:0:0:0:
26,317,60165,2,0,P|154:375|252:377,1,210.000008010865
333,347,60465,2,0,P|273:249|275:232,1,105.000004005432
154,146,60665,1,0,0:0:0:0:
97,162,60765,1,0,0:0:0:0:
59,212,60865,1,0,0:0:0:0:
57,267,60965,6,0,P|173:230|294:210,1,210.000008010865
461,118,61265,2,0,P|483:174|468:236,1,122.500001168251
180,158,61465,1,0,0:0:0:0:
125,132,61565,1,0,0:0:0:0:
100,72,61665,1,0,0:0:0:0:
124,12,61765,2,0,P|233:107|307:200,1,245.000002336502
351,300,62065,2,0,P|367:368|434:384,1,122.500001168251
482,345,62265,2,0,P|470:285|401:259,1,122.500001168251
162,381,62465,1,0,0:0:0:0:
131,344,62565,6,0,L|204:287,1,70
313,192,62765,1,0,0:0:0:0:
313,192,62815,2,0,L|267:228,1,35
78,283,62965,6,0,L|169:211,1,87.5
295,95,63165,1,0,0:0:0:0:
295,95,63215,2,0,L|247:133,1,43.75
19,221,63365,6,0,L|121:140,1,105.000004005432
248,16,63565,1,0,0:0:0:0:
248,16,63615,2,0,L|200:60,1,52.5000020027161
55,76,63765,1,0,0:0:0:0:
124,120,63865,1,0,0:0:0:0:
207,168,63965,1,0,0:0:0:0:
294,218,64065,1,0,0:0:0:0:
482,268,64365,5,0,0:0:0:0:
438,177,64698,1,0,0:0:0:0:
399,111,64831,1,0,0:0:0:0:
363,47,64965,1,0,0:0:0:0:
120,32,65231,1,0,0:0:0:0:
120,32,65298,1,0,0:0:0:0:
120,32,65365,2,0,P|159:77|175:122,1,105.000004005432
32,296,65765,6,0,B|72:242|132:230|143:259|160:301|211:282|266:193,1,245.000002336502
283,141,66065,1,0,0:0:0:0:
265,38,66165,2,0,P|311:41|369:88,1,122.500001168251
414,166,66365,2,0,P|415:235|353:289,1,122.500001168251
383,375,66565,2,0,P|497:275|474:113,1,326.666669782003
391,68,66865,1,0,0:0:0:0:
304,83,66965,2,0,P|252:124|227:198,1,122.500001168251
264,254,67165,1,0,0:0:0:0:
194,306,67265,1,0,0:0:0:0:
155,226,67365,6,0,P|126:148|33:86,1,183.750001752377
3,179,67665,1,0,0:0:0:0:
16,273,67765,2,0,P|147:335|218:316,1,122.500001168251
369,329,67965,2,0,P|242:285|201:298,1,122.500001168251
171,254,68165,2,0,P|103:155|230:123,1,245.000002336502
282,100,68465,1,0,0:0:0:0:
372,134,68565,2,0,P|473:216|480:236,1,122.500001168251
461,355,68765,2,0,P|386:320|350:276,1,122.500001168251
303,203,68965,6,0,P|220:130|85:70,1,245.000002336502
97,148,69265,1,0,0:0:0:0:
167,183,69365,2,0,P|216:225|213:299,1,122.500001168251
149,311,69565,2,0,P|94:263|107:195,1,122.500001168251
0,196,69765,2,0,P|188:106|267:121,1,245.000002336502
293,167,70065,1,0,0:0:0:0:
387,182,70165,2,0,P|431:150|417:63,1,122.500001168251
363,23,70365,1,0,0:0:0:0:
270,28,70465,1,0,0:0:0:0:
187,71,70565,6,0,P|151:117|152:211,1,122.500001168251
174,287,70765,2,0,P|211:327|284:341,1,122.500001168251
383,342,70965,2,0,P|425:310|461:250,1,122.500001168251
445,158,71165,1,0,0:0:0:0:
415,76,71265,1,0,0:0:0:0:
330,37,71365,2,0,P|248:27|112:174,1,245.000002336502
127,217,71665,1,0,0:0:0:0:
202,159,71765,2,0,P|253:108|313:115,1,122.500001168251
370,164,71965,1,0,0:0:0:0:
349,261,72065,1,0,0:0:0:0:
274,339,72165,6,0,P|130:339|27:248,1,245.000002336502
10,168,72465,1,0,0:0:0:0:
49,90,72565,2,0,P|122:72|171:124,1,122.500001168251
202,159,72765,1,0,0:0:0:0:
175,233,72865,1,0,0:0:0:0:
234,297,72965,2,0,P|295:340|466:360,1,245.000002336502
508,276,73265,1,0,0:0:0:0:
420,283,73365,2,0,P|345:271|307:239,1,122.500001168251
291,163,73565,1,0,0:0:0:0:
346,105,73665,1,0,0:0:0:0:
427,79,73765,6,0,P|370:10|297:7,1,122.500001168251
252,25,73965,2,0,P|214:62|211:154,1,122.500001168251
232,230,74165,1,0,0:0:0:0:
258,312,74265,1,0,0:0:0:0:
198,372,74365,2,0,P|128:369|77:332,1,122.500001168251
16,215,74565,2,0,P|19:246|34:273,3,61.2500005841255
16,140,74765,2,0,P|76:91|123:93,1,122.500001168251
192,135,74965,1,0,0:0:0:0:
242,217,75065,1,0,0:0:0:0:
310,284,75165,2,0,P|381:275|423:233,1,122.500001168251
468,182,75365,6,0,P|408:90|268:46,1,245.000002336502
236,119,75665,1,0,0:0:0:0:
307,155,75765,2,0,P|376:192|400:248,1,122.500001168251
318,335,75965,2,0,P|256:305|215:232,1,122.500001168251
162,165,76165,2,0,P|102:74|8:147,1,245.000002336502
9,223,76465,1,0,0:0:0:0:
63,290,76565,2,0,P|149:347|212:342,1,122.500001168251
208,278,76765,2,0,P|151:268|97:217,1,122.500001168251
222,51,76965,6,0,P|340:186|366:372,1,367.500003504753
180,288,77365,2,0,P|323:180|516:146,1,367.500003504753
467,341,77765,2,0,P|349:205|323:20,1,367.500003504753
487,98,78165,2,0,P|350:216|170:242,1,367.500003504753
29,184,78565,6,0,P|130:125|276:116,1,245.000002336502
299,191,78865,1,0,0:0:0:0:
263,268,78965,2,0,P|212:300|151:298,1,122.500001168251
78,263,79165,2,0,P|124:225|184:224,1,122.500001168251
263,268,79365,2,0,P|356:311|423:204,1,245.000002336502
425,118,79665,1,0,0:0:0:0:
357,75,79765,2,0,P|285:105|231:111,1,122.500001168251
149,136,79965,2,0,P|172:166|261:197,1,122.500001168251
407,197,80165,5,0,0:0:0:0:
423,198,80231,1,0,0:0:0:0:
443,206,80298,2,0,P|488:244|512:299,1,81.6666674455007
475,353,80465,1,0,0:0:0:0:
390,373,80565,2,0,P|338:338|309:282,1,122.500001168251
244,222,80765,2,0,P|209:268|136:307,1,122.500001168251
56,314,80965,2,0,P|49:184|115:91,1,245.000002336502
184,39,81265,1,0,0:0:0:0:
269,40,81365,2,0,P|323:106|306:185,1,122.500001168251
288,227,81565,2,0,P|238:167|255:109,1,122.500001168251
379,22,81765,6,0,P|422:121|428:273,1,245.000002336502
370,320,82065,1,0,0:0:0:0:
356,231,82165,2,0,P|355:154|336:109,1,122.500001168251
257,73,82365,2,0,P|180:77|134:107,1,122.500001168251
102,187,82565,2,0,P|124:267|263:336,1,245.000002336502
348,342,82865,1,0,0:0:0:0:
406,281,82965,2,0,P|407:217|435:161,1,122.500001168251
491,93,83165,2,0,P|436:57|365:68,1,122.500001168251
343,126,83365,6,0,P|317:177|310:262,1,122.500001168251
284,335,83565,2,0,P|224:358|138:335,1,122.500001168251
90,310,83765,1,0,0:0:0:0:
34,243,83865,1,0,0:0:0:0:
32,153,83965,2,0,P|91:194|157:208,1,122.500001168251
211,172,84165,1,0,0:0:0:0:
273,129,84265,1,0,0:0:0:0:
328,58,84365,2,0,P|350:134|336:190,1,122.500001168251
363,259,84565,1,0,0:0:0:0:
293,301,84665,1,0,0:0:0:0:
215,288,84765,2,0,P|148:257|106:226,1,122.500001168251
36,174,84965,2,0,B|101:113|111:49|51:16|28:22|14:31|14:31|-2:47|-20:71|-11:116|17:128|106:127|182:104|182:104|242:84|283:133,1,577.500005507469
324,219,85765,2,0,B|334:288|323:341|287:381|253:383|235:369|185:300|205:220|252:180|291:173,1,385.000003671646
443,43,86565,2,0,B|462:88|455:142|396:154|342:125|327:86|309:55|299:47|295:32|291:-3|233:-43|169:-9|178:40|203:66,1,420.000016021729
259,135,87165,2,0,B|280:185|306:198|325:205|364:227|418:230|431:235|461:208|498:196|498:196|488:264|465:297|422:312|318:297,1,420.000016021729
312,320,87765,2,0,P|218:265|160:173,1,210.000008010865
68,96,88165,2,0,B|-63:60|-18:-63|47:-31|79:-63|138:-31|185:40|219:104|183:182|89:162|-8:94,1,577.500005507469
0,110,88965,2,0,B|-37:137|-37:213|30:243|108:201|170:254|150:375|55:414|-77:361|-28:273|18:231|42:230|61:218|61:218|117:201|153:211|140:245|158:265|220:268,1,630.000024032594
436,256,89765,6,0,B|425:292|451:322|502:338|597:157|581:100|538:145|508:119|456:91|456:91|415:173|384:213|298:228|292:166|306:145|341:136,1,577.500005507469
301,0,90565,2,0,P|148:64|80:150,1,245.000002336502
253,341,90865,2,0,P|406:277|474:191,1,245.000002336502
299,92,91165,2,0,P|239:100|196:197,1,122.500001168251
259,239,91365,6,0,P|328:219|358:160,1,122.500001168251
259,366,94165,6,0,P|195:277|160:175,1,210.000008010865
184,34,94465,2,0,P|223:78|251:155,1,105.000004005432
329,240,94765,5,0,0:0:0:0:
378,277,94831,1,0,0:0:0:0:
443,266,94898,1,0,0:0:0:0:
478,211,94965,2,0,P|476:166|468:153,1,35.0000013351441
432,50,95098,2,0,P|454:82|455:97,1,35.0000013351441
400,154,95231,2,0,P|384:181|352:183,1,35.0000013351441
273,172,95365,2,0,P|243:144|233:121,1,35.0000013351441
203,89,95498,1,0,0:0:0:0:
167,54,95598,1,0,0:0:0:0:
118,55,95698,1,0,0:0:0:0:
73,87,95765,1,0,0:0:0:0:
60,144,95865,1,0,0:0:0:0:
67,222,95965,2,0,L|95:255,2,35.0000013351441
143,313,96165,6,0,L|174:288,2,35.0000013351441
252,262,96365,1,0,0:0:0:0:
255,303,96431,1,0,0:0:0:0:
289,314,96498,1,0,0:0:0:0:
323,297,96565,1,0,0:0:0:0:
360,265,96632,1,0,0:0:0:0:
403,274,96698,1,0,0:0:0:0:
446,310,96765,1,0,0:0:0:0:
493,265,96865,1,0,0:0:0:0:
486,203,96965,1,0,0:0:0:0:
427,172,97065,1,0,0:0:0:0:
397,111,97165,1,0,0:0:0:0:
432,61,97265,1,0,0:0:0:0:
393,12,97365,1,0,0:0:0:0:
348,17,97431,1,0,0:0:0:0:
318,41,97498,1,0,0:0:0:0:
301,77,97565,1,0,0:0:0:0:
303,115,97631,1,0,0:0:0:0:
259,287,97765,6,0,P|227:359|145:399,1,105.000004005432
105,212,97965,2,0,P|153:137|188:122,1,105.000004005432
337,65,98165,2,0,L|411:94,1,70.0000026702882
473,111,98431,1,0,0:0:0:0:
446,180,98565,1,0,0:0:0:0:
379,160,98698,1,0,0:0:0:0:
314,136,98831,1,0,0:0:0:0:
252,112,98965,1,0,0:0:0:0:
249,180,99098,1,0,0:0:0:0:
247,250,99231,1,0,0:0:0:0:
244,319,99365,5,0,0:0:0:0:
181,294,99498,1,0,0:0:0:0:
120,263,99631,1,0,0:0:0:0:
61,233,99765,1,0,0:0:0:0:
95,178,99898,1,0,0:0:0:0:
109,149,99965,1,0,0:0:0:0:
145,121,100065,1,0,0:0:0:0:
192,113,100165,1,0,0:0:0:0:
234,135,100265,1,0,0:0:0:0:
254,183,100365,1,0,0:0:0:0:
302,213,100465,1,0,0:0:0:0:
358,198,100565,1,0,0:0:0:0:
390,151,100665,1,0,0:0:0:0:
387,104,100765,1,0,0:0:0:0:
379,84,100815,1,0,0:0:0:0:
361,67,100865,1,0,0:0:0:0:
341,58,100915,1,0,0:0:0:0:
323,55,100965,6,0,P|227:44|123:88,1,210.000008010865
0,199,101265,6,0,P|86:208|222:117,1,210.000008010865
442,118,101565,2,0,P|362:140|257:254,1,210.000008010865
226,384,101865,2,0,P|334:339|387:248,1,210.000008010865
348,11,102165,2,0,L|185:161,1,210.000008010865
35,300,102465,1,0,0:0:0:0:
35,300,102765,6,0,L|144:202,1,105.000004005432
286,137,102965,1,0,0:0:0:0:
234,208,103065,1,0,0:0:0:0:
263,306,103165,1,0,0:0:0:0:
294,339,103231,1,0,0:0:0:0:
347,350,103298,1,0,0:0:0:0:
389,336,103365,1,0,0:0:0:0:
473,283,103465,1,0,0:0:0:0:
471,195,103565,1,0,0:0:0:0:
446,158,103631,1,0,0:0:0:0:
469,118,103698,1,0,0:0:0:0:
455,71,103765,2,0,L|441:78,1,14
355,207,104165,6,0,P|324:199|299:181,1,52.5000020027161
187,83,104365,2,0,P|218:91|243:109,1,52.5000020027161
183,205,104565,1,0,0:0:0:0:
139,236,104665,2,0,P|71:239|37:221,1,105.000004005432
13,127,104965,2,0,P|53:81|119:66,1,105.000004005432
211,104,105265,2,0,P|273:86|311:49,1,105.000004005432
460,29,105565,2,0,P|433:48|402:91,1,52.5000020027161
477,160,105765,5,0,0:0:0:0:
477,160,105815,2,0,P|459:201|442:221,1,52.5000020027161
506,254,105965,2,0,P|486:287|450:294,1,52.5000020027161
430,355,106165,1,0,0:0:0:0:
370,359,106231,1,0,0:0:0:0:
339,312,106298,1,0,0:0:0:0:
352,252,106365,1,0,0:0:0:0:
347,191,106465,1,0,0:0:0:0:
296,155,106565,2,0,P|258:194|224:212,1,52.5000020027161
202,115,106765,2,0,P|158:169|144:213,1,105.000004005432
62,283,107065,2,0,P|59:227|-15:123,1,157.500006008148
1,68,107365,5,0,0:0:0:0:
60,54,107465,1,0,0:0:0:0:
101,83,107565,1,0,0:0:0:0:
149,114,107665,1,0,0:0:0:0:
206,110,107765,1,0,0:0:0:0:
225,60,107865,2,0,P|279:36|293:37,1,52.5000020027161
376,29,108065,1,0,0:0:0:0:
388,49,108115,1,0,0:0:0:0:
380,65,108165,1,0,0:0:0:0:
331,106,108265,1,0,0:0:0:0:
306,127,108331,1,0,0:0:0:0:
305,166,108398,1,0,0:0:0:0:
324,214,108465,2,0,P|350:236|389:235,1,52.5000020027161
512,235,108665,2,0,P|488:277|467:285,1,52.5000020027161
423,336,108865,1,0,0:0:0:0:
338,340,108965,5,0,0:0:0:0:
159,332,109115,2,0,L|138:371,1,26.2500010013581
69,239,109265,2,0,L|31:186,1,52.5000020027161
120,92,109465,2,0,L|168:149,1,52.5000020027161
306,205,109665,1,0,0:0:0:0:
318,207,109715,1,0,0:0:0:0:
312,201,109765,2,0,L|276:147,1,52.5000020027161
238,42,109965,2,0,L|233:11,1,17.5
306,47,110065,2,0,L|313:12,1,21.875
370,73,110165,2,0,L|397:37,1,26.2500010013581
418,125,110265,2,0,L|451:102,1,35
447,194,110365,2,0,L|496:190,1,43.75
451,266,110465,2,0,L|523:278,1,52.5000020027161
412,335,110565,6,0,P|324:295|254:169,1,210.000008010865
182,34,110865,2,0,P|176:137|117:223,1,210.000008010865
29,365,111165,2,0,P|121:318|203:323,1,105.000004005432
236,253,111365,1,0,0:0:0:0:
293,216,111465,1,0,0:0:0:0:
324,163,111565,1,0,0:0:0:0:
321,93,111665,1,0,0:0:0:0:
276,41,111765,2,0,L|85:158,1,210.000008010865
41,300,112065,2,0,L|249:167,1,210.000008010865
380,140,112365,6,0,L|317:198,1,52.5000020027161
282,271,112465,2,0,L|222:302,2,52.5000020027161
408,212,112665,1,0,0:0:0:0:
512,150,112815,1,0,0:0:0:0:
474,28,112965,2,0,P|334:73|240:56,1,210.000008010865
132,31,113265,2,0,P|169:90|158:156,1,105.000004005432
171,347,113465,2,0,P|106:304|80:181,1,210.000008010865
146,101,113898,5,0,0:0:0:0:
171,165,114065,2,0,P|226:210|274:210,1,70
417,281,114298,1,0,0:0:0:0:
469,235,114465,2,0,P|470:175|441:121,1,70
228,138,114698,1,0,0:0:0:0:
250,206,114831,2,0,P|218:254|154:287,1,93.3333333333333
11,283,115098,2,0,P|59:258|85:227,1,93.3333333333333
28,139,115498,5,0,0:0:0:0:
102,113,115631,1,0,0:0:0:0:
184,91,115765,1,0,0:0:0:0:
267,73,115898,1,0,0:0:0:0:
347,54,116031,1,0,0:0:0:0:
431,31,116165,1,0,0:0:0:0:
503,297,116431,2,0,B|503:259|444:238|418:248|386:271|381:336|346:347|310:346|260:334|276:270,1,280
213,204,116965,6,0,P|142:143|31:148,1,186.666666666667
68,311,117365,1,0,0:0:0:0:
261,297,117631,1,0,0:0:0:0:
291,337,117765,2,0,P|358:248|358:237,1,93.3333333333333
491,134,118031,1,0,0:0:0:0:
446,155,118165,2,0,P|437:90|443:57,1,93.3333333333333
309,26,118431,1,0,0:0:0:0:
309,26,118565,5,0,0:0:0:0:
27,136,118831,1,0,0:0:0:0:
53,91,118965,2,0,P|151:71|166:93,1,93.3333333333333
271,173,119231,1,0,0:0:0:0:
221,166,119365,2,0,P|147:193|134:235,1,93.3333333333333
188,319,119631,2,0,P|233:318|265:286,2,93.3333333333333
383,331,120031,1,0,0:0:0:0:
412,294,120165,6,0,P|510:259|535:279,1,93.3333333333333
469,92,120431,1,0,0:0:0:0:
493,146,120565,1,0,0:0:0:0:
317,40,120831,1,0,0:0:0:0:
356,81,120965,2,0,P|343:164|309:187,1,93.3333333333333
228,285,121231,1,0,0:0:0:0:
187,238,121365,2,0,P|206:180|267:141,2,93.3333333333333
95,284,121765,6,0,P|27:268|30:213,1,93.3333333333333
58,130,122031,2,0,P|31:150|13:171,1,46.6666666666667
86,199,122165,2,0,B|187:144|99:105|207:45,1,186.666666666667
316,32,122565,1,0,0:0:0:0:
373,38,122698,1,0,0:0:0:0:
406,91,122831,1,0,0:0:0:0:
385,146,122965,1,0,0:0:0:0:
413,198,123098,1,0,0:0:0:0:
471,202,123231,1,0,0:0:0:0:
502,259,123365,6,0,P|413:316|398:379,1,93.3333333333333
350,369,123631,1,0,0:0:0:0:
291,375,123765,1,0,0:0:0:0:
246,329,123898,1,0,0:0:0:0:
257,264,124031,1,0,0:0:0:0:
308,226,124165,2,0,P|241:148|221:156,1,93.3333333333333
105,29,124431,1,0,0:0:0:0:
163,51,124565,1,0,0:0:0:0:
194,108,124698,1,0,0:0:0:0:
164,163,124831,1,0,0:0:0:0:
106,176,124965,6,0,P|50:263|59:276,1,93.3333333333333
74,345,125231,1,0,0:0:0:0:
116,359,125365,2,0,P|188:292|189:269,1,93.3333333333333
293,236,125631,1,0,0:0:0:0:
284,182,125765,2,0,P|300:132|343:88,1,93.3333333333333
352,80,125965,1,0,0:0:0:0:
377,79,126031,1,0,0:0:0:0:
429,145,126165,2,0,P|389:190|401:244,1,93.3333333333333
464,322,126431,1,0,0:0:0:0:
451,301,126498,1,0,0:0:0:0:
426,296,126565,5,0,0:0:0:0:
363,299,126698,1,0,0:0:0:0:
306,332,126831,1,0,0:0:0:0:
240,323,126965,2,0,P|213:265|213:234,1,93.3333333333333
183,64,127231,1,0,0:0:0:0:
149,21,127365,2,0,P|107:36|65:77,2,93.3333333333333
373,71,127765,2,0,P|401:105|416:162,2,93.3333333333333
77,170,128165,6,0,P|39:194|9:244,2,93.3333333333333
415,151,128565,1,0,0:0:0:0:
360,123,128698,1,0,0:0:0:0:
299,135,128831,1,0,0:0:0:0:
232,229,128965,1,0,0:0:0:0:
172,214,129098,1,0,0:0:0:0:
133,164,129231,1,0,0:0:0:0:
154,56,129365,1,0,0:0:0:0:
200,14,129498,1,0,0:0:0:0:
261,9,129631,1,0,0:0:0:0:
359,28,129915,5,0,0:0:0:0:
319,135,130298,1,0,0:0:0:0:
285,211,130431,1,0,0:0:0:0:
250,289,130565,1,0,0:0:0:0:
10,303,130865,1,0,0:0:0:0:
10,303,130915,1,0,0:0:0:0:
10,303,130965,6,0,P|36:174|120:100,1,210.000008010865
476,136,131365,6,0,P|494:234|407:351,1,245.000002336502
308,354,131665,1,0,0:0:0:0:
353,263,131765,2,0,P|368:217|347:141,1,122.500001168251
272,73,131965,1,0,0:0:0:0:
185,44,132065,1,0,0:0:0:0:
82,67,132165,2,0,P|153:129|165:198,1,122.500001168251
79,205,132365,2,0,P|62:245|64:298,1,61.2500005841255
86,383,132565,2,0,P|130:331|215:308,1,122.500001168251
287,365,132765,2,0,P|355:365|387:322,1,122.500001168251
311,277,132965,6,0,P|254:254|208:214,1,122.500001168251
353,3,133165,2,0,P|408:24|465:78,1,122.500001168251
356,212,133365,2,0,P|299:189|253:149,1,122.500001168251
309,68,133565,2,0,P|364:89|421:143,1,122.500001168251
459,235,133765,2,0,P|340:378|212:325,1,245.000002336502
182,370,134065,1,0,0:0:0:0:
93,303,134165,2,0,P|79:229|93:163,1,122.500001168251
158,44,134365,2,0,P|175:184|169:199,1,122.500001168251
195,262,134565,6,0,P|316:297|403:206,1,245.000002336502
423,131,134865,1,0,0:0:0:0:
381,44,134965,2,0,P|326:47|252:86,1,122.500001168251
179,134,135165,1,0,0:0:0:0:
111,59,135265,1,0,0:0:0:0:
1,32,135365,2,0,P|46:191|59:296,1,245.000002336502
70,384,135665,1,0,0:0:0:0:
152,313,135765,2,0,P|225:279|278:290,1,122.500001168251
390,334,135965,1,0,0:0:0:0:
473,306,136065,1,0,0:0:0:0:
512,234,136165,6,0,P|479:110|455:94,1,122.500001168251
354,39,136365,2,0,P|373:115|430:160,1,122.500001168251
373,272,136565,2,0,P|351:211|209:201,1,122.500001168251
185,198,136765,2,0,P|161:199|103:74,1,122.500001168251
58,1,136965,2,0,P|162:15|241:148,1,245.000002336502
268,240,137265,1,0,0:0:0:0:
190,329,137365,2,0,P|64:377|38:360,1,122.500001168251
84,274,137565,2,0,P|205:228|230:247,1,122.500001168251
268,240,137765,6,0,P|396:232|435:130,1,245.000002336502
368,37,138065,1,0,0:0:0:0:
262,7,138165,2,0,P|182:60|169:125,1,122.500001168251
217,236,138365,1,0,0:0:0:0:
294,284,138465,1,0,0:0:0:0:
337,360,138565,2,0,P|207:375|74:373,1,245.000002336502
39,282,138865,1,0,0:0:0:0:
82,180,138965,2,0,P|124:86|146:58,1,122.500001168251
242,58,139165,1,0,0:0:0:0:
200,150,139265,1,0,0:0:0:0:
210,246,139365,6,0,P|229:322|301:356,1,122.500001168251
415,339,139565,2,0,P|457:259|439:182,1,122.500001168251
402,113,139765,2,0,P|355:93|266:124,1,122.500001168251
179,46,139965,2,0,P|82:135|64:173,1,122.500001168251
68,263,140165,2,0,P|27:230|-36:229,2,81.6666674455007
137,362,140365,2,0,P|224:265|230:244,1,122.500001168251
252,121,140565,2,0,P|199:150|170:203,1,122.500001168251
317,198,140765,2,0,P|384:141|401:93,1,122.500001168251
350,23,140965,6,0,P|483:70|505:201,1,245.000002336502
485,276,141265,1,0,0:0:0:0:
398,343,141365,2,0,P|313:348|257:323,1,122.500001168251
167,232,141565,2,0,P|230:221|298:246,1,122.500001168251
148,334,141765,2,0,P|60:303|50:153,1,245.000002336502
100,86,142065,1,0,0:0:0:0:
208,86,142165,2,0,P|256:127|315:137,1,122.500001168251
390,68,142365,2,0,P|462:91|494:127,1,122.500001168251
504,229,142565,2,0,P|375:298|236:270,1,245.000002336502
5,143,142965,2,0,P|199:131|277:187,1,245.000002336502
178,320,143365,2,0,P|79:306|127:203,1,245.000002336502
336,80,143765,2,0,P|437:80|406:192,1,245.000002336502
51,117,144165,6,0,P|146:72|255:150,1,245.000002336502
296,240,144465,1,0,0:0:0:0:
244,333,144565,2,0,P|166:364|113:340,1,122.500001168251
12,313,144765,2,0,P|-9:244|16:176,1,122.500001168251
95,147,144965,2,0,P|156:166|242:135,1,122.500001168251
330,40,145165,2,0,P|273:27|211:46,1,122.500001168251
342,137,145365,2,0,P|418:162|456:211,1,122.500001168251
376,304,145565,2,0,P|315:276|278:236,1,122.500001168251
212,154,145765,6,0,P|134:172|37:305,1,245.000002336502
126,364,146065,1,0,0:0:0:0:
163,267,146165,2,0,P|223:237|296:240,1,122.500001168251
373,335,146365,1,0,0:0:0:0:
466,313,146465,1,0,0:0:0:0:
499,221,146565,2,0,P|414:116|307:83,1,245.000002336502
194,82,146865,1,0,0:0:0:0:
81,111,146965,2,0,P|69:182|118:274,1,122.500001168251
163,282,147165,2,0,P|230:287|277:249,1,122.500001168251
308,138,147365,6,0,P|347:70|466:168,1,245.000002336502
485,242,147665,1,0,0:0:0:0:
439,341,147765,2,0,P|346:355|294:334,1,122.500001168251
181,232,147965,1,0,0:0:0:0:
190,134,148065,1,0,0:0:0:0:
142,65,148165,2,0,P|79:72|78:258,1,245.000002336502
96,328,148465,1,0,0:0:0:0:
201,275,148565,2,0,P|266:226|334:239,1,122.500001168251
454,231,148765,1,0,0:0:0:0:
507,150,148865,1,0,0:0:0:0:
472,59,148965,6,0,P|409:90|371:159,1,122.500001168251
304,226,149165,2,0,P|286:304|243:342,1,122.500001168251
116,342,149365,2,0,P|140:282|198:238,1,122.500001168251
276,136,149565,2,0,P|282:72|239:21,1,122.500001168251
96,10,149765,2,0,P|44:42|9:137,1,122.500001168251
65,223,149965,2,0,P|143:247|189:244,1,122.500001168251
304,226,150165,2,0,P|360:169|347:105,1,122.500001168251
363,31,150365,2,0,P|431:18|485:99,1,122.500001168251
502,165,150565,6,0,P|488:266|369:360,1,245.000002336502
260,340,150865,1,0,0:0:0:0:
362,271,150965,2,0,P|411:233|418:170,1,122.500001168251
286,94,151165,1,0,0:0:0:0:
186,57,151265,1,0,0:0:0:0:
74,78,151365,2,0,P|179:174|247:309,1,245.000002336502
167,369,151665,1,0,0:0:0:0:
55,307,151765,2,0,P|10:267|3:193,1,122.500001168251
134,97,151965,1,0,0:0:0:0:
223,50,152065,1,0,0:0:0:0:
311,64,152165,6,0,P|386:133|408:298,1,245.000002336502
343,384,152465,1,0,0:0:0:0:
333,253,152565,2,0,P|318:179|262:129,1,122.500001168251
186,102,152765,2,0,P|109:100|-2:222,1,245.000002336502
83,350,153065,1,0,0:0:0:0:
196,318,153165,1,0,0:0:0:0:
269,240,153265,1,0,0:0:0:0:
291,142,153365,2,0,P|345:71|490:153,1,245.000002336502
512,240,153665,1,0,0:0:0:0:
456,358,153765,6,0,P|374:265|265:274,1,183.750001752377
219,258,154065,1,0,0:0:0:0:
111,220,154165,2,0,P|104:125|156:100,1,122.500001168251
175,5,154365,2,0,P|258:30|278:73,1,122.500001168251
272,197,154565,2,0,P|217:283|351:353,1,245.000002336502
419,349,154865,1,0,0:0:0:0:
493,272,154965,2,0,P|485:238|450:159,1,122.500001168251
318,31,155165,2,0,P|356:119|401:175,1,122.500001168251
415,205,155365,6,0,B|451:222|465:260|466:311|442:365|366:388|304:354|290:303|282:229|282:229|279:195|270:138|224:83|150:59|66:123|39:205|126:243|160:268,1,735.000007009506
121,367,156165,2,0,L|291:122,1,245.000002336502
419,57,156465,2,0,L|277:277,1,245.000002336502
326,353,156765,2,0,L|397:239,1,122.500001168251
481,136,156965,2,0,B|434:169|479:206|487:252|469:289|445:329|402:305|344:270|376:224|384:195|384:195|397:148|414:93|375:62|300:73|267:62|188:80|172:178|185:234|304:232|316:344|316:344|269:281|164:230|143:280|155:311|161:371|63:354|83:279,1,1120
51,151,162831,5,0,0:0:0:0:
75,98,162898,1,0,0:0:0:0:
128,80,162965,1,0,0:0:0:0:
180,91,163031,1,0,0:0:0:0:
207,144,163098,1,0,0:0:0:0:
240,190,163165,1,0,0:0:0:0:
300,211,163231,1,0,0:0:0:0:
349,191,163298,1,0,0:0:0:0:
344,132,163365,6,0,P|426:214|531:253,1,210
294,384,163665,2,0,P|198:290|140:264,1,105.000004005432
132,95,163865,1,0,0:0:0:0:
147,65,164065,1,0,0:0:0:0:
186,42,164165,2,0,P|300:32|431:59,1,227.500006508827
160,182,164465,2,0,P|82:184|20:166,1,113.750003254414
153,329,164665,1,0,0:0:0:0:
191,360,164865,1,0,0:0:0:0:
240,371,164965,6,0,P|368:272|424:183,1,245.000002336502
277,12,165265,2,0,P|167:93|147:146,1,122.500001168251
403,365,165465,1,0,0:0:0:0:
440,349,165665,1,0,0:0:0:0:
483,311,165765,2,0,P|486:171|454:45,1,262.500006258488
235,1,166065,2,0,P|255:127|274:152,1,131.250003129244
356,329,166265,2,0,P|327:200|318:189,1,131.250003129244
242,353,166565,6,0,L|167:190,1,131.250003129244
133,85,166765,2,0,L|108:17,2,65.625001564622
370,241,166965,2,0,L|201:178,1,131.250003129244
76,130,167165,2,0,L|10:99,2,65.625001564622
375,70,167365,2,0,L|212:145,1,131.250003129244
91,203,167565,2,0,L|23:228,2,65.625001564622
230,3,167765,1,0,0:0:0:0:
199,89,167865,1,0,0:0:0:0:
173,173,167965,1,0,0:0:0:0:
149,269,168065,1,0,0:0:0:0:
449,357,168365,5,0,0:0:0:0:
411,235,168698,1,0,0:0:0:0:
376,147,168831,1,0,0:0:0:0:
340,60,168965,1,0,0:0:0:0:
230,14,169098,1,0,0:0:0:0:
187,48,169165,1,0,0:0:0:0:
178,101,169231,1,0,0:0:0:0:
213,144,169298,1,0,0:0:0:0:
266,150,169365,2,0,P|325:227|209:355,1,262.500006258488
16,384,169765,6,0,P|150:304|253:320,1,262.500006258488
435,329,170065,2,0,P|314:245|243:262,1,210.000008010865
125,222,170365,2,0,P|235:183|274:204,1,140
331,131,170715,2,0,P|277:119|255:130,1,70
206,66,171065,2,0,P|238:59|264:60,1,52.5
261,0,171565,1,0,0:0:0:0:
233,180,171698,1,0,0:0:0:0:
241,189,171915,1,0,0:0:0:0:
241,189,172031,1,0,0:0:0:0:
241,189,172165,2,0,B|258:172|490:213|446:396|306:407|181:289|119:245|135:121|251:109|251:109|283:104|303:105|374:124|430:117|458:70|398:-19|398:-19|371:4|316:45|322:140|300:200|268:291|268:291|233:362|226:414|148:427|48:384|111:300|129:310,1,1511.99995385742
126,156,177165,6,0,L|111:133,2,17.5
171,175,177298,1,0,0:0:0:0:
209,171,177365,1,0,0:0:0:0:
232,140,177431,1,0,0:0:0:0:
226,94,177498,1,0,0:0:0:0:
238,70,177565,1,0,0:0:0:0:
268,42,177631,2,0,P|309:37|327:48,1,46.6666666666667
431,102,177831,2,0,P|415:113|402:135,1,23.3333333333333
315,199,177965,2,0,P|332:185|343:170,1,23.3333333333333
