osu file format v14

[General]
AudioFilename: audio.mp3
AudioLeadIn: 0
PreviewTime: 52257
Countdown: 1
SampleSet: Soft
StackLeniency: 0
Mode: 0
LetterboxInBreaks: 0
WidescreenStoryboard: 0

[Editor]
Bookmarks: 5628,16600,38543,52257,74200,85171,107114,120828,140028,145514,170200,183914,203114,205857,225057,227800,249743
DistanceSpacing: 1.2
BeatDivisor: 4
GridSize: 8
TimelineZoom: 2.999999

[Metadata]
Title:Butter-fly (Trance mix)
TitleUnicode:Butter-fly (Trance mix)
Artist:NINE
ArtistUnicode:NINE
Creator:nitsuga5124
Version:A boxing cactus.
Source:
Tags:NINE Butter fly Digimon Adventure TRANCE MIX opening not tv size full length remix defenitely not pokemon
BeatmapID:1466444
BeatmapSetID:693027

[Difficulty]
HPDrainRate:5
CircleSize:5
OverallDifficulty:7
ApproachRate:7
SliderMultiplier:1.6
SliderTickRate:1

[Events]
//Background and Video events
0,0,"2ff008ad7a8834f3ce673c4913854642.jpg",0,0
//Break Periods
//Storyboard Layer 0 (Background)
//Storyboard Layer 1 (Fail)
//Storyboard Layer 2 (Pass)
//Storyboard Layer 3 (Foreground)
//Storyboard Sound Samples

[TimingPoints]
143,342.857142857143,4,2,0,100,1,0
15743,-120.481927710843,4,2,0,100,0,0
16257,-100,4,2,0,100,0,0
52257,-100,4,2,0,100,0,1
85171,-100,4,2,0,100,0,0
107114,-120.481927710843,4,2,0,100,0,0

[Colours]
Combo1 : 72,190,16
Combo2 : 255,128,0
Combo3 : 106,173,255
Combo4 : 64,213,255

[HitObjects]
256,48,5628,5,0,0:0:0:0:
256,48,5971,5,0,0:0:0:0:
208,96,6143,1,0,0:0:0:0:
304,96,6314,1,0,0:0:0:0:
256,160,6485,1,0,0:0:0:0:
256,240,6657,1,0,0:0:0:0:
136,280,7000,6,0,P|104:192|136:120,1,160
376,104,7514,2,0,P|408:192|376:264,2,160
256,192,8371,5,0,0:0:0:0:
256,48,8714,5,0,0:0:0:0:
256,128,8885,1,0,0:0:0:0:
168,128,9057,1,0,0:0:0:0:
168,216,9228,1,0,0:0:0:0:
256,216,9400,1,0,0:0:0:0:
408,352,9743,6,0,L|408:192,1,160
408,32,10257,2,0,L|408:192,1,160
120,192,11114,5,0,0:0:0:0:
256,336,11457,5,0,0:0:0:0:
256,256,11628,1,0,0:0:0:0:
344,256,11800,1,0,0:0:0:0:
344,168,11971,1,0,0:0:0:0:
256,168,12143,1,0,0:0:0:0:
96,40,12485,6,0,L|256:40,1,160
416,40,13000,2,0,L|256:40,1,160
256,296,13857,5,0,0:0:0:0:
256,48,14200,5,0,0:0:0:0:
256,144,14371,1,0,0:0:0:0:
256,240,14543,1,0,0:0:0:0:
256,336,14714,1,0,0:0:0:0:
256,240,14885,1,0,0:0:0:0:
256,40,15228,6,0,L|256:208,1,160
168,240,15743,2,0,P|249:274|349:232,1,199.200002887573
256,40,16428,5,0,0:0:0:0:
256,128,16600,1,0,0:0:0:0:
320,192,16771,1,0,0:0:0:0:
408,192,16943,1,0,0:0:0:0:
408,96,17114,1,0,0:0:0:0:
408,8,17285,2,0,L|320:8,1,80
168,8,17628,5,0,0:0:0:0:
256,8,17800,1,0,0:0:0:0:
88,8,18143,1,0,0:0:0:0:
296,192,19000,5,0,0:0:0:0:
208,192,19171,1,0,0:0:0:0:
256,40,19514,5,0,0:0:0:0:
256,128,19685,1,0,0:0:0:0:
256,216,19857,1,0,0:0:0:0:
256,304,20028,1,0,0:0:0:0:
256,88,20371,5,0,0:0:0:0:
256,168,20543,1,0,0:0:0:0:
256,8,20885,1,0,0:0:0:0:
256,296,21571,5,0,0:0:0:0:
256,192,21743,1,0,0:0:0:0:
360,192,21914,1,0,0:0:0:0:
256,192,22085,1,0,0:0:0:0:
152,192,22257,1,0,0:0:0:0:
0,272,22943,5,0,0:0:0:0:
56,192,23114,1,0,0:0:0:0:
104,272,23285,1,0,0:0:0:0:
144,88,23628,5,0,0:0:0:0:
200,168,23799,1,0,0:0:0:0:
248,88,23970,1,0,0:0:0:0:
312,272,24314,5,0,0:0:0:0:
368,192,24485,1,0,0:0:0:0:
416,272,24657,2,0,L|472:208,1,80
480,88,25000,5,0,0:0:0:0:
416,152,25171,1,0,0:0:0:0:
352,216,25343,1,0,0:0:0:0:
280,288,25514,1,0,0:0:0:0:
280,184,25685,5,0,0:0:0:0:
216,248,25856,1,0,0:0:0:0:
152,312,26028,1,0,0:0:0:0:
240,192,26371,5,0,0:0:0:0:
376,192,26543,1,0,0:0:0:0:
256,184,26714,1,0,0:0:0:0:
256,320,26886,1,0,0:0:0:0:
272,192,27057,1,0,0:0:0:0:
120,192,27229,1,0,0:0:0:0:
256,48,27571,5,0,0:0:0:0:
312,136,27743,1,0,0:0:0:0:
368,48,27914,1,0,0:0:0:0:
424,136,28085,1,0,0:0:0:0:
480,48,28257,1,0,0:0:0:0:
368,224,28600,5,0,0:0:0:0:
424,136,28772,1,0,0:0:0:0:
304,312,29114,6,0,L|440:112,1,240
256,48,29971,5,0,0:0:0:0:
200,136,30143,1,0,0:0:0:0:
32,40,30485,5,0,0:0:0:0:
88,128,30657,1,0,0:0:0:0:
144,216,30828,1,0,0:0:0:0:
256,40,31171,5,0,0:0:0:0:
200,128,31343,1,0,0:0:0:0:
144,216,31514,1,0,0:0:0:0:
208,312,31857,6,0,L|72:112,1,240
256,56,32543,5,0,0:0:0:0:
256,184,32714,1,0,0:0:0:0:
336,120,32885,1,0,0:0:0:0:
176,120,33057,1,0,0:0:0:0:
256,264,33228,1,0,0:0:0:0:
264,128,33914,5,0,0:0:0:0:
320,48,34085,1,0,0:0:0:0:
368,128,34256,1,0,0:0:0:0:
192,48,34600,5,0,0:0:0:0:
144,128,34771,1,0,0:0:0:0:
88,48,34942,1,0,0:0:0:0:
384,144,35285,5,0,0:0:0:0:
347,249,35456,1,0,0:0:0:0:
457,227,35628,2,0,L|456:64,1,160
328,64,36143,5,0,0:0:0:0:
272,176,36314,1,0,0:0:0:0:
216,64,36485,1,0,0:0:0:0:
160,176,36656,1,0,0:0:0:0:
104,64,36828,1,0,0:0:0:0:
48,176,36999,1,0,0:0:0:0:
200,296,37343,5,0,0:0:0:0:
240,208,37514,1,0,0:0:0:0:
280,296,37685,1,0,0:0:0:0:
328,208,37856,1,0,0:0:0:0:
368,296,38028,1,0,0:0:0:0:
416,208,38199,1,0,0:0:0:0:
256,104,38543,6,0,P|168:72|80:112,2,160
256,104,39400,2,0,P|344:72|432:112,1,160
56,192,40771,5,0,0:0:0:0:
56,80,40943,1,0,0:0:0:0:
136,0,41114,5,0,0:0:0:0:
248,0,41285,1,0,0:0:0:0:
336,72,41457,5,0,0:0:0:0:
336,184,41628,1,0,0:0:0:0:
256,264,41800,5,0,0:0:0:0:
144,264,41971,1,0,0:0:0:0:
64,184,42143,5,0,0:0:0:0:
64,72,42314,1,0,0:0:0:0:
176,72,42485,1,0,0:0:0:0:
288,72,42657,2,0,L|456:72,2,160
176,72,43514,5,0,0:0:0:0:
176,72,43685,1,0,0:0:0:0:
176,72,43857,1,0,0:0:0:0:
256,152,44028,2,0,B|360:152|416:192|416:192,2,160
256,152,44885,2,0,B|152:152|96:192|96:192,1,160
256,192,45400,12,0,46257,0:0:0:0:
256,120,46428,5,0,0:0:0:0:
256,208,46600,1,0,0:0:0:0:
176,120,46771,1,0,0:0:0:0:
176,208,46943,5,0,0:0:0:0:
176,296,47114,1,0,0:0:0:0:
176,376,47285,1,0,0:0:0:0:
176,208,47628,5,0,0:0:0:0:
176,296,47799,1,0,0:0:0:0:
176,376,47970,1,0,0:0:0:0:
336,176,48314,5,0,0:0:0:0:
336,88,48485,1,0,0:0:0:0:
336,8,48657,2,0,L|336:136,1,120
336,168,49000,5,0,0:0:0:0:
336,208,49085,1,0,0:0:0:0:
336,248,49171,1,0,0:0:0:0:
336,288,49257,1,0,0:0:0:0:
336,328,49343,1,0,0:0:0:0:
336,168,49514,5,0,0:0:0:0:
256,192,49685,12,0,50714,0:0:0:0:
256,192,50885,5,0,0:0:0:0:
256,192,52085,5,0,0:0:0:0:
256,192,52257,6,0,L|256:24,1,160
256,32,52771,6,0,P|336:40|424:32,1,160
415,33,53285,1,0,0:0:0:0:
256,32,53628,6,0,P|168:40|88:32,1,160
96,33,54143,1,0,0:0:0:0:
416,32,54485,5,0,0:0:0:0:
416,112,54657,1,0,0:0:0:0:
416,192,54828,1,0,0:0:0:0:
256,192,55000,12,0,55857,0:0:0:0:
256,72,56028,5,0,0:0:0:0:
256,152,56200,1,0,0:0:0:0:
256,232,56371,1,0,0:0:0:0:
256,312,56543,1,0,0:0:0:0:
152,192,56885,5,0,0:0:0:0:
232,192,57057,1,0,0:0:0:0:
312,192,57228,1,0,0:0:0:0:
392,192,57400,1,0,0:0:0:0:
472,192,57571,2,0,L|224:192,1,240
128,192,58257,6,0,L|0:192,1,120
8,136,58600,1,0,0:0:0:0:
8,72,58771,1,0,0:0:0:0:
8,8,58943,6,0,L|128:8,1,120
128,40,59285,1,0,0:0:0:0:
128,104,59457,1,0,0:0:0:0:
128,168,59628,6,0,L|368:168,1,240
368,72,60314,5,0,0:0:0:0:
272,72,60485,1,0,0:0:0:0:
176,168,60657,5,0,0:0:0:0:
272,168,60828,1,0,0:0:0:0:
368,72,61000,5,0,0:0:0:0:
272,72,61171,1,0,0:0:0:0:
176,72,61343,1,0,0:0:0:0:
176,264,61685,6,0,L|176:96,1,160
176,8,62200,1,0,0:0:0:0:
256,184,62543,5,0,0:0:0:0:
256,88,62714,1,0,0:0:0:0:
336,256,63228,6,0,B|256:287|168:255|168:255,2,160
176,256,64257,1,0,0:0:0:0:
256,32,64600,2,0,L|256:200,1,160
256,288,65114,1,0,0:0:0:0:
344,64,65457,5,0,0:0:0:0:
256,64,65628,1,0,0:0:0:0:
176,64,65800,1,0,0:0:0:0:
256,192,65971,12,0,66828,0:0:0:0:
256,64,67000,5,0,0:0:0:0:
192,128,67171,1,0,0:0:0:0:
320,128,67343,1,0,0:0:0:0:
256,200,67514,1,0,0:0:0:0:
256,320,67857,5,0,0:0:0:0:
320,256,68028,1,0,0:0:0:0:
192,256,68200,1,0,0:0:0:0:
256,184,68371,1,0,0:0:0:0:
256,80,68543,2,0,L|256:328,1,240
320,264,69228,6,0,L|320:104,1,160
320,24,69743,1,0,0:0:0:0:
192,24,69914,6,0,L|192:184,1,160
192,264,70429,1,0,0:0:0:0:
320,192,70600,6,0,L|0:192,1,320
256,192,71457,12,0,72657,0:0:0:0:
256,192,72828,12,0,74028,0:0:0:0:
256,192,74200,12,0,76943,0:0:0:0:
256,96,77285,5,0,0:0:0:0:
256,192,77457,1,0,0:0:0:0:
160,192,77628,1,0,0:0:0:0:
160,96,77800,1,0,0:0:0:0:
160,0,77971,1,0,0:0:0:0:
256,192,78314,6,0,B|312:104|272:40|272:40,1,160
256,192,78828,2,0,B|200:280|240:344|240:344,2,160
320,104,79685,5,0,0:0:0:0:
320,104,80028,1,0,0:0:0:0:
320,200,80200,1,0,0:0:0:0:
232,200,80371,1,0,0:0:0:0:
320,200,80543,1,0,0:0:0:0:
408,200,80714,1,0,0:0:0:0:
256,88,81057,6,0,L|256:232,1,120
256,208,81400,1,0,0:0:0:0:
256,208,81571,6,0,B|400:128|96:80|272:0|272:0,1,240
256,328,82428,5,0,0:0:0:0:
256,48,82771,1,0,0:0:0:0:
144,48,82943,1,0,0:0:0:0:
40,48,83114,1,0,0:0:0:0:
144,144,83285,5,0,0:0:0:0:
40,144,83456,1,0,0:0:0:0:
256,144,83800,6,0,L|256:264,1,120
256,336,84143,1,0,0:0:0:0:
376,296,84314,2,0,B|296:320|216:272|128:296|128:296,1,240
256,64,85171,5,0,0:0:0:0:
256,160,85343,1,0,0:0:0:0:
256,256,85514,1,0,0:0:0:0:
256,352,85685,1,0,0:0:0:0:
256,352,85857,6,0,L|128:352,1,120
88,352,86200,1,0,0:0:0:0:
88,352,86371,1,0,0:0:0:0:
408,352,86714,1,0,0:0:0:0:
256,192,86800,12,0,87485,0:0:0:0:
256,112,87571,5,0,0:0:0:0:
256,208,87743,1,0,0:0:0:0:
64,208,88085,5,0,0:0:0:0:
160,208,88257,1,0,0:0:0:0:
256,208,88428,1,0,0:0:0:0:
352,208,88600,2,0,L|528:208,1,160
440,272,89114,5,0,0:0:0:0:
248,272,89457,1,0,0:0:0:0:
256,192,89543,12,0,90057,0:0:0:0:
256,296,90143,5,0,0:0:0:0:
160,296,90314,1,0,0:0:0:0:
160,200,90485,1,0,0:0:0:0:
64,200,90657,1,0,0:0:0:0:
64,104,90828,2,0,L|64:352,1,240
256,344,91514,5,0,0:0:0:0:
256,248,91685,1,0,0:0:0:0:
160,248,91857,1,0,0:0:0:0:
352,248,92200,5,0,0:0:0:0:
256,248,92371,1,0,0:0:0:0:
256,344,92543,1,0,0:0:0:0:
160,248,92885,5,0,0:0:0:0:
256,248,93056,1,0,0:0:0:0:
352,248,93228,2,0,L|352:96,1,120
352,80,93571,5,0,0:0:0:0:
256,80,93743,1,0,0:0:0:0:
160,80,93914,1,0,0:0:0:0:
160,176,94085,5,0,0:0:0:0:
256,176,94257,1,0,0:0:0:0:
256,272,94428,1,0,0:0:0:0:
352,272,94600,1,0,0:0:0:0:
160,272,94943,5,0,0:0:0:0:
256,272,95115,1,0,0:0:0:0:
256,176,95285,1,0,0:0:0:0:
352,176,95457,1,0,0:0:0:0:
352,80,95628,1,0,0:0:0:0:
448,80,95800,1,0,0:0:0:0:
448,176,95971,6,0,L|344:176,1,80
368,272,96314,1,0,0:0:0:0:
272,272,96485,1,0,0:0:0:0:
176,272,96657,1,0,0:0:0:0:
176,176,96828,2,0,L|296:56,1,160
296,160,97343,1,0,0:0:0:0:
104,160,97685,1,0,0:0:0:0:
256,192,97771,12,0,98457,0:0:0:0:
256,136,98543,5,0,0:0:0:0:
256,232,98714,2,0,L|256:368,1,120
256,232,99057,1,0,0:0:0:0:
256,136,99228,1,0,0:0:0:0:
256,40,99400,2,0,L|256:248,1,200
256,288,99914,1,0,0:0:0:0:
352,288,100085,1,0,0:0:0:0:
160,288,100428,1,0,0:0:0:0:
256,192,100514,12,0,101028,0:0:0:0:
304,192,101114,5,0,0:0:0:0:
208,192,101285,1,0,0:0:0:0:
112,192,101457,1,0,0:0:0:0:
112,96,101628,1,0,0:0:0:0:
112,192,101800,2,0,L|352:192,1,240
256,296,102485,5,0,0:0:0:0:
352,296,102657,1,0,0:0:0:0:
304,216,102828,1,0,0:0:0:0:
128,296,103171,5,0,0:0:0:0:
224,296,103343,1,0,0:0:0:0:
176,216,103514,1,0,0:0:0:0:
368,216,103857,5,0,0:0:0:0:
464,216,104029,1,0,0:0:0:0:
416,136,104200,2,0,L|416:0,1,120
272,16,104714,5,0,0:0:0:0:
272,16,104885,1,0,0:0:0:0:
272,112,105057,5,0,0:0:0:0:
272,112,105228,1,0,0:0:0:0:
272,208,105400,5,0,0:0:0:0:
272,112,105571,1,0,0:0:0:0:
272,304,105914,5,0,0:0:0:0:
256,208,106085,1,0,0:0:0:0:
232,112,106257,5,0,0:0:0:0:
216,16,106428,1,0,0:0:0:0:
232,112,106600,5,0,0:0:0:0:
216,208,106771,1,0,0:0:0:0:
200,304,106943,1,0,0:0:0:0:
297,303,107114,6,0,L|297:159,2,132.800001925049
297,170,107971,2,0,L|297:26,1,132.800001925049
256,192,108485,12,0,109171,0:0:0:0:
190,170,109343,5,0,0:0:0:0:
190,170,109514,1,0,0:0:0:0:
190,170,109685,1,0,0:0:0:0:
190,170,109857,1,0,0:0:0:0:
190,170,110028,1,0,0:0:0:0:
190,170,110200,1,0,0:0:0:0:
190,170,110371,1,0,0:0:0:0:
190,170,110543,1,0,0:0:0:0:
190,170,110714,1,0,0:0:0:0:
190,170,110885,1,0,0:0:0:0:
190,170,111057,1,0,0:0:0:0:
190,170,111400,1,0,0:0:0:0:
125,317,112085,5,0,0:0:0:0:
125,237,112257,1,0,0:0:0:0:
125,157,112428,1,0,0:0:0:0:
125,73,112600,6,0,L|272:73,2,132.800001925049
257,73,113457,2,0,L|404:73,1,132.800001925049
256,192,113971,12,0,114828,0:0:0:0:
190,170,115000,5,0,0:0:0:0:
190,249,115171,1,0,0:0:0:0:
330,170,115514,5,0,0:0:0:0:
330,249,115685,1,0,0:0:0:0:
330,328,115857,1,0,0:0:0:0:
330,91,116200,5,0,0:0:0:0:
330,170,116371,1,0,0:0:0:0:
330,249,116543,1,0,0:0:0:0:
330,12,116885,5,0,0:0:0:0:
330,91,117056,1,0,0:0:0:0:
330,170,117228,2,0,L|220:170,1,99.6000014437867
190,170,117571,5,0,0:0:0:0:
190,170,117657,1,0,0:0:0:0:
190,170,117743,1,0,0:0:0:0:
190,170,117828,1,0,0:0:0:0:
190,170,117914,1,0,0:0:0:0:
190,170,118000,1,0,0:0:0:0:
190,170,118085,1,0,0:0:0:0:
256,192,118171,12,0,119285,0:0:0:0:
195,146,119457,5,0,0:0:0:0:
192,243,120657,5,0,0:0:0:0:
192,243,120828,1,0,0:0:0:0:
