osu file format v14

[General]
AudioFilename: audio.ogg
AudioLeadIn: 0
PreviewTime: 43564
Countdown: 0
SampleSet: Soft
StackLeniency: 0.7
Mode: 3
LetterboxInBreaks: 0
SpecialStyle: 0
WidescreenStoryboard: 1

[Editor]
Bookmarks: 7564,19564,31564,43564,55564,67564
DistanceSpacing: 0.8
BeatDivisor: 4
GridSize: 32
TimelineZoom: 2

[Metadata]
Title:Shama (inabakumori Remix)
TitleUnicode:紗痲 (稲葉曇 Remix)
Artist:NILFRUITS
ArtistUnicode:煮ル果実
Creator:Crisper
Version:Normal
Source:
Tags:ballistic gauze niru kajitsu 歌愛ユキ kaai yuki flower MichouP 視長P 因幡プカリ Inaba Pukari きゐな kiwina Inaba Cumori Japanese Vocaloid voiceroid ぬくぬくにぎりめし Nukunuku Nigirimeshi jpop j-pop jrock j-rock electronic long notes ln rock
BeatmapID:3982086
BeatmapSetID:1928242

[Difficulty]
HPDrainRate:7
CircleSize:4
OverallDifficulty:7
ApproachRate:5
SliderMultiplier:1.4
SliderTickRate:1

[Events]
//Background and Video events
0,0,"background28.png",0,0
//Break Periods
//Storyboard Layer 0 (Background)
//Storyboard Layer 1 (Fail)
//Storyboard Layer 2 (Pass)
//Storyboard Layer 3 (Foreground)
//Storyboard Layer 4 (Overlay)
//Storyboard Sound Samples

[TimingPoints]
1564,375,4,2,1,40,1,0
43564,-100,4,2,1,40,0,1
52564,-100,4,2,1,40,0,0
55564,-100,4,2,1,40,0,1
64564,-100,4,2,1,40,0,0

[HitObjects]
64,192,1564,5,0,0:0:0:0:
448,192,1564,1,0,0:0:0:0:
64,192,1939,1,0,0:0:0:0:
320,192,2126,1,0,0:0:0:0:
448,192,2220,1,0,0:0:0:0:
192,192,2314,1,0,0:0:0:0:
320,192,2407,1,0,0:0:0:0:
64,192,2501,1,0,0:0:0:0:
64,192,2782,128,0,3064:0:0:0:0:
448,192,3064,1,0,0:0:0:0:
448,192,3439,1,0,0:0:0:0:
192,192,3626,1,0,0:0:0:0:
64,192,3720,1,0,0:0:0:0:
320,192,3814,1,0,0:0:0:0:
192,192,3907,1,0,0:0:0:0:
448,192,4001,1,0,0:0:0:0:
448,192,4282,128,0,4470:0:0:0:0:
320,192,4470,1,0,0:0:0:0:
64,192,4564,1,0,0:0:0:0:
192,192,4564,1,0,0:0:0:0:
64,192,4939,1,0,0:0:0:0:
320,192,5126,1,0,0:0:0:0:
448,192,5220,1,0,0:0:0:0:
192,192,5314,1,0,0:0:0:0:
320,192,5407,1,0,0:0:0:0:
64,192,5501,1,0,0:0:0:0:
64,192,5782,128,0,6064:0:0:0:0:
448,192,6064,128,0,6626:0:0:0:0:
64,192,7001,1,0,0:0:0:0:
192,192,7001,1,0,0:0:0:0:
320,192,7189,1,0,0:0:0:0:
64,192,7282,1,0,0:0:0:0:
192,192,7282,128,0,7564:0:0:0:0:
320,192,7564,1,0,0:0:0:0:
448,192,7564,1,0,0:0:0:0:
192,192,7751,1,0,0:0:0:0:
64,192,7939,1,0,0:0:0:0:
448,192,7939,1,0,0:0:0:0:
320,192,8126,1,0,0:0:0:0:
192,192,8220,1,0,0:0:0:0:
448,192,8314,1,0,0:0:0:0:
320,192,8407,1,0,0:0:0:0:
192,192,8501,1,0,0:0:0:0:
64,192,8689,1,0,0:0:0:0:
448,192,8689,1,0,0:0:0:0:
320,192,8876,1,0,0:0:0:0:
192,192,9064,1,0,0:0:0:0:
320,192,9251,1,0,0:0:0:0:
64,192,9439,1,0,0:0:0:0:
448,192,9439,1,0,0:0:0:0:
192,192,9626,1,0,0:0:0:0:
320,192,9720,1,0,0:0:0:0:
64,192,9814,1,0,0:0:0:0:
192,192,9907,1,0,0:0:0:0:
320,192,10001,1,0,0:0:0:0:
64,192,10189,1,0,0:0:0:0:
448,192,10189,1,0,0:0:0:0:
192,192,10376,1,0,0:0:0:0:
320,192,10564,1,0,0:0:0:0:
64,192,10751,1,0,0:0:0:0:
192,192,10939,1,0,0:0:0:0:
448,192,10939,1,0,0:0:0:0:
320,192,11126,1,0,0:0:0:0:
64,192,11220,1,0,0:0:0:0:
448,192,11314,1,0,0:0:0:0:
192,192,11407,1,0,0:0:0:0:
320,192,11501,1,0,0:0:0:0:
192,192,11689,1,0,0:0:0:0:
64,192,11689,1,0,0:0:0:0:
448,192,11876,1,0,0:0:0:0:
192,192,12064,1,0,0:0:0:0:
320,192,12251,1,0,0:0:0:0:
64,192,12439,1,0,0:0:0:0:
448,192,12439,1,0,0:0:0:0:
192,192,12626,1,0,0:0:0:0:
320,192,12720,1,0,0:0:0:0:
64,192,12814,1,0,0:0:0:0:
448,192,12907,1,0,0:0:0:0:
192,192,13001,1,0,0:0:0:0:
320,192,13189,1,0,0:0:0:0:
448,192,13189,1,0,0:0:0:0:
192,192,13376,1,0,0:0:0:0:
320,192,13470,1,0,0:0:0:0:
448,192,13564,1,0,0:0:0:0:
64,192,13564,128,0,13939:0:0:0:0:
320,192,13939,1,0,0:0:0:0:
448,192,13939,1,0,0:0:0:0:
192,192,14126,1,0,0:0:0:0:
320,192,14220,1,0,0:0:0:0:
64,192,14314,1,0,0:0:0:0:
192,192,14407,1,0,0:0:0:0:
320,192,14501,1,0,0:0:0:0:
64,192,14689,1,0,0:0:0:0:
448,192,14689,1,0,0:0:0:0:
192,192,14876,1,0,0:0:0:0:
320,192,15064,1,0,0:0:0:0:
192,192,15251,1,0,0:0:0:0:
64,192,15439,1,0,0:0:0:0:
448,192,15439,1,0,0:0:0:0:
320,192,15626,1,0,0:0:0:0:
192,192,15720,1,0,0:0:0:0:
448,192,15814,1,0,0:0:0:0:
320,192,15907,1,0,0:0:0:0:
192,192,16001,1,0,0:0:0:0:
64,192,16189,1,0,0:0:0:0:
448,192,16189,1,0,0:0:0:0:
320,192,16376,1,0,0:0:0:0:
192,192,16564,1,0,0:0:0:0:
448,192,16751,1,0,0:0:0:0:
64,192,16939,1,0,0:0:0:0:
320,192,16939,1,0,0:0:0:0:
192,192,17126,1,0,0:0:0:0:
448,192,17220,1,0,0:0:0:0:
64,192,17314,1,0,0:0:0:0:
320,192,17407,1,0,0:0:0:0:
192,192,17501,1,0,0:0:0:0:
320,192,17689,1,0,0:0:0:0:
448,192,17689,1,0,0:0:0:0:
64,192,17876,1,0,0:0:0:0:
320,192,18064,1,0,0:0:0:0:
192,192,18157,1,0,0:0:0:0:
448,192,18251,1,0,0:0:0:0:
64,192,18439,1,0,0:0:0:0:
320,192,18532,1,0,0:0:0:0:
192,192,18626,1,0,0:0:0:0:
64,192,18720,1,0,0:0:0:0:
320,192,18814,1,0,0:0:0:0:
64,192,19001,1,0,0:0:0:0:
448,192,19001,1,0,0:0:0:0:
192,192,19189,1,0,0:0:0:0:
320,192,19282,1,0,0:0:0:0:
448,192,19376,1,0,0:0:0:0:
64,192,19564,128,0,19751:0:0:0:0:
192,192,19564,1,0,0:0:0:0:
448,192,19751,1,0,0:0:0:0:
192,192,19939,1,0,0:0:0:0:
320,192,19939,1,0,0:0:0:0:
448,192,20126,128,0,20314:0:0:0:0:
64,192,20314,128,0,20501:0:0:0:0:
320,192,20501,128,0,20689:0:0:0:0:
64,192,20689,128,0,20876:0:0:0:0:
448,192,20689,1,0,0:0:0:0:
192,192,20876,128,0,21064:0:0:0:0:
448,192,21064,128,0,21251:0:0:0:0:
64,192,21251,1,0,0:0:0:0:
448,192,21439,128,0,21626:0:0:0:0:
320,192,21439,1,0,0:0:0:0:
64,192,21626,1,0,0:0:0:0:
192,192,21720,1,0,0:0:0:0:
320,192,21814,1,0,0:0:0:0:
448,192,21907,1,0,0:0:0:0:
192,192,22001,1,0,0:0:0:0:
448,192,22189,1,0,0:0:0:0:
64,192,22189,128,0,22376:0:0:0:0:
192,192,22376,1,0,0:0:0:0:
320,192,22470,1,0,0:0:0:0:
448,192,22564,1,0,0:0:0:0:
64,192,22751,1,0,0:0:0:0:
64,192,22939,1,0,0:0:0:0:
320,192,22939,128,0,23126:0:0:0:0:
448,192,23126,1,0,0:0:0:0:
192,192,23220,1,0,0:0:0:0:
320,192,23314,128,0,23501:0:0:0:0:
64,192,23501,128,0,23689:0:0:0:0:
192,192,23689,128,0,23876:0:0:0:0:
448,192,23689,1,0,0:0:0:0:
320,192,23876,128,0,24064:0:0:0:0:
192,192,24064,128,0,24251:0:0:0:0:
448,192,24251,1,0,0:0:0:0:
320,192,24439,1,0,0:0:0:0:
192,192,24439,1,0,0:0:0:0:
64,192,24626,128,0,24814:0:0:0:0:
448,192,24814,1,0,0:0:0:0:
64,192,25001,128,0,25189:0:0:0:0:
448,192,25189,128,0,25376:0:0:0:0:
320,192,25189,1,0,0:0:0:0:
192,192,25376,128,0,25564:0:0:0:0:
320,192,25564,128,0,25751:0:0:0:0:
448,192,25751,1,0,0:0:0:0:
64,192,25939,1,0,0:0:0:0:
192,192,25939,1,0,0:0:0:0:
320,192,26126,128,0,26314:0:0:0:0:
192,192,26314,128,0,26501:0:0:0:0:
320,192,26501,128,0,26689:0:0:0:0:
192,192,26689,128,0,26876:0:0:0:0:
448,192,26689,1,0,0:0:0:0:
64,192,26876,128,0,27064:0:0:0:0:
448,192,27064,128,0,27251:0:0:0:0:
192,192,27251,1,0,0:0:0:0:
320,192,27345,1,0,0:0:0:0:
448,192,27439,128,0,27626:0:0:0:0:
64,192,27439,1,0,0:0:0:0:
192,192,27626,1,0,0:0:0:0:
320,192,27720,1,0,0:0:0:0:
64,192,27814,1,0,0:0:0:0:
192,192,27907,1,0,0:0:0:0:
320,192,28001,128,0,28189:0:0:0:0:
192,192,28189,128,0,28376:0:0:0:0:
448,192,28189,1,0,0:0:0:0:
64,192,28376,128,0,28564:0:0:0:0:
320,192,28564,1,0,0:0:0:0:
192,192,28751,128,0,28939:0:0:0:0:
64,192,28939,1,0,0:0:0:0:
320,192,28939,128,0,29126:0:0:0:0:
448,192,29126,128,0,29314:0:0:0:0:
192,192,29314,128,0,29501:0:0:0:0:
320,192,29501,128,0,29689:0:0:0:0:
64,192,29689,128,0,29876:0:0:0:0:
448,192,29689,1,0,0:0:0:0:
192,192,29876,128,0,30064:0:0:0:0:
320,192,30064,128,0,30251:0:0:0:0:
448,192,30251,128,0,30439:0:0:0:0:
64,192,30439,1,0,0:0:0:0:
192,192,30439,128,0,30626:0:0:0:0:
320,192,30626,1,0,0:0:0:0:
448,192,30720,1,0,0:0:0:0:
64,192,30814,1,0,0:0:0:0:
192,192,30907,1,0,0:0:0:0:
320,192,31001,1,0,0:0:0:0:
320,192,31189,1,0,0:0:0:0:
320,192,31376,1,0,0:0:0:0:
64,192,31564,1,0,0:0:0:0:
448,192,31564,1,0,0:0:0:0:
192,192,31751,128,0,31939:0:0:0:0:
320,192,31939,128,0,32126:0:0:0:0:
448,192,31939,1,0,0:0:0:0:
64,192,32126,1,0,0:0:0:0:
192,192,32220,1,0,0:0:0:0:
320,192,32314,1,0,0:0:0:0:
192,192,32407,1,0,0:0:0:0:
64,192,32501,1,0,0:0:0:0:
320,192,32689,1,0,0:0:0:0:
448,192,32689,1,0,0:0:0:0:
192,192,32782,1,0,0:0:0:0:
64,192,32876,1,0,0:0:0:0:
448,192,33064,1,0,0:0:0:0:
320,192,33251,128,0,33439:0:0:0:0:
192,192,33439,128,0,33626:0:0:0:0:
64,192,33439,1,0,0:0:0:0:
448,192,33626,1,0,0:0:0:0:
320,192,33720,1,0,0:0:0:0:
192,192,33814,1,0,0:0:0:0:
320,192,33907,1,0,0:0:0:0:
448,192,34001,1,0,0:0:0:0:
64,192,34189,1,0,0:0:0:0:
192,192,34189,1,0,0:0:0:0:
320,192,34282,1,0,0:0:0:0:
448,192,34376,1,0,0:0:0:0:
64,192,34564,1,0,0:0:0:0:
192,192,34751,128,0,34939:0:0:0:0:
320,192,34939,128,0,35126:0:0:0:0:
448,192,34939,1,0,0:0:0:0:
64,192,35126,1,0,0:0:0:0:
192,192,35220,1,0,0:0:0:0:
320,192,35314,128,0,35501:0:0:0:0:
192,192,35501,128,0,35689:0:0:0:0:
448,192,35689,128,0,35876:0:0:0:0:
64,192,35689,1,0,0:0:0:0:
320,192,35876,128,0,36064:0:0:0:0:
192,192,36064,1,0,0:0:0:0:
448,192,36251,1,0,0:0:0:0:
320,192,36345,1,0,0:0:0:0:
64,192,36439,1,0,0:0:0:0:
192,192,36439,128,0,36626:0:0:0:0:
320,192,36626,128,0,36814:0:0:0:0:
64,192,36814,128,0,37001:0:0:0:0:
448,192,37001,128,0,37189:0:0:0:0:
64,192,37189,128,0,37376:0:0:0:0:
192,192,37189,1,0,0:0:0:0:
448,192,37376,128,0,37564:0:0:0:0:
64,192,37564,1,0,0:0:0:0:
192,192,37751,128,0,37939:0:0:0:0:
320,192,37939,128,0,38126:0:0:0:0:
448,192,37939,1,0,0:0:0:0:
64,192,38126,1,0,0:0:0:0:
320,192,38314,1,0,0:0:0:0:
192,192,38407,1,0,0:0:0:0:
64,192,38501,1,0,0:0:0:0:
448,192,38689,1,0,0:0:0:0:
320,192,38689,128,0,38876:0:0:0:0:
192,192,38876,128,0,39064:0:0:0:0:
64,192,39064,1,0,0:0:0:0:
320,192,39251,128,0,39439:0:0:0:0:
192,192,39439,128,0,39626:0:0:0:0:
64,192,39439,1,0,0:0:0:0:
320,192,39626,128,0,39814:0:0:0:0:
192,192,39814,128,0,40001:0:0:0:0:
320,192,40001,128,0,40189:0:0:0:0:
192,192,40189,128,0,40376:0:0:0:0:
448,192,40189,1,0,0:0:0:0:
64,192,40376,128,0,40564:0:0:0:0:
320,192,40564,128,0,40751:0:0:0:0:
192,192,40751,128,0,40939:0:0:0:0:
64,192,40939,1,0,0:0:0:0:
448,192,40939,128,0,41126:0:0:0:0:
320,192,41126,128,0,41314:0:0:0:0:
192,192,41314,128,0,41501:0:0:0:0:
448,192,41501,128,0,41689:0:0:0:0:
320,192,41689,128,0,41876:0:0:0:0:
64,192,41689,1,0,0:0:0:0:
192,192,41876,128,0,42064:0:0:0:0:
320,192,42064,128,0,42251:0:0:0:0:
64,192,42251,1,0,0:0:0:0:
320,192,42439,128,0,42626:0:0:0:0:
448,192,42626,128,0,42814:0:0:0:0:
64,192,42814,1,0,0:0:0:0:
192,192,42907,1,0,0:0:0:0:
320,192,43001,1,0,0:0:0:0:
448,192,43095,1,0,0:0:0:0:
64,192,43189,128,0,43376:0:0:0:0:
320,192,43376,128,0,43564:0:0:0:0:
64,192,43564,1,0,0:0:0:0:
192,192,43564,1,0,0:0:0:0:
320,192,43751,1,0,0:0:0:0:
448,192,43939,1,0,0:0:0:0:
64,192,43939,1,0,0:0:0:0:
192,192,44126,1,0,0:0:0:0:
320,192,44220,1,0,0:0:0:0:
64,192,44314,1,0,0:0:0:0:
192,192,44314,1,0,0:0:0:0:
448,192,44501,128,0,44689:0:0:0:0:
64,192,44689,1,0,0:0:0:0:
320,192,44689,128,0,44876:0:0:0:0:
192,192,44876,128,0,45064:0:0:0:0:
64,192,45064,1,0,0:0:0:0:
448,192,45064,1,0,0:0:0:0:
320,192,45251,1,0,0:0:0:0:
64,192,45439,1,0,0:0:0:0:
192,192,45439,1,0,0:0:0:0:
448,192,45626,1,0,0:0:0:0:
192,192,45720,1,0,0:0:0:0:
320,192,45814,1,0,0:0:0:0:
448,192,45814,1,0,0:0:0:0:
64,192,46001,128,0,46189:0:0:0:0:
448,192,46189,1,0,0:0:0:0:
192,192,46189,128,0,46376:0:0:0:0:
320,192,46376,128,0,46564:0:0:0:0:
64,192,46564,1,0,0:0:0:0:
448,192,46564,1,0,0:0:0:0:
192,192,46751,1,0,0:0:0:0:
320,192,46939,1,0,0:0:0:0:
448,192,46939,1,0,0:0:0:0:
192,192,47126,1,0,0:0:0:0:
320,192,47220,1,0,0:0:0:0:
64,192,47314,1,0,0:0:0:0:
448,192,47314,1,0,0:0:0:0:
192,192,47501,128,0,47689:0:0:0:0:
64,192,47689,1,0,0:0:0:0:
320,192,47689,128,0,47876:0:0:0:0:
448,192,47876,128,0,48064:0:0:0:0:
64,192,48064,1,0,0:0:0:0:
192,192,48064,1,0,0:0:0:0:
320,192,48251,1,0,0:0:0:0:
64,192,48439,1,0,0:0:0:0:
448,192,48439,1,0,0:0:0:0:
192,192,48626,1,0,0:0:0:0:
320,192,48720,1,0,0:0:0:0:
64,192,48814,1,0,0:0:0:0:
192,192,48814,1,0,0:0:0:0:
448,192,49001,128,0,49189:0:0:0:0:
64,192,49189,1,0,0:0:0:0:
192,192,49282,1,0,0:0:0:0:
320,192,49376,1,0,0:0:0:0:
448,192,49470,1,0,0:0:0:0:
64,192,49564,1,0,0:0:0:0:
192,192,49564,1,0,0:0:0:0:
320,192,49751,1,0,0:0:0:0:
192,192,49939,1,0,0:0:0:0:
448,192,49939,1,0,0:0:0:0:
64,192,50126,1,0,0:0:0:0:
320,192,50220,1,0,0:0:0:0:
192,192,50314,1,0,0:0:0:0:
64,192,50314,1,0,0:0:0:0:
448,192,50501,128,0,50689:0:0:0:0:
64,192,50689,1,0,0:0:0:0:
320,192,50689,128,0,50876:0:0:0:0:
192,192,50876,128,0,51064:0:0:0:0:
64,192,51064,1,0,0:0:0:0:
448,192,51064,1,0,0:0:0:0:
320,192,51251,1,0,0:0:0:0:
448,192,51439,1,0,0:0:0:0:
64,192,51439,1,0,0:0:0:0:
192,192,51626,1,0,0:0:0:0:
320,192,51720,1,0,0:0:0:0:
64,192,51814,1,0,0:0:0:0:
448,192,51814,1,0,0:0:0:0:
192,192,52001,128,0,52189:0:0:0:0:
320,192,52189,128,0,52376:0:0:0:0:
64,192,52189,1,0,0:0:0:0:
448,192,52376,128,0,52564:0:0:0:0:
192,192,52564,1,0,0:0:0:0:
64,192,52564,1,0,0:0:0:0:
320,192,52751,1,0,0:0:0:0:
64,192,52939,1,0,0:0:0:0:
448,192,52939,1,0,0:0:0:0:
192,192,53126,1,0,0:0:0:0:
320,192,53220,1,0,0:0:0:0:
192,192,53314,1,0,0:0:0:0:
64,192,53314,1,0,0:0:0:0:
320,192,53501,128,0,53689:0:0:0:0:
192,192,53689,128,0,53876:0:0:0:0:
448,192,53689,1,0,0:0:0:0:
64,192,53876,128,0,54064:0:0:0:0:
448,192,54064,1,0,0:0:0:0:
320,192,54064,1,0,0:0:0:0:
192,192,54251,1,0,0:0:0:0:
64,192,54439,1,0,0:0:0:0:
448,192,54439,1,0,0:0:0:0:
320,192,54626,1,0,0:0:0:0:
192,192,54720,1,0,0:0:0:0:
320,192,54814,1,0,0:0:0:0:
448,192,54814,1,0,0:0:0:0:
64,192,55001,128,0,55189:0:0:0:0:
448,192,55189,1,0,0:0:0:0:
320,192,55282,1,0,0:0:0:0:
192,192,55376,1,0,0:0:0:0:
64,192,55470,1,0,0:0:0:0:
448,192,55564,1,0,0:0:0:0:
320,192,55564,1,0,0:0:0:0:
192,192,55751,1,0,0:0:0:0:
64,192,55939,1,0,0:0:0:0:
448,192,55939,1,0,0:0:0:0:
320,192,56126,1,0,0:0:0:0:
192,192,56220,1,0,0:0:0:0:
448,192,56314,1,0,0:0:0:0:
320,192,56314,1,0,0:0:0:0:
64,192,56501,128,0,56689:0:0:0:0:
448,192,56689,1,0,0:0:0:0:
192,192,56689,128,0,56876:0:0:0:0:
320,192,56876,128,0,57064:0:0:0:0:
448,192,57064,1,0,0:0:0:0:
64,192,57064,1,0,0:0:0:0:
192,192,57251,1,0,0:0:0:0:
448,192,57439,1,0,0:0:0:0:
320,192,57439,1,0,0:0:0:0:
64,192,57626,1,0,0:0:0:0:
320,192,57720,1,0,0:0:0:0:
192,192,57814,1,0,0:0:0:0:
64,192,57814,1,0,0:0:0:0:
448,192,58001,128,0,58189:0:0:0:0:
64,192,58189,1,0,0:0:0:0:
320,192,58189,128,0,58376:0:0:0:0:
192,192,58376,128,0,58564:0:0:0:0:
448,192,58564,1,0,0:0:0:0:
64,192,58564,1,0,0:0:0:0:
320,192,58751,1,0,0:0:0:0:
192,192,58939,1,0,0:0:0:0:
64,192,58939,1,0,0:0:0:0:
320,192,59126,1,0,0:0:0:0:
192,192,59220,1,0,0:0:0:0:
448,192,59314,1,0,0:0:0:0:
64,192,59314,1,0,0:0:0:0:
320,192,59501,128,0,59689:0:0:0:0:
448,192,59689,1,0,0:0:0:0:
192,192,59689,128,0,59876:0:0:0:0:
64,192,59876,128,0,60064:0:0:0:0:
448,192,60064,1,0,0:0:0:0:
320,192,60064,1,0,0:0:0:0:
192,192,60251,1,0,0:0:0:0:
448,192,60439,1,0,0:0:0:0:
64,192,60439,1,0,0:0:0:0:
320,192,60626,1,0,0:0:0:0:
192,192,60720,1,0,0:0:0:0:
448,192,60814,1,0,0:0:0:0:
320,192,60814,1,0,0:0:0:0:
64,192,61001,128,0,61189:0:0:0:0:
448,192,61189,1,0,0:0:0:0:
320,192,61282,1,0,0:0:0:0:
192,192,61376,1,0,0:0:0:0:
64,192,61470,1,0,0:0:0:0:
448,192,61564,1,0,0:0:0:0:
320,192,61564,1,0,0:0:0:0:
192,192,61751,1,0,0:0:0:0:
320,192,61939,1,0,0:0:0:0:
64,192,61939,1,0,0:0:0:0:
448,192,62126,1,0,0:0:0:0:
192,192,62220,1,0,0:0:0:0:
320,192,62314,1,0,0:0:0:0:
448,192,62314,1,0,0:0:0:0:
64,192,62501,128,0,62689:0:0:0:0:
448,192,62689,1,0,0:0:0:0:
192,192,62689,128,0,62876:0:0:0:0:
320,192,62876,128,0,63064:0:0:0:0:
448,192,63064,1,0,0:0:0:0:
64,192,63064,1,0,0:0:0:0:
192,192,63251,1,0,0:0:0:0:
64,192,63439,1,0,0:0:0:0:
448,192,63439,1,0,0:0:0:0:
320,192,63626,1,0,0:0:0:0:
192,192,63720,1,0,0:0:0:0:
448,192,63814,1,0,0:0:0:0:
64,192,63814,1,0,0:0:0:0:
320,192,64001,128,0,64189:0:0:0:0:
192,192,64189,128,0,64376:0:0:0:0:
448,192,64189,1,0,0:0:0:0:
64,192,64376,128,0,64564:0:0:0:0:
320,192,64564,1,0,0:0:0:0:
448,192,64564,1,0,0:0:0:0:
192,192,64751,1,0,0:0:0:0:
448,192,64939,1,0,0:0:0:0:
64,192,64939,1,0,0:0:0:0:
320,192,65126,1,0,0:0:0:0:
192,192,65220,1,0,0:0:0:0:
320,192,65314,1,0,0:0:0:0:
448,192,65314,1,0,0:0:0:0:
192,192,65501,128,0,65689:0:0:0:0:
320,192,65689,128,0,65876:0:0:0:0:
64,192,65689,1,0,0:0:0:0:
448,192,65876,128,0,66064:0:0:0:0:
64,192,66064,1,0,0:0:0:0:
192,192,66064,1,0,0:0:0:0:
320,192,66251,1,0,0:0:0:0:
448,192,66439,1,0,0:0:0:0:
64,192,66439,1,0,0:0:0:0:
192,192,66626,1,0,0:0:0:0:
320,192,66720,1,0,0:0:0:0:
192,192,66814,1,0,0:0:0:0:
64,192,66814,1,0,0:0:0:0:
64,192,67095,1,0,0:0:0:0:
192,192,67095,1,0,0:0:0:0:
192,192,67376,1,0,0:0:0:0:
64,192,67376,1,0,0:0:0:0:
320,192,67564,1,0,0:0:0:0:
448,192,67564,1,0,0:0:0:0:
192,192,67751,1,0,0:0:0:0:
64,192,67939,1,0,0:0:0:0:
448,192,67939,1,0,0:0:0:0:
320,192,68126,1,0,0:0:0:0:
192,192,68220,1,0,0:0:0:0:
448,192,68314,1,0,0:0:0:0:
320,192,68407,1,0,0:0:0:0:
192,192,68501,1,0,0:0:0:0:
64,192,68689,1,0,0:0:0:0:
448,192,68689,1,0,0:0:0:0:
320,192,68876,1,0,0:0:0:0:
192,192,69064,1,0,0:0:0:0:
320,192,69251,1,0,0:0:0:0:
64,192,69439,1,0,0:0:0:0:
448,192,69439,1,0,0:0:0:0:
192,192,69626,1,0,0:0:0:0:
320,192,69720,1,0,0:0:0:0:
64,192,69814,1,0,0:0:0:0:
192,192,69907,1,0,0:0:0:0:
320,192,70001,1,0,0:0:0:0:
64,192,70189,1,0,0:0:0:0:
448,192,70189,1,0,0:0:0:0:
192,192,70376,1,0,0:0:0:0:
320,192,70564,1,0,0:0:0:0:
64,192,70751,1,0,0:0:0:0:
192,192,70939,1,0,0:0:0:0:
448,192,70939,1,0,0:0:0:0:
320,192,71126,1,0,0:0:0:0:
64,192,71220,1,0,0:0:0:0:
448,192,71314,1,0,0:0:0:0:
192,192,71407,1,0,0:0:0:0:
320,192,71501,1,0,0:0:0:0:
192,192,71689,1,0,0:0:0:0:
64,192,71689,1,0,0:0:0:0:
448,192,71876,1,0,0:0:0:0:
64,192,72064,1,0,0:0:0:0:
320,192,72251,1,0,0:0:0:0:
192,192,72439,1,0,0:0:0:0:
64,192,72439,1,0,0:0:0:0:
448,192,72626,1,0,0:0:0:0:
320,192,72720,1,0,0:0:0:0:
192,192,72814,1,0,0:0:0:0:
320,192,73001,1,0,0:0:0:0:
448,192,73001,1,0,0:0:0:0:
64,192,73189,1,0,0:0:0:0:
320,192,73376,1,0,0:0:0:0:
448,192,73376,1,0,0:0:0:0:
64,192,73564,128,0,73939:0:0:0:0:
192,192,73564,1,0,0:0:0:0:
320,192,73939,1,0,0:0:0:0:
448,192,73939,1,0,0:0:0:0:
192,192,74126,1,0,0:0:0:0:
320,192,74220,1,0,0:0:0:0:
64,192,74314,1,0,0:0:0:0:
192,192,74407,1,0,0:0:0:0:
320,192,74501,1,0,0:0:0:0:
64,192,74689,1,0,0:0:0:0:
448,192,74689,1,0,0:0:0:0:
192,192,74876,1,0,0:0:0:0:
320,192,75064,1,0,0:0:0:0:
192,192,75251,1,0,0:0:0:0:
64,192,75439,1,0,0:0:0:0:
448,192,75439,1,0,0:0:0:0:
320,192,75626,1,0,0:0:0:0:
192,192,75720,1,0,0:0:0:0:
448,192,75814,1,0,0:0:0:0:
320,192,75907,1,0,0:0:0:0:
192,192,76001,1,0,0:0:0:0:
64,192,76189,1,0,0:0:0:0:
448,192,76189,1,0,0:0:0:0:
320,192,76376,1,0,0:0:0:0:
192,192,76564,1,0,0:0:0:0:
448,192,76751,1,0,0:0:0:0:
64,192,76939,1,0,0:0:0:0:
320,192,76939,1,0,0:0:0:0:
192,192,77126,1,0,0:0:0:0:
448,192,77220,1,0,0:0:0:0:
64,192,77314,1,0,0:0:0:0:
320,192,77407,1,0,0:0:0:0:
192,192,77501,1,0,0:0:0:0:
320,192,77689,1,0,0:0:0:0:
448,192,77689,1,0,0:0:0:0:
64,192,77876,1,0,0:0:0:0:
320,192,78064,1,0,0:0:0:0:
192,192,78157,1,0,0:0:0:0:
448,192,78251,1,0,0:0:0:0:
64,192,78439,1,0,0:0:0:0:
320,192,78532,1,0,0:0:0:0:
192,192,78626,1,0,0:0:0:0:
64,192,78720,1,0,0:0:0:0:
320,192,78814,1,0,0:0:0:0:
448,192,78814,1,0,0:0:0:0:
320,192,79095,1,0,0:0:0:0:
448,192,79095,1,0,0:0:0:0:
320,192,79376,1,0,0:0:0:0:
448,192,79376,1,0,0:0:0:0:
192,192,79751,1,0,0:0:0:0:
64,192,79939,1,0,0:0:0:0:
448,192,79939,1,0,0:0:0:0:
