osu file format v14

[General]
AudioFilename: audio.mp3
AudioLeadIn: 0
PreviewTime: 155988
Countdown: 0
SampleSet: Soft
StackLeniency: 0.3
Mode: 0
LetterboxInBreaks: 0
WidescreenStoryboard: 1

[Editor]
DistanceSpacing: 6
BeatDivisor: 4
GridSize: 32
TimelineZoom: 3.399999

[Metadata]
Title:Ironina
TitleUnicode:アイロニーナ
Artist:NILFRUITS
ArtistUnicode:煮ル果実
Creator:Yugu
Version:Extra
Source:
Tags:japanese j-pop j pop jazz ボカロ ボーカロイド VOCALOID POPGATO niru kajitsu AuroraE Pigeons vflower flower v-flower
BeatmapID:3621771
BeatmapSetID:1767671

[Difficulty]
HPDrainRate:6
CircleSize:4.5
OverallDifficulty:8
ApproachRate:9
SliderMultiplier:3.2
SliderTickRate:1

[Events]
//Background and Video events
0,0,"178899.png",0,0
//Break Periods
//Storyboard Layer 0 (Background)
//Storyboard Layer 1 (Fail)
//Storyboard Layer 2 (Pass)
//Storyboard Layer 3 (Foreground)
//Storyboard Layer 4 (Overlay)
//Storyboard Sound Samples

[TimingPoints]
1703,428.571428571429,4,2,1,30,1,0
1703,-500,4,2,1,30,0,0
1810,-500,4,2,1,5,0,0
2560,-500,4,2,1,30,0,0
2667,-500,4,2,1,5,0,0
4274,-500,4,2,1,30,0,0
4381,-500,4,2,1,5,0,0
5988,-500,4,2,1,30,0,0
6095,-500,4,2,1,5,0,0
6738,-500,4,2,1,5,0,0
6845,-125,4,2,22,40,0,0
8560,-100,4,2,1,40,0,0
8774,-100,4,2,1,60,0,0
9845,-100,4,2,1,60,0,0
10488,-83.3333333333333,4,2,1,60,0,0
11560,-100,4,2,1,60,0,0
12203,-71.4285714285714,4,2,1,60,0,0
13274,-100,4,2,1,60,0,0
13917,-62.5,4,2,1,60,0,0
14988,-100,4,2,1,60,0,0
15631,-55.5555555555556,4,2,1,60,0,0
16703,-100,4,2,1,60,0,0
17345,-50,4,2,1,60,0,0
18417,-100,4,2,1,60,0,0
19060,-83.3333333333333,4,2,1,60,0,0
22274,-125,4,2,2,50,0,0
22381,-125,4,2,2,5,0,0
22703,-125,4,2,2,50,0,0
22810,-125,4,2,2,5,0,0
23131,-125,4,2,2,50,0,0
25703,-125,4,2,2,50,0,0
25810,-125,4,2,2,5,0,0
26131,-125,4,2,2,50,0,0
26238,-125,4,2,2,5,0,0
26560,-125,4,2,2,50,0,0
29506,-125,4,2,2,5,0,0
29667,-125,4,2,2,50,0,0
29828,-125,4,2,2,5,0,0
29988,-125,4,2,2,50,0,0
35560,-83.3333333333333,4,2,2,50,0,0
35774,-125,4,2,2,50,0,0
36095,-125,4,2,2,5,0,0
36417,-125,4,2,2,50,0,0
36953,-125,4,2,2,5,0,0
37060,-125,4,2,2,50,0,0
37381,-125,4,2,2,5,0,0
37488,-125,4,2,2,50,0,0
39524,-125,4,2,2,5,0,0
39631,-125,4,2,2,50,0,0
42417,-83.3333333333333,4,2,2,50,0,0
42631,-125,4,2,2,50,0,0
44453,-125,4,2,2,5,0,0
44560,-125,4,2,2,50,0,0
49703,-125,4,2,2,40,0,0
55703,-200,4,2,2,40,0,0
56238,-200,4,2,2,5,0,0
56345,-200,4,2,2,40,0,0
56453,-200,4,2,2,5,0,0
56560,-200,4,2,2,40,0,0
56881,-200,4,2,2,5,0,0
56988,-200,4,2,2,40,0,0
57310,-200,4,2,2,5,0,0
57417,-200,4,2,2,40,0,0
57631,-200,4,2,2,5,0,0
57738,-200,4,2,2,40,0,0
57953,-200,4,2,2,5,0,0
58060,-200,4,2,2,40,0,0
58167,-200,4,2,2,5,0,0
58274,-166.666666666667,4,2,2,45,0,0
58595,-166.666666666667,4,2,2,5,0,0
58703,-166.666666666667,4,2,2,45,0,0
59024,-166.666666666667,4,2,2,5,0,0
59132,-166.666666666667,4,2,2,45,0,0
59345,-166.666666666667,4,2,2,5,0,0
59453,-166.666666666667,4,2,2,45,0,0
59667,-166.666666666667,4,2,2,5,0,0
59775,-166.666666666667,4,2,2,45,0,0
59881,-166.666666666667,4,2,2,5,0,0
59988,-142.857142857143,4,2,2,50,0,0
60524,-142.857142857143,4,2,2,5,0,0
60631,-142.857142857143,4,2,2,50,0,0
60738,-142.857142857143,4,2,2,5,0,0
60845,-100,4,2,2,55,0,0
61703,-250,4,2,2,45,0,0
62024,-83.3333333333333,4,2,2,45,0,0
63417,-71.4285714285714,4,2,3,70,0,0
63845,-83.3333333333333,4,2,3,70,0,0
66310,-83.3333333333333,4,2,3,5,0,0
66417,-83.3333333333333,4,2,3,70,0,0
66738,-83.3333333333333,4,2,3,5,0,0
66845,-83.3333333333333,4,2,3,70,0,0
67167,-83.3333333333333,4,2,3,5,0,0
67274,-83.3333333333333,4,2,3,70,0,0
67595,-83.3333333333333,4,2,3,5,0,0
67702,-83.3333333333333,4,2,3,70,0,0
68453,-83.3333333333333,4,2,3,5,0,0
68560,-83.3333333333333,4,2,3,70,0,0
70274,-100,4,2,3,70,0,0
73756,-100,4,2,3,5,0,0
73810,-100,4,2,3,70,0,0
74453,-100,4,2,3,70,0,0
74613,-100,4,2,3,5,0,0
74667,-100,4,2,3,70,0,0
75417,-83.3333333333333,4,2,3,70,0,0
75578,-83.3333333333333,4,2,3,5,0,0
75631,-83.3333333333333,4,2,3,70,0,0
75899,-83.3333333333333,4,2,3,5,0,0
75952,-83.3333333333333,4,2,3,70,0,0
76274,-166.666666666667,4,2,3,70,0,0
76703,-100,4,2,3,70,0,0
77559,-83.3333333333333,4,2,3,70,0,0
80024,-83.3333333333333,4,2,3,5,0,0
80131,-83.3333333333333,4,2,3,70,0,0
80453,-83.3333333333333,4,2,3,5,0,0
80560,-83.3333333333333,4,2,3,70,0,0
80881,-83.3333333333333,4,2,3,5,0,0
80988,-83.3333333333333,4,2,3,70,0,0
81310,-83.3333333333333,4,2,3,5,0,0
81417,-83.3333333333333,4,2,3,70,0,0
82167,-83.3333333333333,4,2,3,5,0,0
82274,-83.3333333333333,4,2,3,70,0,0
83988,-100,4,2,3,70,0,0
87470,-100,4,2,3,5,0,0
87524,-100,4,2,3,70,0,0
88328,-100,4,2,3,5,0,0
88382,-100,4,2,3,70,0,0
90845,-100,4,2,3,40,0,0
91060,-250,4,2,3,40,0,0
91274,-100,4,2,1,60,0,0
92131,-100,4,2,1,60,0,0
92774,-83.3333333333333,4,2,1,60,0,0
93845,-100,4,2,1,60,0,0
94488,-71.4285714285714,4,2,1,60,0,0
95560,-100,4,2,1,60,0,0
96203,-62.5,4,2,1,60,0,0
97274,-100,4,2,1,60,0,0
97917,-55.5555555555556,4,2,1,60,0,0
98988,-100,4,2,1,60,0,0
99631,-50,4,2,1,60,0,0
100703,-100,4,2,1,60,0,0
101345,-83.3333333333333,4,2,1,60,0,0
103488,-125,4,2,1,60,0,0
103703,-125,4,2,4,60,0,0
103917,-125,4,2,4,40,0,0
104560,-166.666666666667,4,2,5,50,0,0
105470,-166.666666666667,4,2,5,5,0,0
105524,-166.666666666667,4,2,5,50,0,0
108899,-166.666666666667,4,2,5,5,0,0
108953,-166.666666666667,4,2,5,50,0,0
109542,-166.666666666667,4,2,5,5,0,0
109596,-166.666666666667,4,2,5,50,0,0
109917,-166.666666666667,4,2,5,50,0,0
109970,-166.666666666667,4,2,5,5,0,0
110024,-166.666666666667,4,2,5,50,0,0
110613,-166.666666666667,4,2,5,5,0,0
110667,-166.666666666667,4,2,5,50,0,0
110988,-100,4,2,5,50,0,0
111417,-166.666666666667,4,2,5,50,0,0
111631,-166.666666666667,4,2,5,50,0,0
113131,-166.666666666667,4,2,5,50,0,0
115756,-166.666666666667,4,2,5,5,0,0
115810,-166.666666666667,4,2,5,50,0,0
118274,-111.111111111111,4,2,5,50,0,0
119988,-133.333333333333,4,2,5,50,0,0
126417,-117.647058823529,4,2,5,50,0,0
126845,-95.2380952380952,4,2,5,55,0,0
127274,-95.2380952380952,4,2,5,60,0,0
127703,-95.2380952380952,4,2,5,65,0,0
128560,-95.2380952380952,4,2,5,50,0,0
128667,-95.2380952380952,4,2,5,51,0,0
128774,-95.2380952380952,4,2,5,52,0,0
128881,-95.2380952380952,4,2,5,53,0,0
128988,-95.2380952380952,4,2,5,54,0,0
129095,-95.2380952380952,4,2,5,55,0,0
129203,-95.2380952380952,4,2,5,56,0,0
129310,-95.2380952380952,4,2,5,57,0,0
129417,-333.333333333333,4,2,5,58,0,0
129524,-333.333333333333,4,2,5,59,0,0
129631,-333.333333333333,4,2,5,60,0,0
129738,-333.333333333333,4,2,5,61,0,0
129845,-95.2380952380952,4,2,5,62,0,0
129953,-95.2380952380952,4,2,5,63,0,0
130060,-95.2380952380952,4,2,5,64,0,0
130167,-95.2380952380952,4,2,5,65,0,0
130274,-95.2380952380952,4,2,2,40,0,0
135417,-125,4,2,2,40,0,0
136274,-200,4,2,2,40,0,0
136810,-200,4,2,2,5,0,0
136917,-200,4,2,2,40,0,0
137024,-200,4,2,2,5,0,0
137131,-200,4,2,2,40,0,0
137453,-200,4,2,2,5,0,0
137560,-200,4,2,2,40,0,0
137881,-200,4,2,2,5,0,0
137988,-200,4,2,2,40,0,0
138310,-200,4,2,2,5,0,0
138417,-200,4,2,2,40,0,0
138738,-200,4,2,2,5,0,0
138845,-166.666666666667,4,2,2,45,0,0
139167,-166.666666666667,4,2,2,5,0,0
139274,-166.666666666667,4,2,2,45,0,0
139595,-166.666666666667,4,2,2,5,0,0
139702,-166.666666666667,4,2,2,45,0,0
140024,-166.666666666667,4,2,2,5,0,0
140131,-166.666666666667,4,2,2,45,0,0
140453,-166.666666666667,4,2,2,5,0,0
140560,-142.857142857143,4,2,2,50,0,0
141095,-142.857142857143,4,2,2,5,0,0
141203,-142.857142857143,4,2,2,50,0,0
141310,-142.857142857143,4,2,2,5,0,0
141417,-100,4,2,2,55,0,0
142274,-222.222222222222,4,2,2,45,0,0
142703,-166.666666666667,4,2,2,45,0,0
143345,-166.666666666667,4,2,77,60,0,0
143988,-200,4,2,3,50,0,0
144738,-200,4,2,3,5,0,0
144845,-200,4,2,3,50,0,0
145595,-200,4,2,3,5,0,0
145703,-200,4,2,3,50,0,0
148167,-200,4,2,3,5,0,0
148275,-200,4,2,3,50,0,0
149238,-200,4,2,3,5,0,0
149346,-200,4,2,3,50,0,0
149560,-200,4,2,3,5,0,0
149668,-200,4,2,3,50,0,0
149881,-200,4,2,3,5,0,0
149988,-222.222222222222,4,2,3,50,0,0
150417,-166.666666666667,4,2,3,50,0,0
150524,-166.666666666667,4,2,3,5,0,0
150631,-166.666666666667,4,2,3,50,0,0
150738,-166.666666666667,4,2,3,5,0,0
150845,-125,4,2,3,50,0,0
152560,-125,4,2,3,55,0,0
154274,-125,4,2,3,60,0,0
154381,-125,4,2,3,5,0,0
154488,-125,4,2,3,60,0,0
154595,-125,4,2,3,5,0,0
154703,-125,4,2,3,60,0,0
154810,-125,4,2,3,5,0,0
154917,-125,4,2,3,60,0,0
155024,-125,4,2,3,5,0,0
155131,-125,4,2,3,60,0,0
155988,-250,4,2,2,45,0,0
156310,-83.3333333333333,4,2,2,45,0,0
157703,-71.4285714285714,4,2,3,70,0,0
158131,-83.3333333333333,4,2,3,70,0,0
160595,-83.3333333333333,4,2,3,5,0,0
160703,-83.3333333333333,4,2,3,70,0,0
161024,-83.3333333333333,4,2,3,5,0,0
161132,-83.3333333333333,4,2,3,70,0,0
161453,-83.3333333333333,4,2,3,5,0,0
161561,-83.3333333333333,4,2,3,70,0,0
161881,-83.3333333333333,4,2,3,5,0,0
161989,-83.3333333333333,4,2,3,70,0,0
162738,-83.3333333333333,4,2,3,5,0,0
162846,-83.3333333333333,4,2,3,70,0,0
164560,-100,4,2,3,70,0,0
168042,-100,4,2,3,5,0,0
168095,-100,4,2,3,70,0,0
168899,-100,4,2,3,5,0,0
168952,-100,4,2,3,70,0,0
169703,-83.3333333333333,4,2,3,70,0,0
169863,-83.3333333333333,4,2,3,5,0,0
169917,-83.3333333333333,4,2,3,70,0,0
170185,-83.3333333333333,4,2,3,5,0,0
170239,-83.3333333333333,4,2,3,70,0,0
170560,-166.666666666667,4,2,3,70,0,0
170988,-100,4,2,3,70,0,0
171845,-83.3333333333333,4,2,3,70,0,0
174310,-83.3333333333333,4,2,3,5,0,0
174417,-83.3333333333333,4,2,3,70,0,0
174738,-83.3333333333333,4,2,3,5,0,0
174845,-83.3333333333333,4,2,3,70,0,0
175167,-83.3333333333333,4,2,3,5,0,0
175274,-83.3333333333333,4,2,3,70,0,0
175595,-83.3333333333333,4,2,3,5,0,0
175702,-83.3333333333333,4,2,3,70,0,0
176453,-83.3333333333333,4,2,3,5,0,0
176560,-83.3333333333333,4,2,3,70,0,0
178274,-100,4,2,3,70,0,0
181756,-100,4,2,3,5,0,0
181810,-100,4,2,3,70,0,0
182613,-100,4,2,3,5,0,0
182667,-100,4,2,3,70,0,0
184274,-64.5161290322581,4,2,3,70,0,0
185131,-64.5161290322581,4,2,3,40,0,0
185560,-71.4285714285714,4,2,3,75,0,0
185774,-83.3333333333333,4,2,3,75,0,0
186631,-66.6666666666667,4,2,3,75,0,0
187060,-83.3333333333333,4,2,3,75,0,0
188024,-83.3333333333333,4,2,3,5,0,0
188131,-83.3333333333333,4,2,3,75,0,0
188453,-83.3333333333333,4,2,3,5,0,0
188560,-83.3333333333333,4,2,3,75,0,0
188881,-83.3333333333333,4,2,3,5,0,0
188988,-83.3333333333333,4,2,3,75,0,0
189310,-83.3333333333333,4,2,3,5,0,0
189417,-83.3333333333333,4,2,3,75,0,0
190167,-83.3333333333333,4,2,3,5,0,0
190274,-83.3333333333333,4,2,3,75,0,0
191988,-100,4,2,3,75,0,0
195470,-100,4,2,3,5,0,0
195524,-100,4,2,3,75,0,0
196328,-100,4,2,3,5,0,0
196382,-100,4,2,3,75,0,0
197131,-83.3333333333333,4,2,3,75,0,0
197292,-83.3333333333333,4,2,3,5,0,0
197345,-83.3333333333333,4,2,3,75,0,0
197613,-83.3333333333333,4,2,3,5,0,0
197666,-83.3333333333333,4,2,3,75,0,0
198417,-71.4285714285714,4,2,3,75,0,0
198524,-71.4285714285714,4,2,3,5,0,0
198631,-62.5,4,2,3,75,0,0
198738,-62.5,4,2,3,5,0,0
198845,-83.3333333333333,4,2,3,75,0,0
201738,-83.3333333333333,4,2,3,5,0,0
201845,-83.3333333333333,4,2,3,75,0,0
202167,-83.3333333333333,4,2,3,5,0,0
202274,-45.4545454545455,4,2,3,75,0,0
202595,-45.4545454545455,4,2,3,5,0,0
202703,-45.4545454545455,4,2,3,75,0,0
203024,-45.4545454545455,4,2,3,5,0,0
203131,-83.3333333333333,4,2,3,80,0,0
203774,-71.4285714285714,4,2,3,80,0,0
203881,-71.4285714285714,4,2,3,5,0,0
203988,-71.4285714285714,4,2,3,80,0,0
204738,-71.4285714285714,4,2,3,79,0,0
204845,-71.4285714285714,4,2,3,78,0,0
204953,-71.4285714285714,4,2,3,77,0,0
205060,-71.4285714285714,4,2,3,76,0,0
205167,-71.4285714285714,4,2,3,75,0,0
205274,-71.4285714285714,4,2,3,74,0,0
205381,-71.4285714285714,4,2,3,73,0,0
205488,-166.666666666667,4,2,3,72,0,0
205595,-166.666666666667,4,2,3,71,0,0
205703,-83.3333333333333,4,2,3,70,0,0
209185,-83.3333333333333,4,2,3,5,0,0
209238,-83.3333333333333,4,2,3,70,0,0
210042,-83.3333333333333,4,2,3,5,0,0
210095,-83.3333333333333,4,2,3,70,0,0
210845,-83.3333333333333,4,2,3,72,0,0
211006,-83.3333333333333,4,2,3,5,0,0
211060,-83.3333333333333,4,2,3,72,0,0
211167,-83.3333333333333,4,2,3,74,0,0
211328,-83.3333333333333,4,2,3,5,0,0
211381,-83.3333333333333,4,2,3,74,0,0
211488,-83.3333333333333,4,2,3,76,0,0
211649,-83.3333333333333,4,2,3,5,0,0
211703,-83.3333333333333,4,2,3,76,0,0
212345,-125,4,2,3,78,0,0
212506,-125,4,2,3,5,0,0
212560,-125,4,2,3,40,0,0
212988,-100,4,2,11,60,0,0
213738,-100,4,2,11,62,0,0
213845,-100,4,2,11,66,0,0
213953,-100,4,2,11,72,0,0
214060,-100,4,2,11,80,0,0
214167,-100,4,2,11,72,0,0
214274,-100,4,2,11,60,0,0
215024,-100,4,2,11,62,0,0
215131,-100,4,2,11,66,0,0
215238,-100,4,2,11,72,0,0
215346,-100,4,2,11,80,0,0
215453,-100,4,2,11,82,0,0
215560,-100,4,2,11,72,0,0
215667,-100,4,2,11,60,0,0
218988,-100,4,2,11,62,0,0
219095,-100,4,2,11,66,0,0
219203,-100,4,2,11,72,0,0
219310,-100,4,2,11,66,0,0
219417,-100,4,2,11,60,0,0

[Colours]
Combo1 : 250,243,5
Combo2 : 255,66,66
Combo3 : 225,102,55

[HitObjects]
256,98,1703,6,0,B|197:49|123:82|73:190|156:256|172:207|189:273|231:281|256:323|256:323|280:281|322:273|339:207|355:256|438:190|388:82|314:49|256:98,1,752,2|0,0:0|0:0,0:0:0:0:
256,174,6845,5,0,3:0:0:0:
256,174,6953,1,8,0:0:0:0:
256,174,7167,1,8,0:0:0:0:
256,174,7381,1,8,0:0:0:0:
256,352,7595,1,8,0:0:0:0:
184,319,7703,6,0,P|153:326|123:337,1,64,8|8,1:3|1:3,0:0:0:0:
256,352,7917,2,0,P|287:344|317:333,1,64,8|8,0:3|0:3,0:0:0:0:
106,355,8131,1,0,1:0:0:0:
77,329,8238,1,8,0:1:0:0:
72,290,8345,1,8,0:1:0:0:
89,255,8453,1,8,0:1:0:0:
130,188,8560,6,0,P|90:183|51:174,1,80,14|0,0:0|0:0,0:0:0:0:
17,88,8774,6,0,P|24:50|59:32,9,80,0|0|10|0|0|0|8|0|2|0,3:0|0:0|0:0|0:0|3:0|0:0|0:0|0:0|3:2|0:0,0:0:0:0:
130,188,9845,1,8,0:0:0:0:
130,188,9953,1,0,0:0:0:0:
130,188,10060,2,0,P|141:267|145:347,1,160,2|10,3:2|0:0,0:0:0:0:
129,66,10488,6,0,P|159:31|206:33,9,95.9999970703126,0|0|10|2|2|2|10|0|2|2,3:0|0:0|0:0|0:0|3:2|0:0|0:0|0:0|3:2|0:0,0:0:0:0:
130,188,11560,1,10,0:0:0:0:
130,188,11667,1,0,0:0:0:0:
130,188,11774,2,0,P|141:267|145:347,1,160,2|8,3:2|0:0,0:0:0:0:
249,97,12203,6,0,P|300:80|345:109,9,111.999996582031,2|2|10|2|2|2|10|0|2|0,3:2|0:0|0:0|0:0|3:2|0:0|0:0|0:0|3:2|0:0,0:0:0:0:
130,188,13274,1,8,0:0:0:0:
130,188,13381,1,0,0:0:0:0:
130,188,13488,2,0,P|141:267|145:347,1,160,2|8,3:2|0:0,0:0:0:0:
254,173,13917,6,0,P|314:185|342:240,9,128,2|0|10|0|2|0|8|0|2|0,3:2|0:0|0:0|0:0|3:2|0:0|0:0|0:0|3:2|0:0,0:0:0:0:
130,188,14988,1,10,0:0:0:0:
130,188,15095,1,0,0:0:0:0:
130,188,15203,2,0,P|136:227|141:267,1,80,2|2,3:2|0:0,0:0:0:0:
291,384,15417,2,0,P|297:344|302:304,1,80,14|0,0:0|0:0,0:0:0:0:
342,240,15631,6,0,P|407:218|416:151,9,143.999995605469,0|0|10|0|0|0|10|0|2|0,3:0|0:0|0:0|0:0|3:0|0:0|0:0|0:0|3:2|0:0,0:0:0:0:
263,197,16703,1,8,0:0:0:0:
263,197,16810,1,0,0:0:0:0:
263,197,16917,2,0,P|257:157|239:19,1,160,2|8,3:2|0:0,0:0:0:0:
486,121,17345,6,0,P|501:46|442:0,9,160,2|0|8|0|2|2|8|0|2|2,3:2|0:0|0:0|0:0|3:2|0:0|0:0|0:0|3:2|0:0,0:0:0:0:
263,197,18417,1,10,0:0:0:0:
263,197,18524,1,2,0:0:0:0:
263,197,18631,2,0,P|257:157|251:117,1,80,2|0,3:2|1:0,0:0:0:0:
287,21,18845,1,8,0:0:0:0:
44,248,19060,6,0,B|40:269|7:289|-28:255|-24:159|52:236|79:157,1,191.999994140625,6|8,0:3|0:0,0:0:0:0:
116,272,19381,6,0,B|106:290|118:327|167:323|226:247|118:257|148:179,1,191.999994140625,4|0,0:3|1:0,0:0:0:0:
162,12,19703,5,8,3:2:0:0:
107,30,19810,1,0,1:0:0:0:
107,88,19917,1,0,1:0:0:0:
162,106,20024,1,0,1:0:0:0:
195,59,20131,5,8,3:2:0:0:
469,21,20345,1,12,3:2:0:0:
469,21,20881,5,2,0:3:0:0:
195,59,21095,1,12,0:0:0:0:
269,92,21845,5,8,0:0:0:0:
203,334,22060,1,8,0:0:0:0:
205,255,22274,6,0,P|235:261|261:281,1,64,6|0,1:2|0:0,0:0:0:0:
337,313,22703,6,0,P|367:306|393:286,1,64,2|0,1:2|0:0,0:0:0:0:
473,285,23131,6,0,P|484:189|500:95,2,192,2|2|2,1:1|0:1|3:1,0:0:0:0:
486,364,23988,5,0,1:0:0:0:
392,286,24203,1,2,3:2:0:0:
392,286,24310,2,0,P|402:316|411:346,1,64,2|0,0:0|1:0,0:0:0:0:
274,379,24631,1,0,3:0:0:0:
392,286,24845,2,0,P|403:190|419:96,2,192,2|2|2,1:1|0:1|3:1,0:0:0:0:
289,300,25703,6,0,P|258:290|238:266,1,64,0|0,1:0|0:0,0:0:0:0:
167,229,26131,6,0,P|136:238|116:262,1,64,0|2,1:0|0:0,0:0:0:0:
38,284,26560,6,0,P|27:188|11:94,2,192,2|2|2,1:1|0:1|3:1,0:0:0:0:
18,369,27417,6,0,P|33:365|49:363,2,32,2|2|2,1:3|0:3|0:3,0:0:0:0:
117,337,27631,2,0,P|132:340|148:342,2,32,2|2|2,3:2|0:3|0:3,0:0:0:0:
214,377,27845,5,2,3:3:0:0:
244,353,27953,1,2,0:3:0:0:
281,362,28060,2,0,P|312:357|344:353,1,64,2|2,3:2|0:2,0:0:0:0:
300,265,28274,5,2,1:3:0:0:
307,227,28381,1,2,0:3:0:0:
335,201,28488,1,2,3:3:0:0:
372,191,28595,1,2,3:2:0:0:
410,193,28703,2,0,P|398:222|385:251,1,64,2|0,1:3|0:0,0:0:0:0:
421,370,28917,5,8,3:1:0:0:
421,370,29024,1,8,0:1:0:0:
494,346,29131,2,0,P|473:321|455:295,1,64,6|0,1:2|0:0,0:0:0:0:
410,193,29345,5,0,3:0:0:0:
400,183,29453,2,0,P|401:168|403:152,1,32,0|0,0:0|0:0,0:0:0:0:
507,40,29667,5,0,0:0:0:0:
512,27,29775,2,0,P|503:13|492:1,1,32,2|0,3:2|0:0,0:0:0:0:
512,118,29988,2,0,P|420:87|328:62,2,192,2|2|2,1:1|0:1|3:1,0:0:0:0:
410,193,30845,6,0,B|293:205|367:276|255:287,1,192,2|0,1:2|0:0,0:0:0:0:
255,286,31274,1,0,1:0:0:0:
164,195,31488,1,2,3:2:0:0:
164,195,31595,1,2,0:0:0:0:
164,195,31703,2,0,P|180:289|192:384,2,192,2|2|8,1:1|0:1|3:1,0:0:0:0:
156,121,32453,1,8,0:1:0:0:
139,71,32560,6,0,P|224:66|223:152,1,192,2|0,1:2|0:0,0:0:0:0:
164,195,32988,1,0,1:0:0:0:
20,289,33203,2,0,P|51:296|81:307,1,64,2|0,3:2|0:0,0:0:0:0:
151,332,33417,2,0,P|244:311|340:302,2,192,2|2|2,1:1|0:1|3:1,0:0:0:0:
46,384,34274,6,0,P|51:368|57:354,2,32,2|2|2,1:3|0:3|0:3,0:0:0:0:
32,285,34488,2,0,P|26:269|20:255,2,32,2|2|2,3:3|0:3|0:3,0:0:0:0:
51,185,34703,6,0,P|55:154|62:123,1,64,2|0,1:3|0:0,0:0:0:0:
125,7,34917,2,0,P|129:38|136:69,1,64,2|0,3:3|0:0,0:0:0:0:
164,158,35131,5,2,1:3:0:0:
187,127,35238,1,2,0:3:0:0:
225,129,35345,2,0,P|256:126|288:123,1,64,2|2,3:3|0:0,0:0:0:0:
388,33,35560,2,0,P|417:68|406:114,1,95.9999970703126,2|0,1:3|0:0,0:0:0:0:
344,279,35774,5,8,3:1:0:0:
344,279,35881,1,8,0:1:0:0:
420,289,35988,6,0,P|415:257|411:225,1,64,6|0,1:2|0:0,0:0:0:0:
496,299,36417,6,0,P|481:204|469:109,1,192,2|0,1:2|0:0,0:0:0:0:
471,35,36845,6,0,P|439:36|414:56,1,64,2|0,1:1|0:0,0:0:0:0:
256,101,37060,1,8,3:1:0:0:
378,164,37274,2,0,P|346:162|321:142,1,64,0|0,1:0|0:0,0:0:0:0:
163,98,37489,1,10,3:1:0:0:
338,7,37703,6,0,P|342:38|327:65,1,64,0|0,1:0|0:0,0:0:0:0:
254,177,37917,2,0,P|249:208|264:235,1,64,2|0,3:2|0:0,0:0:0:0:
333,318,38131,1,2,1:2:0:0:
337,279,38238,1,2,0:0:0:0:
346,241,38345,1,0,3:0:0:0:
189,374,38560,6,0,B|157:297|67:371|31:288,1,192,2|2,1:1|0:1,0:0:0:0:
71,217,38988,1,8,1:1:0:0:
203,273,39203,1,10,3:1:0:0:
221,239,39310,1,0,0:0:0:0:
213,200,39417,6,0,P|206:168|200:137,1,64,2|0,1:2|0:0,0:0:0:0:
266,61,39845,6,0,P|281:155|302:248,1,192,2|0,1:2|0:0,0:0:0:0:
358,308,40274,2,0,P|389:307|412:286,1,64,2|0,1:1|0:0,0:0:0:0:
416,179,40488,1,8,3:1:0:0:
439,148,40595,2,0,P|470:148|493:169,1,64,2|0,0:1|1:0,0:0:0:0:
497,341,40917,1,8,3:1:0:0:
512,253,41131,6,0,P|496:248|480:245,2,32,2|2|2,1:3|0:3|0:3,0:0:0:0:
414,212,41345,2,0,P|398:216|382:219,2,32,2|2|2,3:3|0:3|0:3,0:0:0:0:
327,267,41560,5,2,3:3:0:0:
289,272,41667,1,0,0:0:0:0:
254,252,41774,2,0,P|225:239|194:234,1,64,2|2,3:3|0:3,0:0:0:0:
110,301,41988,5,2,1:3:0:0:
101,250,42095,1,2,0:3:0:0:
88,198,42203,2,0,P|81:166|73:135,1,64,8|0,3:1|0:0,0:0:0:0:
0,0,42417,2,0,P|-8:45|25:75,1,95.9999970703126,8|0,1:1|0:0,0:0:0:0:
207,154,42631,1,8,3:1:0:0:
226,81,42738,1,8,0:1:0:0:
153,102,42845,5,6,1:2:0:0:
153,102,42953,1,2,0:0:0:0:
282,9,43167,5,2,0:0:0:0:
282,9,43274,1,2,1:2:0:0:
282,9,43381,1,2,0:0:0:0:
298,167,43703,2,2,B|394:187|303:57|388:26|430:14|473:23|498:72|498:115|482:174|415:177|339:144|354:65|412:51,1,448,2|0,1:1|0:0,0:1:0:0:
421,94,44560,5,2,1:2:0:0:
421,94,44667,1,2,0:0:0:0:
480,267,44881,5,2,0:0:0:0:
480,267,44988,1,2,1:2:0:0:
480,267,45095,1,2,0:0:0:0:
480,267,45203,1,0,3:0:0:0:
286,302,45417,6,0,B|198:307|250:391|308:351|256:272,1,128,4|0,1:3|3:0,0:0:0:0:
286,220,45738,1,4,0:3:0:0:
292,208,45845,5,4,1:3:0:0:
340,224,45953,1,4,0:3:0:0:
364,268,46060,1,4,3:3:0:0:
374,317,46167,1,4,0:3:0:0:
418,342,46274,6,0,L|452:336,4,32,2|4|4|4|4,1:2|0:3|0:3|0:3|3:3,0:0:0:0:
286,302,46703,2,0,L|268:298,4,16,2|4|4|4|4,1:2|0:3|0:3|0:3|0:3,0:0:0:0:
256,225,46917,1,0,3:0:0:0:
187,354,47131,2,0,P|178:290|166:227,1,128,2|0,1:1|3:0,0:0:0:0:
135,144,47453,5,4,0:3:0:0:
132,156,47560,1,0,3:0:0:0:
58,190,47667,5,4,0:3:0:0:
66,198,47774,1,2,1:1:0:0:
58,279,47881,5,4,0:3:0:0:
69,276,47988,2,0,L|110:298,2,32,2|2|6,0:3|0:3|0:3,0:0:0:0:
151,347,48203,2,0,L|110:369,2,32,2|2|2,0:3|0:3|0:3,0:0:0:0:
229,330,48417,2,0,P|260:335|291:345,1,64,4|4,0:3|0:3,0:0:0:0:
444,318,48631,5,4,1:3:0:0:
444,318,48738,1,8,0:3:0:0:
374,363,48845,1,12,0:3:0:0:
366,325,48953,1,12,0:3:0:0:
355,286,49060,2,0,P|355:255|372:229,1,64,2|12,1:3|0:3,0:0:0:0:
497,140,49274,2,0,P|497:108|480:82,1,64,6|4,1:3|0:1,0:0:0:0:
370,155,49488,5,4,0:3:0:0:
435,185,49596,1,4,0:3:0:0:
499,215,49703,5,6,0:0:0:0:
499,215,51417,1,2,0:0:0:0:
13,169,53131,1,2,0:0:0:0:
13,169,54845,5,4,0:3:0:0:
81,131,55167,5,4,0:3:0:0:
79,208,55488,5,4,0:3:0:0:
32,285,55703,6,0,L|61:279,4,20,4|4|4|4|4,0:3|0:3|0:3|0:3|0:3,0:0:0:0:
149,250,56024,1,4,0:3:0:0:
149,250,56131,2,0,L|187:260,1,40,4|0,0:3|0:0,0:0:0:0:
255,297,56345,2,0,L|293:286,1,40,4|0,0:3|0:0,0:0:0:0:
428,302,56560,6,0,P|372:305|365:360,1,120,2|0,1:2|0:0,0:0:0:0:
428,302,56988,2,0,P|483:298|490:243,1,120,0|0,1:0|0:0,0:0:0:0:
373,164,57417,6,0,P|381:201|417:215,1,80,0|0,1:0|0:0,0:0:0:0:
373,164,57738,2,0,P|364:126|328:112,1,80,0|0,1:0|0:0,0:0:0:0:
280,51,58060,2,0,P|282:31|286:11,1,40,0|0,1:0|0:0,0:0:0:0:
199,108,58274,6,0,P|143:70|166:7,1,143.999995605469,2|0,1:2|0:0,0:0:0:0:
199,108,58703,2,0,P|254:145|231:208,1,143.999995605469,0|0,1:0|0:0,0:0:0:0:
169,268,59131,6,0,P|132:243|147:201,1,95.9999970703126,0|0,1:0|0:0,0:0:0:0:
169,268,59453,2,0,P|205:292|190:334,1,95.9999970703126,0|0,1:0|0:0,0:0:0:0:
112,377,59774,2,0,P|113:353|108:329,1,47.9999985351563,0|0,1:0|0:0,0:0:0:0:
34,215,59988,5,4,1:3:0:0:
300,304,60310,1,4,0:3:0:0:
300,304,60417,2,0,P|302:276|308:248,1,55.9999982910157,0|0,1:0|0:0,0:0:0:0:
265,128,60631,2,0,P|262:155|256:183,1,55.9999982910157,4|0,0:3|0:0,0:0:0:0:
373,203,60845,6,0,P|392:200|412:196,2,40,4|4|4,1:3|0:3|0:3,0:0:0:0:
181,202,61060,1,8,0:3:0:0:
110,215,61167,1,8,1:3:0:0:
39,228,61274,1,8,0:3:0:0:
300,304,61488,1,8,1:3:0:0:
160,370,61703,5,0,1:0:0:0:
160,370,61810,2,0,L|156:337,1,32,0|2,1:0|0:3,0:0:0:0:
112,245,62024,6,0,P|158:242|190:276,1,95.9999970703126,0|2,1:0|0:3,0:0:0:0:
346,365,62238,2,0,P|392:367|424:333,1,95.9999970703126,0|2,1:0|0:3,0:0:0:0:
258,240,62453,1,0,1:0:0:0:
300,304,62560,5,0,1:0:0:0:
329,266,62667,1,8,0:3:0:0:
331,218,62774,1,10,0:3:0:0:
305,177,62881,1,8,0:3:0:0:
277,115,62988,1,8,0:3:0:0:
298,51,63095,1,0,1:0:0:0:
363,33,63203,1,0,1:0:0:0:
419,68,63310,1,0,1:0:0:0:
404,146,63417,6,0,B|380:113|350:112|327:143|324:207|354:233|398:204|424:208|446:247|449:266|449:266|446:247|457:204|478:188|526:195|547:167,1,335.999989746094,4|0,1:1|3:0,0:0:0:0:
477,122,63845,2,0,P|516:143|507:187,1,95.9999970703126,4|0,1:2|0:0,0:0:0:0:
407,326,64060,1,0,3:0:0:0:
419,68,64274,1,0,1:0:0:0:
338,288,64488,1,0,3:0:0:0:
281,134,64703,1,0,1:0:0:0:
162,198,64917,6,0,P|72:186|47:98,1,191.999994140625,0|0,3:0|1:0,0:0:0:0:
228,9,65345,1,0,3:0:0:0:
118,121,65560,2,0,P|136:78|181:69,1,95.9999970703126,2|0,1:2|0:0,0:0:0:0:
366,97,65774,1,0,3:0:0:0:
318,327,65988,6,0,B|290:385|194:341|225:218|288:222|360:260|378:204,1,287.999991210938,2|0,1:1|0:0,0:0:0:0:
445,279,66417,2,0,B|452:342|558:334|571:209|511:191|430:202|432:143,1,287.999991210938,2|0,1:1|0:0,0:0:0:0:
331,333,66845,6,0,B|309:393|209:360|226:235|289:232|365:262|377:205,1,287.999991210938,2|0,1:1|0:0,0:0:0:0:
405,337,67274,2,0,B|419:401|522:381|522:254|460:243|381:262|377:204,1,287.999991210938,2|0,1:1|0:0,0:0:0:0:
352,105,67703,5,2,1:1:0:0:
509,16,67917,1,2,0:3:0:0:
481,42,68024,1,0,3:0:0:0:
443,34,68131,1,2,1:2:0:0:
206,98,68345,2,0,P|197:51|187:5,1,95.9999970703126,6|0,3:2|0:0,0:0:0:0:
82,90,68560,6,0,B|62:74|62:74|26:60,2,63.9999980468751,2|2|2,1:3|0:3|0:3,0:0:0:0:
150,128,68774,6,0,B|170:112|170:112|205:98,2,63.9999980468751,2|2|2,0:3|0:3|0:3,0:0:0:0:
85,168,68988,5,2,1:2:0:0:
145,252,69095,2,0,B|151:279|151:279|141:346,1,95.9999970703126,8|4,0:0|0:3,0:0:0:0:
61,381,69310,1,8,0:0:0:0:
9,311,69417,1,0,1:0:0:0:
65,302,69524,1,8,0:0:0:0:
121,293,69631,1,8,0:0:0:0:
177,284,69738,1,8,0:0:0:0:
125,214,69845,1,0,1:0:0:0:
211,203,69953,2,0,B|217:176|217:176|190:13,1,191.999994140625,12|2,0:0|0:3,0:0:0:0:
292,22,70274,6,0,P|329:34|346:69,1,80,2|0,1:2|0:0,0:0:0:0:
438,39,70488,1,2,0:3:0:0:
438,39,70595,2,0,P|446:77|424:109,1,80,0|2,3:0|1:2,0:0:0:0:
496,173,70810,2,0,P|467:199|428:196,1,80,0|2,0:0|3:2,0:0:0:0:
373,302,71024,2,0,P|356:223|340:145,1,160,2|0,0:0|0:0,0:0:0:0:
264,107,71345,5,2,3:2:0:0:
110,220,71560,1,2,1:2:0:0:
285,297,71774,1,2,3:2:0:0:
204,60,71988,6,0,P|166:72|149:107,1,80,2|0,1:2|0:0,0:0:0:0:
58,77,72203,1,2,3:2:0:0:
58,77,72310,2,0,P|49:115|71:147,1,80,2|0,0:0|1:0,0:0:0:0:
0,211,72524,2,0,P|28:237|67:234,1,80,0|2,0:0|3:2,0:0:0:0:
123,340,72738,2,0,P|139:261|155:183,1,160,0|0,0:0|0:0,0:0:0:0:
232,145,73060,5,2,3:2:0:0:
318,372,73274,1,2,1:2:0:0:
318,372,73488,1,2,3:2:0:0:
292,202,73703,5,0,1:0:0:0:
349,298,73810,2,0,B|360:258|360:258|366:220,1,80,8|0,0:0|0:0,0:0:0:0:
409,96,74024,5,8,0:0:0:0:
409,96,74131,1,0,1:0:0:0:
339,136,74238,2,0,B|328:96|328:96|321:58,1,80,8|0,0:0|0:0,0:0:0:0:
292,202,74453,1,8,0:0:0:0:
292,202,74560,5,2,1:2:0:0:
349,298,74667,2,0,B|360:258|360:258|366:220,1,80,10|0,0:0|0:0,0:0:0:0:
409,96,74881,5,10,0:2:0:0:
409,96,74988,1,0,1:0:0:0:
339,136,75095,2,0,B|328:96|328:96|321:58,1,80,10|0,0:0|0:0,0:0:0:0:
292,202,75310,1,8,0:0:0:0:
292,202,75417,6,0,B|204:189|248:254|162:242,1,143.999995605469,2|0,1:2|0:0,0:0:0:0:
162,242,75631,1,8,0:0:0:0:
129,155,75738,2,0,B|41:168|85:103|-1:115,1,143.999995605469,2|0,1:2|0:0,0:0:0:0:
0,114,75953,2,0,P|30:149|38:196,1,95.9999970703126,2|8,1:2|0:0,0:0:0:0:
0,310,76167,5,0,1:0:0:0:
0,310,76274,2,0,P|5:286|21:269,1,47.9999985351563,8|8,1:3|0:3,0:0:0:0:
93,304,76488,2,0,P|98:327|114:344,1,47.9999985351563,8|8,0:3|0:3,0:0:0:0:
162,242,76703,5,8,0:0:0:0:
219,246,76810,1,8,0:0:0:0:
266,277,76917,1,8,0:0:0:0:
306,317,77024,1,8,0:0:0:0:
363,321,77131,6,0,B|449:329|410:374|507:381,1,160,4|2,1:2|0:3,0:0:0:0:
426,255,77453,1,0,3:0:0:0:
426,255,77560,2,0,P|425:208|458:174,1,95.9999970703126,4|0,1:1|0:0,0:0:0:0:
512,230,77774,1,0,3:0:0:0:
222,293,77988,1,0,1:0:0:0:
464,163,78203,1,0,3:0:0:0:
243,124,78417,1,0,1:0:0:0:
382,10,78631,6,0,P|405:90|321:95,1,191.999994140625,0|0,3:0|1:0,0:0:0:0:
82,76,79060,1,0,3:0:0:0:
286,23,79274,2,0,P|239:20|208:55,1,95.9999970703126,2|0,1:2|0:0,0:0:0:0:
202,275,79488,1,0,3:0:0:0:
202,275,79595,1,0,3:0:0:0:
202,275,79703,6,0,B|209:294|209:294|235:305|235:305|261:296|261:296|280:270|280:270|281:241|281:241|261:208|261:208|231:189|231:189|204:176|204:176|186:158|186:158|182:137,1,287.999991210938,2|0,1:1|0:0,0:0:0:0:
131,265,80131,2,0,B|119:281|119:281|91:287|91:287|67:271|67:271|56:241|56:241|61:213|61:213|89:186|89:186|122:175|122:175|152:168|152:168|174:155|174:155|183:136,1,287.999991210938,2|0,1:1|0:0,0:0:0:0:
261,183,80560,6,0,B|272:199|272:199|300:205|300:205|324:189|324:189|335:159|335:159|330:131|330:131|302:104|302:104|269:93|269:93|239:86|239:86|217:73|217:73|208:54,1,287.999991210938,2|0,1:1|0:0,0:0:0:0:
131,265,80988,2,0,B|123:284|123:284|97:296|97:296|71:286|71:286|52:260|52:260|51:231|51:231|71:198|71:198|101:179|101:179|128:166|128:166|146:148|146:148|150:127,1,287.999991210938,2|0,1:1|0:0,0:0:0:0:
208,54,81417,5,2,1:1:0:0:
5,148,81631,1,2,0:3:0:0:
0,109,81738,1,0,3:0:0:0:
32,88,81845,1,2,1:2:0:0:
328,104,82060,2,0,P|314:57|306:10,1,95.9999970703126,6|0,3:2|0:0,0:0:0:0:
312,164,82274,6,0,B|320:116|320:116|328:104,2,63.9999980468751,2|2|2,1:3|0:3|0:3,0:0:0:0:
361,227,82488,6,0,B|369:276|369:276|377:288,2,63.9999980468751,2|2|2,0:3|0:3|0:3,0:0:0:0:
420,175,82703,5,2,1:2:0:0:
447,276,82810,2,0,B|458:247|458:247|498:195,1,95.9999970703126,8|4,0:0|0:3,0:0:0:0:
478,111,83024,1,8,0:0:0:0:
420,175,83131,1,0,1:0:0:0:
367,150,83238,1,8,0:0:0:0:
311,134,83345,1,8,0:0:0:0:
253,128,83453,1,8,0:0:0:0:
195,192,83560,1,0,1:0:0:0:
124,140,83667,2,0,P|40:104|29:13,1,191.999994140625,12|2,0:0|0:3,0:0:0:0:
150,0,83988,6,0,P|116:20|105:57,1,80,2|0,1:2|0:0,0:0:0:0:
52,130,84203,1,2,0:3:0:0:
52,130,84310,2,0,P|86:149|124:139,1,80,2|2,3:2|1:2,0:0:0:0:
213,149,84524,2,0,P|212:109|185:81,1,80,0|0,0:0|3:0,0:0:0:0:
116,221,84738,2,0,P|128:299|138:379,1,160,2|0,0:0|0:0,0:0:0:0:
62,357,85060,5,2,3:2:0:0:
51,173,85274,1,0,1:0:0:0:
215,255,85488,1,2,3:2:0:0:
3,305,85703,6,0,P|9:266|42:246,1,80,2|0,1:2|0:0,0:0:0:0:
43,76,85917,2,0,P|81:82|101:115,1,80,2|0,3:2|0:0,0:0:0:0:
272,116,86131,2,0,P|265:154|232:174,1,80,2|0,1:2|0:0,0:0:0:0:
232,345,86345,2,0,P|193:338|173:305,1,80,2|0,3:2|0:0,0:0:0:0:
159,174,86560,2,0,P|177:96|193:17,1,160,0|0,1:0|3:0,0:0:0:0:
275,254,86988,1,0,1:0:0:0:
275,254,87203,1,2,3:2:0:0:
370,101,87417,5,0,1:0:0:0:
448,180,87524,2,0,P|459:142|444:106,1,80,8|0,0:0|0:0,0:0:0:0:
368,25,87738,5,8,0:0:0:0:
368,25,87845,1,0,1:0:0:0:
298,73,87953,2,0,P|286:35|301:0,1,80,8|0,0:0|0:0,0:0:0:0:
370,101,88167,1,8,0:0:0:0:
370,101,88274,5,0,1:0:0:0:
448,180,88381,2,0,P|459:142|444:106,1,80,8|0,0:0|0:0,0:0:0:0:
368,25,88595,5,8,0:0:0:0:
368,25,88703,1,0,1:0:0:0:
298,73,88810,2,0,P|286:35|301:0,1,80,8|0,0:0|0:0,0:0:0:0:
370,101,89024,1,8,0:0:0:0:
347,177,89131,6,0,B|362:142|362:142|370:101,1,80,0|0,1:0|0:0,0:0:0:0:
272,203,89345,1,8,0:0:0:0:
295,279,89452,2,0,B|280:244|280:244|272:203,1,80,0|2,1:0|0:0,0:0:0:0:
370,305,89667,1,8,0:0:0:0:
347,381,89774,2,0,B|362:346|362:346|370:305,1,80,0|0,1:0|0:0,0:0:0:0:
239,370,89988,5,0,1:0:0:0:
187,348,90095,1,8,0:0:0:0:
132,334,90203,1,8,0:0:0:0:
76,328,90310,1,8,0:0:0:0:
20,329,90417,1,2,1:3:0:0:
20,329,90631,1,2,0:3:0:0:
188,213,90845,5,8,0:3:0:0:
188,213,90953,1,8,0:3:0:0:
169,186,91060,2,0,L|166:154,1,32,8|0,0:3|0:0,0:0:0:0:
88,74,91274,6,0,L|82:156,7,80,14|0|0|0|8|0|0|0,0:0|0:0|3:0|0:0|0:0|0:0|3:0|0:0,0:0:0:0:
8,233,92131,1,8,0:0:0:0:
8,233,92238,1,0,0:0:0:0:
8,233,92345,2,0,P|86:237|144:289,1,160,0|10,3:0|0:0,0:0:0:0:
222,106,92774,6,0,L|168:185,9,95.9999970703126,0|0|10|2|2|2|10|0|2|2,3:0|0:0|0:0|0:0|3:2|0:0|0:0|0:0|3:2|0:0,0:0:0:0:
8,233,93845,1,10,0:0:0:0:
8,233,93952,1,0,0:0:0:0:
8,233,94059,2,0,P|86:237|144:289,1,160,2|8,3:2|0:0,0:0:0:0:
328,216,94488,6,0,L|215:270,9,111.999996582031,2|0|10|2|2|2|10|0|2|0,3:2|0:0|0:0|0:0|3:2|0:0|0:0|0:0|3:2|0:0,0:0:0:0:
8,233,95560,1,8,0:0:0:0:
8,233,95667,1,0,0:0:0:0:
8,233,95774,2,0,P|86:237|144:289,1,160,2|8,3:2|0:0,0:0:0:0:
324,367,96203,6,0,L|196:357,9,128,2|0|10|0|2|0|8|0|2|2,3:2|0:0|0:0|0:0|3:2|0:0|0:0|0:0|3:2|0:0,0:0:0:0:
86,237,97274,1,10,0:0:0:0:
86,237,97381,1,2,0:0:0:0:
86,237,97488,2,0,P|120:258|144:289,1,80,2|2,3:2|0:0,0:0:0:0:
324,367,97703,2,0,P|357:345|381:314,1,80,14|0,0:0|0:0,0:0:0:0:
512,191,97917,6,0,L|369:209,9,143.999995605469,0|0|10|0|0|0|10|0|2|0,3:0|0:0|0:0|0:0|3:0|0:0|0:0|0:0|3:2|0:0,0:0:0:0:
265,280,98988,1,8,0:0:0:0:
265,280,99095,1,0,0:0:0:0:
265,280,99203,2,0,P|289:205|259:133,1,160,2|8,3:2|0:0,0:0:0:0:
475,10,99631,6,0,L|337:114,9,160,2|0|10|0|2|2|8|0|2|2,3:2|0:0|0:0|0:0|3:2|0:0|0:0|0:0|3:2|0:0,0:0:0:0:
172,150,100703,1,10,0:0:0:0:
172,150,100810,1,2,0:0:0:0:
172,150,100917,2,0,P|171:110|188:74,1,80,0|0,3:0|1:0,0:0:0:0:
271,6,101131,1,8,0:0:0:0:
452,295,101345,6,0,B|456:316|489:336|524:302|520:206|444:283|417:204,1,191.999994140625,6|0,0:3|1:0,0:0:0:0:
380,319,101666,6,0,B|390:337|378:374|329:370|270:294|378:304|348:226,1,191.999994140625,4|0,0:3|1:0,0:0:0:0:
334,59,101988,5,8,3:2:0:0:
389,77,102095,1,0,1:0:0:0:
389,135,102202,1,0,1:0:0:0:
334,153,102309,1,0,1:0:0:0:
301,106,102417,5,8,3:2:0:0:
237,319,102631,1,8,0:0:0:0:
135,128,102845,6,0,B|135:62|227:75|264:152|155:213,1,191.999994140625,8|0,1:2|0:0,0:0:0:0:
56,141,103167,2,0,B|32:79|-48:122|-56:208|66:228,1,191.999994140625,8|0,1:2|3:0,0:0:0:0:
146,245,103488,2,0,B|123:272|125:303|125:303|115:273|85:255,1,128,8|0,1:2|3:0,0:0:0:0:
337,373,103917,5,0,3:0:0:0:
337,373,104024,1,0,3:0:0:0:
337,373,104131,1,8,3:3:0:0:
318,299,104345,1,0,3:0:0:0:
495,181,104560,6,0,B|477:227|470:283|470:283|440:293|406:257|451:220|474:249|471:277,1,191.999994140625,2|0,1:2|3:0,0:0:0:0:
318,299,105203,5,0,3:0:0:0:
318,299,105310,1,0,0:0:0:0:
318,299,105417,2,0,L|291:294,1,23.9999992675781,8|0,0:0|0:0,0:0:0:0:
366,203,105631,5,0,0:0:0:0:
366,203,105738,1,0,0:0:0:0:
259,210,105953,5,0,0:0:0:0:
259,210,106060,2,0,L|202:199,1,47.9999985351563,0|2,3:0|0:0,0:0:0:0:
306,113,106274,5,2,3:2:0:0:
264,48,106488,1,0,3:0:0:0:
188,30,106703,1,0,1:0:0:0:
121,67,106917,1,0,3:0:0:0:
61,153,107131,6,0,P|15:146|0:103,1,95.9999970703126,8|0,0:0|3:0,0:0:0:0:
37,35,107560,1,0,3:0:0:0:
37,35,107667,1,0,3:0:0:0:
37,35,107774,1,0,3:0:0:0:
150,152,107988,6,0,L|133:176,1,23.9999992675781,2|0,1:2|3:0,0:0:0:0:
146,184,108095,2,0,L|129:208,1,23.9999992675781,0|0,3:0|3:0,0:0:0:0:
142,214,108203,2,0,L|125:238,1,23.9999992675781,0|0,3:0|3:0,0:0:0:0:
138,246,108310,2,0,L|121:270,1,23.9999992675781,0|0,3:0|3:0,0:0:0:0:
134,276,108417,1,0,3:0:0:0:
63,305,108631,1,0,3:0:0:0:
225,348,108845,6,0,L|242:372,1,23.9999992675781,8|0,0:0|0:0,0:0:0:0:
311,384,109060,2,0,L|332:311,1,47.9999985351563,0|0,3:0|0:0,0:0:0:0:
386,298,109274,1,0,3:0:0:0:
259,268,109488,6,0,L|276:292,1,23.9999992675781,8|0,0:0|0:0,0:0:0:0:
311,384,109703,1,2,3:2:0:0:
293,188,109917,6,0,L|310:212,1,23.9999992675781,8|0,0:0|0:0,0:0:0:0:
386,298,110131,1,0,1:0:0:0:
461,279,110345,5,0,3:0:0:0:
324,364,110560,2,0,L|311:384,1,23.9999992675781,8|0,0:0|0:0,0:0:0:0:
259,268,110774,5,0,3:0:0:0:
184,249,110988,1,0,3:0:0:0:
184,249,111095,1,0,0:0:0:0:
105,346,111310,5,0,0:0:0:0:
40,305,111417,2,0,L|49:223,1,63.9999980468751,2|0,1:2|0:0,0:0:0:0:
49,226,111631,1,0,3:0:0:0:
116,163,111774,1,0,0:0:0:0:
114,148,111845,2,0,L|105:66,1,63.9999980468751,0|0,3:0|0:0,0:0:0:0:
105,69,112059,1,0,3:0:0:0:
20,31,112203,5,0,0:0:0:0:
18,46,112274,2,0,L|9:128,1,63.9999980468751,8|0,0:0|3:0,0:0:0:0:
9,125,112488,2,0,L|91:134,1,63.9999980468751,0|0,0:0|0:0,0:0:0:0:
88,134,112703,2,0,L|97:52,1,63.9999980468751,0|0,3:0|0:0,0:0:0:0:
97,55,112917,2,0,L|33:48,1,47.9999985351563,4|2,3:3|3:2,0:0:0:0:
184,17,113131,5,2,3:2:0:0:
277,110,113274,1,0,0:0:0:0:
292,108,113345,2,0,L|374:99,1,63.9999980468751,8|0,0:3|0:0,0:0:0:0:
371,99,113560,2,0,L|380:181,1,63.9999980468751,0|0,1:0|0:0,0:0:0:0:
380,178,113774,1,0,3:0:0:0:
326,255,113917,5,0,0:0:0:0:
324,270,113988,2,0,L|315:352,1,63.9999980468751,8|0,0:0|0:0,0:0:0:0:
315,349,114203,2,0,L|397:358,1,63.9999980468751,0|0,3:0|0:0,0:0:0:0:
394,358,114417,2,0,L|403:276,1,63.9999980468751,0|0,1:0|0:0,0:0:0:0:
403,279,114631,2,0,L|355:273,1,47.9999985351563,0|0,3:0|3:0,0:0:0:0:
490,241,114845,5,2,1:2:0:0:
304,173,115060,1,0,3:0:0:0:
233,162,115274,2,0,P|227:113|253:93,1,63.9999980468751,0|0,3:0|0:0,0:0:0:0:
248,97,115488,1,0,1:0:0:0:
386,11,115703,6,0,L|409:7,1,23.9999992675781,8|0,0:0|0:0,0:0:0:0:
317,54,115917,1,0,3:0:0:0:
317,54,116024,2,0,P|327:75|327:98,1,47.9999985351563,0|0,3:0|3:0,0:0:0:0:
233,162,116238,1,0,3:0:0:0:
233,162,116345,1,8,0:0:0:0:
233,162,116453,1,2,3:2:0:0:
233,162,116560,6,0,L|148:149,1,63.9999980468751,2|0,0:0|0:0,0:0:0:0:
153,149,116774,2,0,L|68:136,1,63.9999980468751,8|0,0:0|0:0,0:0:0:0:
73,136,116988,1,0,1:0:0:0:
109,329,117203,1,0,3:0:0:0:
73,136,117417,1,10,0:0:0:0:
73,136,117524,1,0,3:0:0:0:
56,273,117685,5,0,3:0:0:0:
193,290,117845,5,0,3:0:0:0:
210,153,118006,5,0,3:0:0:0:
73,136,118167,5,0,3:0:0:0:
138,171,118274,6,2,B|119:281|119:281|114:311|155:340|188:321|203:285|203:285|220:240|268:227|284:236|284:236|277:163|232:148|232:148|224:190|185:183|163:206|155:251|149:231|149:231|189:4|189:4|180:-35|152:4|90:-21|90:-21|134:2|172:-1|175:64|175:64,1,1007.99996923828,2|4,1:2|1:3,0:1:0:0:
251,73,119881,1,0,3:0:0:0:
254,77,119988,5,0,1:0:0:0:
311,98,120095,1,0,0:0:0:0:
357,59,120203,1,4,0:3:0:0:
511,35,120417,5,0,1:0:0:0:
465,74,120525,1,0,0:0:0:0:
400,224,120845,5,8,0:1:0:0:
491,154,121060,5,0,3:0:0:0:
512,211,121167,1,0,3:0:0:0:
473,257,121275,1,0,3:0:0:0:
346,361,121595,5,0,1:0:0:0:
367,304,121703,1,2,1:2:0:0:
454,384,121917,6,0,L|521:368,2,60.0000022888184,2|0|0,3:2|3:0|3:0,0:0:0:0:
454,384,122345,1,0,3:0:0:0:
296,263,122560,5,8,0:1:0:0:
254,239,122667,1,0,0:0:0:0:
209,256,122774,1,0,3:0:0:0:
185,283,122881,5,2,3:2:0:0:
150,289,122988,1,4,0:1:0:0:
117,276,123095,1,2,3:2:0:0:
95,249,123203,1,4,1:3:0:0:
89,214,123310,1,0,3:0:0:0:
103,181,123417,6,0,P|97:147|85:104,1,60.0000022888184,0|0,1:0|3:0,0:0:0:0:
148,30,123631,1,4,0:3:0:0:
178,213,123845,6,0,P|171:247|159:290,1,60.0000022888184,0|0,1:0|3:0,0:0:0:0:
222,365,124060,1,0,3:0:0:0:
130,118,124274,6,0,P|159:126|189:131,1,60.0000022888184,8|0,0:1|3:0,0:0:0:0:
167,205,124488,2,0,P|138:197|109:192,1,60.0000022888184,0|0,3:0|3:0,0:0:0:0:
20,67,124703,5,4,0:1:0:0:
25,144,124863,5,0,0:0:0:0:
29,220,125024,6,0,P|39:232|47:245,1,30.0000011444092,0|0,1:0|1:0,0:0:0:0:
31,230,125131,2,0,P|57:283|68:342,1,120.000004577637,2|2,1:2|0:2,0:0:0:0:
222,365,125560,1,0,0:0:0:0:
222,365,125667,2,0,P|248:311|259:252,1,120.000004577637,2|0,0:2|3:0,0:0:0:0:
326,213,125988,2,0,P|352:266|363:325,1,120.000004577637,8|0,0:1|0:0,0:0:0:0:
438,364,126310,1,2,0:2:0:0:
438,364,126417,6,0,B|446:341|446:341|467:302,1,68.0000012969971,4|2,0:1|3:2,0:0:0:0:
452,181,126631,2,0,B|444:204|444:204|422:242,1,68.0000012969971,4|0,1:3|3:0,0:0:0:0:
304,372,126845,5,0,1:0:0:0:
106,228,127060,1,4,0:3:0:0:
173,178,127167,1,0,1:0:0:0:
181,261,127274,1,0,1:0:0:0:
6,179,127488,1,0,1:0:0:0:
228,59,127703,6,0,B|245:72|242:94|242:94|237:138,1,83.9999974365235,8|0,0:1|0:0,0:0:0:0:
127,381,127917,2,0,B|110:368|113:346|113:346|118:302,1,83.9999974365235,0|0,3:0|3:0,0:0:0:0:
89,104,128131,1,4,0:1:0:0:
101,186,128238,2,0,B|106:230,2,41.9999987182618,0|0|0,1:0|1:0|1:0,0:0:0:0:
371,61,128560,5,2,1:2:0:0:
419,27,128667,1,2,0:3:0:0:
471,51,128774,1,2,0:3:0:0:
479,109,128881,1,2,0:3:0:0:
444,157,128988,1,2,0:3:0:0:
394,188,129095,1,2,0:3:0:0:
355,233,129203,1,2,1:3:0:0:
325,182,129310,1,2,1:3:0:0:
281,143,129417,6,0,L|297:146,1,11.9999996337891,2|2,1:3|0:3,0:0:0:0:
256,90,129524,6,0,L|270:97,1,11.9999996337891,2|2,0:3|0:3,0:0:0:0:
273,34,129631,6,0,L|281:47,1,11.9999996337891,2|2,1:3|0:3,0:0:0:0:
329,19,129738,6,0,L|324:34,1,11.9999996337891,2|2,0:3|0:3,0:0:0:0:
371,61,129845,5,2,1:3:0:0:
383,144,129953,1,0,1:0:0:0:
395,227,130060,2,0,L|401:271,4,41.9999987182618,0|0|0|0|6,1:0|1:0|1:0|1:0|0:0,0:0:0:0:
395,227,131988,5,2,0:0:0:0:
80,299,133703,1,2,0:0:0:0:
55,230,135417,5,4,0:3:0:0:
123,192,135739,5,4,0:3:0:0:
121,269,136060,5,4,0:3:0:0:
74,347,136274,6,0,L|103:341,4,20,4|4|4|4|4,0:3|0:3|0:3|0:3|0:3,0:0:0:0:
191,312,136595,1,4,0:3:0:0:
191,312,136703,2,0,L|229:322,1,40,4|0,0:3|0:0,0:0:0:0:
297,359,136917,2,0,L|335:348,1,40,4|0,0:3|0:0,0:0:0:0:
461,375,137131,6,0,P|480:321|452:269,1,120,2|0,1:2|0:0,0:0:0:0:
390,217,137560,2,0,P|370:162|398:110,1,120,0|0,1:0|0:0,0:0:0:0:
398,323,137988,6,0,P|417:268|389:216,1,120,0|0,1:0|0:0,0:0:0:0:
326,164,138417,2,0,P|306:109|334:57,1,120,0|0,1:0|0:0,0:0:0:0:
35,73,138845,6,0,B|41:29|128:35|130:107,1,143.999995605469,2|0,1:2|0:0,0:0:0:0:
231,107,139274,2,0,B|239:63|155:39|129:106,1,143.999995605469,0|0,1:0|0:0,0:0:0:0:
24,148,139703,6,0,B|37:221|94:190|102:260,1,143.999995605469,0|0,1:0|0:0,0:0:0:0:
215,182,140131,2,0,B|177:246|132:197|102:260,1,143.999995605469,0|0,1:0|0:0,0:0:0:0:
256,384,140559,5,4,1:3:0:0:
86,77,140881,1,4,0:3:0:0:
86,77,140988,2,0,P|113:77|138:89,1,55.9999982910157,0|0,1:0|0:0,0:0:0:0:
215,182,141203,2,0,P|187:181|162:169,1,55.9999982910157,4|0,0:3|0:0,0:0:0:0:
203,39,141417,6,0,P|199:19|196:0,2,40,4|4|4,1:3|0:3|0:3,0:0:0:0:
138,242,141631,1,8,0:3:0:0:
129,313,141738,1,8,1:3:0:0:
121,384,141845,1,8,0:3:0:0:
22,349,142060,5,8,1:3:0:0:
27,306,142167,1,0,1:0:0:0:
33,263,142274,6,0,L|49:242,2,23.9999992675781,2|2|2,1:3|0:3|0:3,0:0:0:0:
17,171,142488,2,0,L|1:149,2,23.9999992675781,2|2|2,0:3|0:3|1:3,0:0:0:0:
63,102,142703,1,4,0:3:0:0:
63,102,142810,2,0,L|58:38,1,47.9999985351563,4|4,1:3|0:3,0:0:0:0:
1,1,143024,1,4,1:3:0:0:
41,14,143131,1,4,1:3:0:0:
350,72,143345,5,8,0:1:0:0:
206,87,143560,1,8,0:0:0:0:
63,102,143774,1,8,0:3:0:0:
393,309,143988,6,0,B|388:350|452:365|496:323|479:219|397:231|356:249|328:191,1,280,6|0,1:2|0:0,0:0:0:0:
331,326,144845,2,0,B|356:359|309:404|250:390|212:291|289:260|334:255|329:191,1,280,8|0,0:0|0:0,0:0:0:0:
309,120,145703,5,2,0:0:0:0:
290,50,145917,1,0,1:0:0:0:
290,50,146131,1,0,1:0:0:0:
30,224,146560,5,10,0:0:0:0:
157,199,146774,1,2,0:0:0:0:
87,178,146988,1,2,0:0:0:0:
100,245,147202,1,2,0:0:0:0:
373,64,147417,6,0,B|368:23|432:8|476:50|459:154|377:142|336:124|308:182,1,280,0|0,1:0|0:0,0:0:0:0:
281,249,148274,1,10,0:0:0:0:
457,366,148703,1,2,1:2:0:0:
457,366,148917,1,2,1:2:0:0:
503,268,149131,6,0,P|506:248|512:229,1,40,0|0,3:0|0:0,0:0:0:0:
436,208,149345,1,2,1:2:0:0:
436,208,149453,2,0,P|432:227|426:246,1,40,0|0,3:0|0:0,0:0:0:0:
273,331,149774,2,0,P|276:350|282:369,1,40,2|0,1:2|0:0,0:0:0:0:
369,377,149988,6,0,L|371:353,2,23.9999992675781,8|2|2,0:0|0:3|0:3,0:0:0:0:
342,286,150203,2,0,L|337:259,2,23.9999992675781,2|2|2,0:3|0:3|0:3,0:0:0:0:
355,192,150417,6,0,L|363:139,1,47.9999985351563,8|0,0:0|0:0,0:0:0:0:
334,75,150631,2,0,L|325:22,1,47.9999985351563,2|0,0:3|0:0,0:0:0:0:
218,0,150845,5,8,0:0:0:0:
142,9,151274,5,8,0:0:0:0:
129,85,151703,5,8,0:0:0:0:
197,121,152024,1,8,0:0:0:0:
252,68,152345,1,8,0:0:0:0:
353,154,152560,5,8,0:0:0:0:
429,163,152988,5,8,0:0:0:0:
442,239,153417,5,8,0:0:0:0:
374,275,153738,1,8,0:0:0:0:
319,222,154060,1,8,0:0:0:0:
260,362,154274,6,0,L|196:351,1,64,8|0,0:0|0:0,0:0:0:0:
250,286,154488,2,0,L|186:275,1,64,8|0,0:0|0:0,0:0:0:0:
240,210,154703,2,0,L|176:199,1,64,8|0,0:0|0:0,0:0:0:0:
230,134,154917,2,0,L|166:123,1,64,8|0,0:0|0:0,0:0:0:0:
104,211,155131,5,8,0:0:0:0:
71,171,155238,1,8,0:0:0:0:
57,122,155345,1,8,0:3:0:0:
65,72,155452,1,8,1:3:0:0:
92,30,155559,1,8,0:3:0:0:
135,2,155666,1,8,0:0:0:0:
185,0,155773,1,8,1:3:0:0:
234,8,155881,1,8,0:0:0:0:
273,40,155988,5,0,1:0:0:0:
273,40,156095,2,0,L|282:86,1,32,0|2,1:0|0:3,0:0:0:0:
346,153,156310,2,0,P|392:150|419:112,1,95.9999970703126,0|2,1:0|0:3,0:0:0:0:
205,82,156524,2,0,P|183:123|203:165,1,95.9999970703126,0|2,1:0|0:3,0:0:0:0:
265,336,156738,1,0,1:0:0:0:
335,305,156845,5,8,1:3:0:0:
303,268,156953,1,8,0:3:0:0:
255,259,157060,1,10,0:3:0:0:
211,280,157167,1,8,0:3:0:0:
147,302,157274,1,8,0:3:0:0:
86,272,157381,1,0,1:0:0:0:
61,209,157488,1,0,1:0:0:0:
90,148,157595,1,0,1:0:0:0:
167,175,157703,6,0,B|191:208|221:209|244:178|247:114|217:88|173:117|147:113|125:74|122:55|122:55|125:74|114:117|93:133|45:126|24:154,1,335.999989746094,4|0,1:1|3:0,0:0:0:0:
94,199,158131,2,0,P|55:178|64:134,1,95.9999970703126,4|0,1:2|0:0,0:0:0:0:
184,8,158345,1,0,3:0:0:0:
265,336,158560,1,0,1:0:0:0:
339,57,158774,1,0,3:0:0:0:
440,277,158988,1,0,1:0:0:0:
512,152,159203,6,0,B|461:134|425:175|425:175|390:216|338:198,1,191.999994140625,0|0,3:0|1:0,0:0:0:0:
162,109,159631,1,0,3:0:0:0:
281,253,159845,2,0,P|239:231|223:187,1,95.9999970703126,2|0,1:2|0:0,0:0:0:0:
267,41,160060,1,0,3:0:0:0:
404,233,160274,6,0,B|411:296|517:288|530:163|470:145|389:156|391:97,1,287.999991210938,2|0,1:1|0:0,0:0:0:0:
275,178,160703,2,0,B|247:236|151:192|182:69|245:73|317:111|335:55,1,287.999991210938,2|0,1:1|0:0,0:0:0:0:
404,233,161131,6,0,B|426:293|526:260|509:135|446:132|370:162|358:105,1,287.999991210938,2|0,1:1|0:0,0:0:0:0:
330,237,161560,2,0,B|316:301|213:281|213:154|275:143|354:162|358:104,1,287.999991210938,2|0,1:1|0:0,0:0:0:0:
322,8,161989,5,2,1:1:0:0:
64,127,162203,1,2,0:3:0:0:
54,89,162310,1,0,3:0:0:0:
79,60,162417,1,2,1:2:0:0:
399,43,162631,2,0,P|390:90|380:136,1,95.9999970703126,6|0,3:2|0:0,0:0:0:0:
457,212,162845,6,0,B|477:196|477:196|513:182,2,63.9999980468751,2|2|2,1:3|0:3|0:3,0:0:0:0:
389,250,163060,6,0,B|369:234|369:234|334:220,2,63.9999980468751,2|2|2,0:3|0:3|0:3,0:0:0:0:
454,290,163274,5,2,1:2:0:0:
393,376,163381,2,0,B|374:363|374:363|302:349,1,95.9999970703126,8|4,0:0|0:3,0:0:0:0:
240,289,163595,1,8,0:0:0:0:
178,350,163703,1,0,1:0:0:0:
154,297,163810,1,8,0:0:0:0:
167,241,163917,1,8,0:0:0:0:
212,206,164024,1,8,0:0:0:0:
296,223,164131,1,0,1:0:0:0:
265,137,164238,2,0,P|170:121|75:107,1,191.999994140625,12|2,0:0|0:3,0:0:0:0:
17,36,164560,6,0,P|27:74|36:113,1,80,2|0,1:2|0:0,0:0:0:0:
140,160,164774,1,2,0:3:0:0:
140,160,164881,2,0,P|129:198|120:237,1,80,0|2,3:0|1:2,0:0:0:0:
24,295,165095,2,0,P|34:333|43:372,1,80,0|2,0:0|3:2,0:0:0:0:
170,384,165310,2,0,P|231:339|214:266,1,160,2|0,0:0|0:0,0:0:0:0:
146,306,165631,5,2,3:2:0:0:
333,347,165845,1,2,1:2:0:0:
276,165,166060,1,2,3:2:0:0:
247,372,166274,6,0,P|257:333|266:294,1,80,2|0,1:2|0:0,0:0:0:0:
370,248,166488,1,2,3:2:0:0:
370,248,166595,2,0,P|359:209|350:170,1,80,2|0,0:0|1:0,0:0:0:0:
254,113,166810,2,0,P|264:74|273:35,1,80,0|2,0:0|3:2,0:0:0:0:
400,24,167024,2,0,P|461:68|444:141,1,160,0|0,0:0|0:0,0:0:0:0:
376,102,167345,5,2,3:2:0:0:
415,333,167560,1,2,1:2:0:0:
415,333,167774,1,2,3:2:0:0:
431,163,167988,5,0,1:0:0:0:
380,262,168095,2,0,P|361:226|361:187,1,80,8|0,0:0|0:0,0:0:0:0:
302,73,168310,5,8,0:0:0:0:
302,73,168417,1,0,1:0:0:0:
376,102,168524,2,0,P|394:66|394:27,1,80,8|0,0:0|0:0,0:0:0:0:
431,163,168738,1,8,0:0:0:0:
431,163,168845,5,2,1:2:0:0:
380,262,168953,2,0,P|361:226|361:187,1,80,10|0,0:0|0:0,0:0:0:0:
302,73,169167,5,10,0:2:0:0:
302,73,169274,1,0,1:0:0:0:
376,102,169381,2,0,P|394:66|394:27,1,80,10|0,0:0|0:0,0:0:0:0:
431,163,169596,1,8,0:0:0:0:
431,163,169703,6,0,P|475:186|447:272,1,143.999995605469,2|0,1:2|0:0,0:0:0:0:
458,266,169917,1,8,0:0:0:0:
424,356,170024,2,0,P|364:318|294:326,1,143.999995605469,2|0,1:2|0:0,0:0:0:0:
294,325,170238,2,0,P|255:351|207:352,1,95.9999970703126,2|8,1:2|0:0,0:0:0:0:
110,371,170453,5,0,1:0:0:0:
110,371,170560,2,0,P|88:360|73:342,1,47.9999985351563,8|8,1:3|0:3,0:0:0:0:
0,278,170774,2,0,P|-1:254|6:231,1,47.9999985351563,8|8,0:3|0:3,0:0:0:0:
143,304,170988,5,8,0:0:0:0:
124,251,171095,1,8,0:0:0:0:
135,195,171203,1,8,0:0:0:0:
172,153,171310,1,8,0:0:0:0:
225,137,171417,6,0,P|270:45|168:27,1,240,4|0,1:2|3:0,0:0:0:0:
59,0,171845,2,0,P|28:34|33:81,1,95.9999970703126,4|0,1:1|0:0,0:0:0:0:
55,154,172060,1,0,3:0:0:0:
343,197,172274,1,0,1:0:0:0:
82,228,172488,1,0,3:0:0:0:
282,314,172703,1,0,1:0:0:0:
148,370,172917,6,0,B|139:317|185:289|185:289|232:261|223:207,1,191.999994140625,0|0,3:0|1:0,0:0:0:0:
128,12,173346,1,0,3:0:0:0:
149,173,173560,2,0,P|148:125|175:86,1,95.9999970703126,2|0,1:2|0:0,0:0:0:0:
392,37,173774,1,0,3:0:0:0:
392,37,173881,1,0,3:0:0:0:
392,37,173988,6,0,B|404:21|404:21|432:15|432:15|456:31|456:31|467:61|467:61|462:89|462:89|434:116|434:116|401:127|401:127|371:134|371:134|349:147|349:147|340:166,1,287.999991210938,2|0,1:1|0:0,0:0:0:0:
321,27,174416,2,0,B|314:8|314:8|288:-3|288:-3|262:6|262:6|243:32|243:32|242:61|242:61|262:94|262:94|292:113|292:113|319:126|319:126|337:144|337:144|341:165,1,287.999991210938,2|0,1:1|0:0,0:0:0:0:
433,59,174845,6,0,B|440:40|440:40|466:27|466:27|493:37|493:37|511:64|511:64|513:92|513:92|492:125|492:125|463:144|463:144|436:158|436:158|417:176|417:176|413:196,1,287.999991210938,2|0,1:1|0:0,0:0:0:0:
288,130,175274,2,0,B|276:113|276:113|248:108|248:108|225:123|225:123|213:153|213:153|219:182|219:182|246:209|246:209|280:220|280:220|310:226|310:226|331:239|331:239|340:259,1,287.999991210938,2|0,1:1|0:0,0:0:0:0:
391,355,175703,5,2,1:1:0:0:
154,251,175917,1,2,0:3:0:0:
115,251,176024,1,0,3:0:0:0:
89,279,176131,1,2,1:2:0:0:
11,13,176345,2,0,P|58:19|105:28,1,95.9999970703126,6|0,3:2|0:0,0:0:0:0:
121,136,176560,6,0,P|92:124|78:95,2,63.9999980468751,2|2|2,1:3|0:3|0:3,0:0:0:0:
173,74,176774,6,0,P|186:45|215:33,2,63.9999980468751,2|2|2,0:3|0:3|0:3,0:0:0:0:
245,111,176988,5,2,1:2:0:0:
313,191,177095,2,0,P|315:238|289:277,1,95.9999970703126,8|4,0:0|0:3,0:0:0:0:
228,340,177310,1,8,0:0:0:0:
143,320,177417,1,0,1:0:0:0:
115,269,177524,1,8,0:0:0:0:
128,213,177631,1,8,0:0:0:0:
176,182,177738,1,8,0:0:0:0:
231,115,177845,1,0,1:0:0:0:
186,40,177953,2,0,P|97:30|68:114,1,191.999994140625,12|2,0:0|0:3,0:0:0:0:
0,194,178274,6,0,P|39:196|79:203,1,80,2|0,1:2|0:0,0:0:0:0:
203,259,178488,1,2,0:3:0:0:
203,259,178595,2,0,P|242:256|282:249,1,80,2|2,3:2|1:2,0:0:0:0:
409,195,178810,2,0,P|448:197|488:204,1,80,0|0,0:0|3:0,0:0:0:0:
429,359,179024,2,0,P|358:339|372:268,1,160,2|0,0:0|0:0,0:0:0:0:
409,195,179345,5,2,3:2:0:0:
269,328,179560,1,0,1:0:0:0:
223,140,179774,1,2,3:2:0:0:
333,240,179988,6,0,P|293:237|253:232,1,80,2|0,1:2|0:0,0:0:0:0:
151,381,180203,2,0,P|154:342|159:302,1,80,2|0,3:2|0:0,0:0:0:0:
10,199,180417,2,0,P|49:203|89:208,1,80,2|0,1:2|0:0,0:0:0:0:
192,58,180631,2,0,P|188:98|183:138,1,80,2|0,3:2|0:0,0:0:0:0:
241,234,180845,2,0,B|149:251|178:189|88:208,1,160,0|0,1:0|3:0,0:0:0:0:
272,19,181274,1,0,1:0:0:0:
272,19,181488,1,2,3:2:0:0:
66,136,181703,5,0,1:0:0:0:
124,40,181810,2,0,B|145:64|142:92|142:92|138:115,1,80,8|0,0:0|0:0,0:0:0:0:
172,252,182024,5,8,0:0:0:0:
172,252,182131,1,0,1:0:0:0:
109,202,182238,2,0,B|88:226|91:254|91:254|94:277,1,80,8|0,0:0|0:0,0:0:0:0:
66,136,182453,1,8,0:0:0:0:
66,136,182560,5,0,1:0:0:0:
124,40,182667,2,0,B|145:64|142:92|142:92|138:115,1,80,8|0,0:0|0:0,0:0:0:0:
172,252,182881,5,8,0:0:0:0:
172,252,182988,1,0,1:0:0:0:
109,202,183095,2,0,B|88:226|91:254|91:254|94:277,1,80,8|0,0:0|0:0,0:0:0:0:
66,136,183310,1,8,0:0:0:0:
13,77,183417,6,0,B|33:112|33:112|65:135,1,80,2|0,1:1|0:0,0:0:0:0:
186,186,183631,1,10,0:0:0:0:
109,202,183738,2,0,B|149:201|149:201|185:185,1,80,2|0,1:1|0:0,0:0:0:0:
288,106,183953,1,10,0:0:0:0:
264,181,184060,2,0,B|284:145|284:145|288:106,1,80,2|0,1:1|0:0,0:0:0:0:
160,4,184274,6,2,B|98:15|114:115|175:103|175:103|237:94|220:-5|160:4|160:4|160:11|160:11|106:21|120:106|174:95|174:95|228:87|213:4|160:11|160:11|161:18|161:18|114:27|127:96|174:88|174:88|219:79|205:11|162:18|162:18|162:26|162:26|123:34|132:88|172:79|172:79|209:73|200:20|162:26,1,992.000007568359,0|0,1:0|0:0,0:1:0:0:
168,54,185560,6,0,B|94:67|143:97|50:114,1,111.999996582031,4|0,1:1|0:0,0:0:0:0:
300,281,185774,6,0,P|348:285|393:270,1,95.9999970703126,0|0,3:0|0:0,0:0:0:0:
164,258,185988,2,0,P|118:246|81:216,1,95.9999970703126,0|0,1:0|0:0,0:0:0:0:
333,356,186203,2,0,P|378:373|426:370,1,95.9999970703126,0|0,3:0|0:0,0:0:0:0:
109,317,186417,2,0,P|62:317|18:298,1,95.9999970703126,0|0,1:0|0:0,0:0:0:0:
256,384,186631,2,0,B|285:327|222:331|232:275|232:275|222:331|164:306|172:370,1,240.000009155274,0|0,3:0|1:0,0:0:0:0:
326,93,187060,6,0,P|334:45|345:0,1,95.9999970703126,0|0,3:0|0:0,0:0:0:0:
256,0,187274,1,2,1:2:0:0:
256,384,187488,1,0,3:0:0:0:
211,182,187703,6,0,B|94:159|179:63|73:29|53:68|-13:29,1,287.999991210938,2|0,1:1|0:0,0:0:0:0:
0,112,188131,2,0,B|12:268|212:194|213:312,1,287.999991210938,2|0,1:1|0:0,0:0:0:0:
301,182,188560,6,0,B|427:135|346:59|437:20|479:75|525:29,1,287.999991210938,2|0,1:1|0:0,0:0:0:0:
512,112,188988,2,0,B|500:268|300:194|299:312,1,287.999991210938,2|0,1:1|0:0,0:0:0:0:
256,365,189417,5,2,1:1:0:0:
256,18,189631,1,2,0:3:0:0:
256,57,189738,1,0,3:0:0:0:
256,96,189845,1,2,1:2:0:0:
256,365,190060,2,0,L|256:269,1,95.9999970703126,6|0,3:2|0:0,0:0:0:0:
188,236,190274,6,0,B|173:212|146:219|100:201,2,63.9999980468751,2|2|2,1:3|0:3|0:3,0:0:0:0:
324,236,190488,2,0,B|339:212|366:219|412:201,2,63.9999980468751,2|2|2,0:3|0:3|0:3,0:0:0:0:
256,269,190703,5,2,1:2:0:0:
256,182,190810,2,0,L|256:86,1,95.9999970703126,8|4,0:0|0:3,0:0:0:0:
256,0,191024,1,8,0:0:0:0:
181,44,191131,1,0,1:0:0:0:
123,37,191238,1,8,0:0:0:0:
66,48,191345,1,8,0:0:0:0:
20,84,191453,1,8,0:0:0:0:
0,0,191560,1,0,1:0:0:0:
20,84,191667,2,0,P|34:178|44:274,1,191.999994140625,12|2,0:0|0:3,0:0:0:0:
19,384,191988,6,0,P|40:351|78:339,1,80,2|0,1:2|0:0,0:0:0:0:
131,224,192203,1,2,0:3:0:0:
131,224,192310,2,0,P|170:226|198:253,1,80,0|2,3:0|1:2,0:0:0:0:
325,240,192524,2,0,P|342:275|333:313,1,80,0|2,0:0|3:2,0:0:0:0:
211,384,192738,2,0,L|231:225,1,160,2|0,0:0|0:0,0:0:0:0:
199,136,193060,5,2,3:2:0:0:
334,1,193274,1,2,1:2:0:0:
384,185,193488,1,2,3:2:0:0:
283,70,193703,6,0,P|318:85|332:122,1,80,2|0,1:2|0:0,0:0:0:0:
467,162,193917,1,2,3:2:0:0:
467,162,194024,2,0,P|471:200|446:230,1,80,2|0,0:0|1:0,0:0:0:0:
479,367,194238,2,0,P|447:390|409:383,1,80,0|2,0:0|3:2,0:0:0:0:
292,291,194453,2,0,P|214:273|134:262,1,160,0|0,0:0|0:0,0:0:0:0:
35,297,194774,5,2,3:2:0:0:
103,74,194988,1,2,1:2:0:0:
103,74,195203,1,2,3:2:0:0:
75,228,195417,5,0,1:0:0:0:
21,129,195524,2,0,B|82:128|47:156|116:156,1,80,8|0,0:0|0:0,0:0:0:0:
209,190,195738,5,8,0:0:0:0:
209,190,195845,1,0,1:0:0:0:
162,123,195953,2,0,B|223:123|188:95|257:95,1,80,8|0,0:0|0:0,0:0:0:0:
75,228,196167,1,8,0:0:0:0:
75,228,196274,5,2,1:2:0:0:
21,129,196381,2,0,B|82:128|47:156|116:156,1,80,10|0,0:0|0:0,0:0:0:0:
209,190,196595,5,10,0:2:0:0:
209,190,196703,1,0,1:0:0:0:
162,123,196810,2,0,B|223:123|188:95|257:95,1,80,10|0,0:0|0:0,0:0:0:0:
75,228,197024,1,8,0:0:0:0:
75,228,197131,6,0,P|49:289|101:332,1,143.999995605469,2|0,1:2|0:0,0:0:0:0:
101,332,197345,1,8,0:0:0:0:
184,306,197453,2,0,P|224:359|287:335,1,143.999995605469,2|0,1:2|0:0,0:0:0:0:
287,335,197667,2,0,P|297:288|308:241,1,95.9999970703126,2|8,1:2|0:0,0:0:0:0:
362,123,197881,5,0,1:0:0:0:
380,207,197988,1,8,1:3:0:0:
380,207,198203,1,8,0:3:0:0:
512,62,198417,2,0,B|505:121|467:100|455:155,1,111.999996582031,8|0,3:2|0:0,0:0:0:0:
443,313,198631,2,0,B|435:246|391:269|379:206,1,128,8|0,3:2|0:0,0:0:0:0:
263,96,198845,6,0,B|95:76|175:229|-37:202,1,287.999991210938,4|0,1:2|3:0,0:0:0:0:
55,367,199274,2,0,P|67:320|83:275,1,95.9999970703126,4|0,1:1|0:0,0:0:0:0:
67,100,199488,1,0,3:0:0:0:
134,384,199703,1,0,1:0:0:0:
241,172,199917,1,0,3:0:0:0:
352,348,200131,1,0,1:0:0:0:
434,209,200345,6,0,B|412:325|506:281|488:402,1,191.999994140625,0|0,3:0|1:0,0:0:0:0:
383,91,200774,1,0,3:0:0:0:
512,223,200988,2,0,P|506:175|475:140,1,95.9999970703126,2|0,1:2|0:0,0:0:0:0:
293,124,201203,1,0,3:0:0:0:
293,124,201310,1,0,3:0:0:0:
293,124,201417,6,0,B|310:62|412:88|404:214|341:221|264:197|256:254,1,287.999991210938,2|0,1:1|0:0,0:0:0:0:
219,124,201845,2,0,B|202:62|100:88|108:214|171:221|248:197|256:254,1,287.999991210938,2|0,1:1|0:0,0:0:0:0:
293,124,202274,6,0,B|267:41|413:22|460:51|476:158|442:243|406:311|316:225|256:294|256:354,1,528.000016113282,2|0,1:1|0:0,0:0:0:0:
219,124,202703,2,0,B|245:41|99:22|51:51|36:158|70:243|106:311|196:225|256:294|256:354,1,528.000016113282,2|0,1:1|0:0,0:0:0:0:
256,192,203131,5,2,1:1:0:0:
480,380,203345,1,2,0:3:0:0:
503,327,203453,1,0,3:0:0:0:
457,291,203560,1,2,1:1:0:0:
95,286,203774,2,0,P|81:234|119:195,1,111.999996582031,6|0,3:2|0:0,0:0:0:0:
162,123,203988,6,0,P|156:86|134:56,2,74.6666643880209,2|2|2,1:3|0:3|0:3,0:0:0:0:
222,178,204203,6,0,P|216:214|194:244,2,74.6666643880209,2|2|2,0:3|0:3|0:3,0:0:0:0:
261,109,204417,5,2,1:2:0:0:
203,55,204524,1,8,0:0:0:0:
162,123,204631,1,4,0:3:0:0:
222,178,204738,5,8,0:0:0:0:
277,186,204845,1,0,1:0:0:0:
329,206,204953,1,8,0:0:0:0:
300,279,205060,5,8,0:0:0:0:
267,289,205167,1,8,0:0:0:0:
237,304,205274,1,0,1:0:0:0:
274,372,205381,5,12,0:0:0:0:
274,372,205488,2,0,P|297:375|321:380,1,47.9999985351563,2|2,0:0|0:3,0:0:0:0:
483,290,205703,6,0,B|426:282|460:248|407:239,1,95.9999970703126,2|0,1:2|0:0,0:0:0:0:
234,211,205917,1,2,0:3:0:0:
234,211,206024,2,0,B|269:167|282:213|316:172,1,95.9999970703126,2|2,3:2|1:2,0:0:0:0:
426,34,206238,2,0,B|446:86|400:74|418:124,1,95.9999970703126,0|0,0:0|3:0,0:0:0:0:
483,290,206453,1,2,0:0:0:0:
483,290,206560,1,2,1:2:0:0:
483,290,206774,5,2,3:2:0:0:
252,292,206988,1,0,1:0:0:0:
37,378,207203,1,2,3:2:0:0:
191,352,207417,6,0,P|173:308|130:289,1,95.9999970703126,2|0,1:2|0:0,0:0:0:0:
0,215,207631,2,0,P|43:197|62:154,1,95.9999970703126,2|0,3:2|0:0,0:0:0:0:
137,24,207845,2,0,P|154:67|197:86,1,95.9999970703126,2|0,1:2|0:0,0:0:0:0:
328,161,208060,2,0,P|284:178|265:221,1,95.9999970703126,2|0,3:2|0:0,0:0:0:0:
146,215,208274,2,0,L|137:24,1,191.999994140625,0|0,1:0|3:0,0:0:0:0:
47,282,208703,5,0,1:0:0:0:
47,282,208917,1,2,3:2:0:0:
229,311,209131,5,0,1:0:0:0:
103,357,209238,2,0,B|152:365|152:365|195:380,1,95.9999970703126,8|0,0:0|0:0,0:0:0:0:
384,383,209453,5,8,0:0:0:0:
384,383,209560,1,0,1:0:0:0:
307,324,209667,2,0,B|356:316|356:316|399:300,1,95.9999970703126,8|0,0:0|0:0,0:0:0:0:
229,311,209881,1,8,0:0:0:0:
229,311,209988,5,0,1:0:0:0:
103,357,210095,2,0,B|152:365|152:365|195:380,1,95.9999970703126,8|0,0:0|0:0,0:0:0:0:
384,383,210310,5,8,0:0:0:0:
384,383,210417,1,0,1:0:0:0:
307,324,210524,2,0,B|356:316|356:316|399:300,1,95.9999970703126,8|0,0:0|0:0,0:0:0:0:
229,311,210738,1,8,0:0:0:0:
229,311,210845,6,0,B|172:257|236:225|167:166,1,143.999995605469,2|0,1:1|0:0,0:0:0:0:
100,149,211060,1,10,0:0:0:0:
211,308,211167,6,0,B|158:249|224:223|161:158,1,143.999995605469,2|0,1:1|0:0,0:0:0:0:
98,136,211381,1,10,0:0:0:0:
193,303,211488,6,0,B|146:239|214:220|156:149,1,143.999995605469,2|0,1:1|0:0,0:0:0:0:
96,123,211703,1,8,1:2:0:0:
57,94,211810,1,8,0:0:0:0:
47,47,211917,1,8,0:0:0:0:
74,7,212024,1,8,0:0:0:0:
160,7,212131,6,0,B|187:44|147:55|181:96,1,95.9999970703126,2|0,1:3|0:0,0:0:0:0:
107,249,212345,6,0,B|79:286|119:297|85:338,1,96,2|0,3:3|0:0,0:0:0:0:
154,363,212560,1,8,0:3:0:0:
181,356,212667,1,8,0:3:0:0:
197,332,212774,1,8,0:3:0:0:
193,303,212881,1,0,0:0:0:0:
184,231,212988,6,0,P|262:244|341:257,1,160,12|0,0:0|3:0,0:0:0:0:
397,303,213310,1,0,0:0:0:0:
397,303,213417,5,10,0:0:0:0:
411,274,213524,1,0,0:0:0:0:
436,254,213631,1,0,3:0:0:0:
460,222,213738,5,2,0:0:0:0:
465,174,213845,5,8,0:0:0:0:
442,122,213953,5,0,0:0:0:0:
403,71,214060,5,2,3:2:0:0:
426,3,214167,5,0,0:0:0:0:
481,7,214274,5,8,0:0:0:0:
494,35,214381,1,0,0:0:0:0:
486,66,214488,2,0,P|447:69|408:80,1,80,0|0,3:0|0:0,0:0:0:0:
355,130,214703,5,8,0:0:0:0:
324,120,214810,1,0,0:0:0:0:
292,120,214917,1,0,3:0:0:0:
253,130,215024,5,0,0:0:0:0:
217,162,215131,5,10,0:0:0:0:
162,174,215238,5,0,0:0:0:0:
100,156,215345,5,0,3:0:0:0:
69,89,215453,5,2,0:0:0:0:
85,35,215560,5,8,0:0:0:0:
112,17,215667,1,0,0:0:0:0:
143,20,215774,1,2,3:2:0:0:
164,43,215881,1,0,0:0:0:0:
216,92,215988,5,8,0:0:0:0:
208,122,216095,1,0,0:0:0:0:
202,153,216203,1,0,3:0:0:0:
202,184,216310,1,0,0:0:0:0:
156,216,216417,5,8,0:0:0:0:
170,269,216524,1,0,0:0:0:0:
179,324,216631,1,0,3:0:0:0:
186,379,216738,1,0,0:0:0:0:
106,372,216845,6,0,P|67:366|41:336,1,80,10|0,0:0|0:0,0:0:0:0:
13,261,217060,2,0,P|51:255|77:225,1,80,0|2,3:0|0:0,0:0:0:0:
46,159,217274,1,8,0:0:0:0:
51,103,217381,1,0,0:0:0:0:
95,69,217488,1,2,3:2:0:0:
150,67,217595,1,0,0:0:0:0:
212,103,217703,6,0,P|291:90|370:82,1,160,8|0,0:0|3:0,0:0:0:0:
440,99,218024,1,0,0:0:0:0:
485,154,218131,2,0,P|490:192|466:223,1,80,8|0,0:0|0:0,0:0:0:0:
443,291,218345,2,0,P|412:315|373:310,1,80,2|0,3:2|0:0,0:0:0:0:
301,319,218560,5,8,0:0:0:0:
297,287,218667,1,0,0:0:0:0:
291,255,218774,1,2,3:2:0:0:
282,224,218881,1,0,0:0:0:0:
259,181,218988,5,8,0:0:0:0:
257,125,219095,5,0,0:0:0:0:
304,80,219203,5,2,3:2:0:0:
374,95,219310,5,0,0:0:0:0:
388,149,219417,5,12,0:0:0:0:
376,178,219524,1,2,0:0:0:0:
382,209,219631,1,2,3:2:0:0:
407,227,219738,1,0,0:0:0:0:
476,207,219845,6,0,P|482:168|489:129,1,80,8|0,0:0|0:0,0:0:0:0:
474,57,220060,1,0,3:0:0:0:
474,57,220167,1,0,0:0:0:0:
409,22,220274,2,0,P|372:14|342:39,1,80,10|0,0:0|0:0,0:0:0:0:
291,90,220488,2,0,P|253:98|223:73,1,80,0|2,3:0|0:0,0:0:0:0:
160,36,220703,5,8,0:0:0:0:
160,36,220810,1,0,0:0:0:0:
103,80,220917,2,0,P|111:119|117:158,1,80,2|2,3:2|0:0,0:0:0:0:
189,148,221131,5,8,0:0:0:0:
189,148,221238,1,0,0:0:0:0:
246,192,221345,2,0,P|237:231|231:270,1,80,0|0,3:0|0:0,0:0:0:0:
160,260,221560,5,8,0:0:0:0:
160,260,221667,1,0,0:0:0:0:
103,304,221774,2,0,P|111:343|117:382,1,80,0|0,3:0|0:0,0:0:0:0:
186,362,221988,5,10,0:0:0:0:
186,362,222095,1,0,0:0:0:0:
255,383,222203,2,0,P|261:343|269:304,1,80,0|2,3:0|0:0,0:0:0:0:
319,93,222417,1,8,0:0:0:0:
319,93,222631,1,2,3:2:0:0:
256,128,222738,1,0,1:0:0:0:
193,93,222845,1,8,0:0:0:0:
193,93,223060,6,0,B|160:31|83:92|118:154,1,160,6|8,0:3|0:0,0:0:0:0:
319,93,223381,2,0,B|352:31|429:92|394:154,1,160,4|0,0:3|1:0,0:0:0:0:
145,216,223703,5,10,3:2:0:0:
207,258,223810,1,0,1:0:0:0:
256,313,223917,1,0,1:0:0:0:
305,258,224024,1,2,1:2:0:0:
367,216,224131,5,8,3:2:0:0:
256,384,224345,1,10,3:2:0:0:
256,192,224372,12,8,225095,0:0:0:0:
