osu file format v14

[General]
AudioFilename: audio.mp3
AudioLeadIn: 0
PreviewTime: 74289
Countdown: 0
SampleSet: Soft
StackLeniency: 0.7
Mode: 0
LetterboxInBreaks: 0
WidescreenStoryboard: 0

[Editor]
DistanceSpacing: 1
BeatDivisor: 2
GridSize: 32
TimelineZoom: 1

[Metadata]
Title:Yume, Maboroshi.
TitleUnicode:夢、幻。
Artist:NIKITA
ArtistUnicode:NIKITA
Creator:Bubbler
Version:Normal
Source:BMS
Tags:deemo delusion
BeatmapID:1646795
BeatmapSetID:784320

[Difficulty]
HPDrainRate:5
CircleSize:3
OverallDifficulty:5
ApproachRate:5
SliderMultiplier:1
SliderTickRate:1

[Events]
//Background and Video events
0,0,"IMG_33027.jpg",0,0
//Break Periods
2,70699,76563
//Storyboard Layer 0 (Background)
//Storyboard Layer 1 (Fail)
//Storyboard Layer 2 (Pass)
//Storyboard Layer 3 (Foreground)
//Storyboard Sound Samples

[TimingPoints]
1342,315.789473684211,3,2,0,50,1,0
62920,-100,3,2,0,100,0,1
70499,-100,3,2,0,50,0,0
78078,-100,3,2,0,100,0,1
84710,-100,3,2,0,100,0,0
85657,-100,3,2,0,100,0,1
115973,-100,3,2,0,50,0,0

[HitObjects]
254,158,1026,6,0,L|318:176,2,50
156,134,1657,2,0,P|97:128|46:167,2,100
156,134,2920,5,0,0:0:0:0:
251,103,3236,2,0,P|376:120|409:283,1,300
415,270,4815,5,0,0:0:0:0:
316,288,5131,2,0,P|166:264|70:156,1,300
70,158,6710,5,0,0:0:0:0:
165,127,7026,2,0,P|290:165|236:307,1,300
252,300,8605,6,0,L|190:305,2,50
351,291,9236,2,0,P|428:260|458:218,1,100
498,168,9868,1,0,0:0:0:0:
498,168,10499,5,0,0:0:0:0:
411,117,10815,2,0,P|307:73|205:80,1,200
122,90,11763,1,0,0:0:0:0:
122,90,12394,5,0,0:0:0:0:
85,183,12710,2,0,P|122:324|267:292,1,300
250,311,14289,5,0,0:0:0:0:
346,284,14605,2,0,P|442:164|330:72,1,300
210,75,16026,6,0,L|154:75,2,50
259,82,16499,1,0,0:0:0:0:
356,103,16815,1,0,0:0:0:0:
439,158,17131,2,0,P|470:219|457:268,1,100
466,248,18078,5,0,0:0:0:0:
384,306,18394,1,0,0:0:0:0:
292,265,18710,2,0,L|286:216,2,50
211,322,19342,1,0,0:0:0:0:
211,322,19973,5,0,0:0:0:0:
118,283,20289,1,0,0:0:0:0:
47,211,20605,2,0,P|36:158|56:112,1,100
135,60,21236,1,0,0:0:0:0:
135,60,21868,5,0,0:0:0:0:
223,106,22184,2,0,P|291:121|330:103,1,100
364,93,22657,2,0,L|388:142,1,50
430,227,23131,1,0,0:0:0:0:
430,227,23763,5,0,0:0:0:0:
365,303,24078,1,0,0:0:0:0:
266,317,24394,2,0,L|186:287,1,50
172,281,24710,1,0,0:0:0:0:
119,198,25026,2,0,P|127:147|173:111,1,100
256,84,25657,1,0,0:0:0:0:
349,119,25973,5,0,0:0:0:0:
431,174,26289,2,0,L|488:168,2,50
359,244,26920,1,0,0:0:0:0:
277,189,27236,2,0,L|220:195,2,50
256,192,27868,12,0,31657,0:0:0:0:
247,76,32605,5,0,0:0:0:0:
382,140,33078,2,0,L|417:187,1,50
423,279,33552,2,0,P|371:331|315:335,2,100
332,237,34499,5,0,0:0:0:0:
182,227,34973,2,0,L|133:209,2,50
220,259,35447,1,0,0:0:0:0:
360,310,35920,2,0,L|409:328,2,50
322,278,36394,6,0,P|343:185|294:88,1,200
202,70,37342,1,0,0:0:0:0:
58,113,37815,2,0,L|4:130,2,50
105,130,38289,6,0,P|108:218|154:271,1,150
189,286,38920,1,0,0:0:0:0:
288,291,39236,1,0,0:0:0:0:
288,291,39868,6,0,L|234:311,2,50
347,152,40657,2,0,L|318:98,1,50
228,74,41131,1,0,0:0:0:0:
131,101,41447,2,0,P|80:148|68:202,1,100
92,273,42078,6,0,P|181:338|246:322,1,150
262,318,42710,1,0,0:0:0:0:
355,282,43026,1,0,0:0:0:0:
403,140,43499,2,0,L|460:107,2,50
356,121,43973,6,0,P|253:80|140:93,1,200
76,129,44920,2,0,P|64:231|103:280,1,150
135,251,45552,2,0,L|184:227,1,50
256,192,45868,12,0,48710,0:0:0:0:
267,85,49657,6,0,P|365:99|413:153,1,150
434,168,50289,1,0,0:0:0:0:
422,267,50605,2,0,P|364:244|343:202,2,100
332,312,51552,5,0,0:0:0:0:
182,293,52026,2,0,L|130:281,1,50
83,272,52342,2,0,L|31:260,1,50
64,113,52973,2,0,L|116:125,1,50
163,134,53289,2,0,L|215:146,1,50
211,145,54078,6,0,P|246:190|251:245,1,100
114,291,54868,2,0,L|62:317,2,50
161,306,55342,2,0,P|252:331|319:306,1,150
349,296,55973,1,0,0:0:0:0:
421,227,56289,1,0,0:0:0:0:
421,227,56920,6,0,L|435:179,1,50
449,130,57236,2,0,P|374:86|308:85,1,150
263,92,57868,1,0,0:0:0:0:
264,192,58184,2,0,P|326:176|350:135,2,100
173,148,59131,5,0,0:0:0:0:
131,238,59447,2,0,L|82:257,2,50
222,282,60078,1,0,0:0:0:0:
371,264,60552,2,0,L|430:266,2,50
330,233,61026,6,0,P|328:148|235:78,1,200
149,112,61973,2,0,P|137:218|161:247,1,150
203,271,62605,2,0,L|260:280,1,50
302,273,62920,5,0,0:0:0:0:
387,221,63236,2,0,P|429:143|394:79,2,150
321,145,64499,1,0,0:0:0:0:
230,102,64815,6,0,L|169:86,1,50
146,124,65131,2,0,L|162:184,1,50
206,188,65447,2,0,L|250:143,1,50
366,234,66078,6,0,P|341:286|272:299,1,100
205,314,66710,2,0,P|93:286|51:219,1,200
72,121,67657,2,0,P|116:92|177:95,1,100
260,110,68289,1,0,0:0:0:0:
315,193,68605,6,0,L|376:177,1,50
399,215,68921,2,0,L|382:275,1,50
339,279,69237,2,0,L|294:234,1,50
263,93,69868,6,0,P|322:65|363:74,1,100
444,114,70499,1,0,0:0:0:0:
444,114,77763,5,0,0:0:0:0:
349,83,78078,1,0,0:0:0:0:
259,127,78394,2,0,P|204:151|153:132,1,100
67,156,79026,2,0,P|73:96|115:61,2,100
131,232,79973,5,0,0:0:0:0:
276,270,80447,2,0,L|325:268,2,50
244,308,80920,1,0,0:0:0:0:
99,270,81394,2,0,L|50:272,2,50
131,232,81868,6,0,P|216:179|315:235,1,200
339,247,82657,1,0,0:0:0:0:
378,277,82815,2,0,P|441:187|390:95,1,200
316,78,83763,6,0,P|276:152|187:179,1,150
169,183,84394,2,0,L|111:187,2,50
368,162,85342,6,0,P|390:210|351:202,1,100
292,283,85973,6,0,P|247:302|183:286,1,100
110,244,86605,1,0,0:0:0:0:
74,150,86920,2,0,L|127:130,1,50
168,115,87236,2,0,L|221:95,2,50
149,213,87868,6,0,L|96:233,2,50
223,279,88499,2,0,P|282:291|334:268,1,100
405,229,89131,2,0,L|447:198,1,50
441,149,89447,6,0,P|418:101|343:95,1,100
225,84,90236,1,0,0:0:0:0:
174,85,90394,2,0,P|116:101|88:160,1,100
178,186,91026,2,0,L|227:212,2,50
88,230,91657,6,0,L|38:203,2,50
175,279,92289,2,0,P|230:295|274:276,1,100
361,244,92920,2,0,L|410:224,1,50
454,208,93236,6,0,P|419:155|377:142,1,100
301,89,93868,2,0,L|271:135,1,50
247,173,94184,2,0,P|186:226|139:224,2,100
186,93,95131,6,0,P|139:109|109:148,2,100
285,80,96078,2,0,P|334:82|374:111,1,100,0|0,0:3|0:3,0:3:0:0:
431,193,96710,1,0,0:0:0:0:
402,288,97026,5,0,0:0:0:0:
303,302,97342,1,0,0:0:0:0:
203,313,97657,2,0,L|130:323,2,50
203,212,98289,2,0,P|146:211|91:252,1,100
47,153,98920,6,0,P|122:82|207:110,1,200
303,133,99868,1,0,0:0:0:0:
393,89,100183,1,0,0:0:0:0:
462,161,100499,1,0,0:0:0:0:
415,249,100815,5,0,0:0:0:0:
316,231,101131,2,0,P|256:297|165:302,1,150
149,300,101763,1,0,0:0:0:0:
63,248,102078,2,0,P|47:175|73:136,1,100
138,97,102710,6,0,P|154:170|128:209,1,100
238,225,103342,1,0,0:0:0:0:
271,188,103499,2,0,L|305:145,1,50
367,72,103973,1,0,0:0:0:0:
397,167,104289,2,0,L|414:216,1,50
427,262,104605,6,0,P|334:272|308:253,1,100
236,244,105236,2,0,L|175:284,2,50
263,147,105868,2,0,P|248:93|203:68,1,100
113,74,106499,5,0,0:0:0:0:
70,164,106815,2,0,P|119:238|173:254,1,150
223,265,107447,1,0,0:0:0:0:
323,265,107763,1,0,0:0:0:0:
414,224,108078,2,0,L|461:249,2,50
405,123,108710,5,0,0:0:0:0:
330,56,109026,2,0,L|265:57,1,50
233,76,109342,1,0,0:0:0:0:
146,125,109657,2,0,P|207:179|246:173,1,100
313,143,110289,6,0,P|324:190|301:234,2,100
229,88,111236,2,0,P|133:107|100:170,1,150
86,191,111868,1,0,0:0:0:0:
129,281,112184,6,0,P|211:292|237:271,2,100
151,236,112973,1,0,0:0:0:0:
169,189,113131,2,0,P|251:178|277:199,1,100
339,247,113763,5,0,0:0:0:0:
384,227,113920,2,0,L|410:171,1,50
367,88,114394,2,0,L|309:77,1,50
224,114,114868,1,0,0:0:0:0:
184,144,115026,6,0,L|123:128,1,50
100,166,115342,2,0,L|116:226,1,50
160,230,115658,2,0,L|204:185,1,50
256,192,116920,12,0,122605,0:0:0:0:
