osu file format v14

[General]
AudioFilename: audio.mp3
AudioLeadIn: 0
PreviewTime: 116944
Countdown: 0
SampleSet: Soft
StackLeniency: 0.7
Mode: 0
LetterboxInBreaks: 0
WidescreenStoryboard: 0

[Editor]
DistanceSpacing: 1.2
BeatDivisor: 4
GridSize: 4
TimelineZoom: 2.3

[Metadata]
Title:V beskonechnom lete
TitleUnicode:В бесконечном лете
Artist:NIKIMAN
ArtistUnicode:NIKIMAN
Creator:Vik_Vens
Version:Anime
Source:
Tags:
BeatmapID:1612268
BeatmapSetID:767003

[Difficulty]
HPDrainRate:6
CircleSize:4
OverallDifficulty:8.7
ApproachRate:9.6
SliderMultiplier:2.4
SliderTickRate:1

[Events]
//Background and Video events
0,0,"1433494470_1598524862.jpg",0,0
//Break Periods
//Storyboard Layer 0 (Background)
//Storyboard Layer 1 (Fail)
//Storyboard Layer 2 (Pass)
//Storyboard Layer 3 (Foreground)
//Storyboard Sound Samples

[TimingPoints]
52,428.571428571429,4,2,0,41,1,0
3480,-200,4,2,0,41,0,0
13766,-125,4,2,0,41,0,0
27480,-100,4,2,0,41,0,0
41194,-83.3333333333333,4,2,0,41,0,0
54909,-71.4285714285714,4,2,0,41,0,1
67123,-62.5,4,2,0,41,0,1
67766,-71.4285714285714,4,2,0,41,0,1
82337,-125,4,2,0,41,0,0
92623,-90.9090909090909,4,2,0,41,0,0
109766,-83.3333333333333,4,2,0,41,0,0
123480,-71.4285714285714,4,2,0,41,0,1
150909,-71.4285714285714,4,2,0,41,0,0
156052,-100,4,2,0,41,0,0

[Colours]
Combo1 : 0,255,0
Combo2 : 255,0,0
Combo3 : 255,255,0
Combo4 : 0,0,255

[HitObjects]
99,148,13766,5,0,0:0:0:0:
110,169,14409,5,0,0:0:0:0:
305,74,14623,2,0,P|233:78|196:111,1,96
90,292,15052,2,0,L|225:296,1,96
411,301,15480,1,0,0:0:0:0:
397,269,16123,5,0,0:0:0:0:
236,91,16337,2,0,P|294:108|332:165,1,96
111,324,16766,2,0,B|111:278|111:278|123:267|123:267|116:189,1,96
119,53,17194,1,0,0:0:0:0:
140,74,17837,5,0,0:0:0:0:
322,189,18052,2,0,P|224:170|210:155,1,96
88,321,18480,1,0,0:0:0:0:
431,331,18909,1,0,0:0:0:0:
113,321,19552,5,0,0:0:0:0:
408,325,19766,1,0,0:0:0:0:
263,43,19980,2,0,B|261:92|233:113|233:113|266:132|266:132|250:160|250:160|257:237,1,192
256,318,20623,1,0,0:0:0:0:
257,282,21266,5,0,0:0:0:0:
86,70,21480,2,0,P|128:131|155:189,1,96
359,94,21909,1,0,0:0:0:0:
359,94,22337,6,0,B|285:110|285:110|262:89|262:89|223:73|148:94,1,192
70,205,22980,1,0,0:0:0:0:
70,205,23194,2,0,B|136:240|136:240|141:270|141:270|160:308|231:340,1,192
439,210,23837,1,0,0:0:0:0:
180,40,24052,6,0,B|265:53|265:53|259:93|259:93|350:135,1,192
451,326,24694,1,0,0:0:0:0:
451,326,24909,1,0,0:0:0:0:
78,102,25337,5,0,0:0:0:0:
83,332,25766,1,0,0:0:0:0:
87,124,26409,5,0,0:0:0:0:
414,130,26623,1,0,0:0:0:0:
414,130,27052,1,0,0:0:0:0:
87,124,27480,6,0,P|163:116|156:227,1,180
112,204,27909,1,0,0:0:0:0:
342,78,28123,1,0,0:0:0:0:
441,182,28337,1,0,0:0:0:0:
324,267,28552,1,0,0:0:0:0:
174,54,28766,2,0,B|181:98|181:98|217:109|217:109|257:195,1,120
269,346,29194,5,0,0:0:0:0:
60,216,29409,1,0,0:0:0:0:
143,332,29623,1,0,0:0:0:0:
250,200,29837,2,0,P|277:109|214:65,1,180
201,80,30266,1,0,0:0:0:0:
180,101,30373,1,0,0:0:0:0:
157,126,30480,2,0,B|115:154|115:154|95:151|95:151|79:231,1,120
394,305,30909,6,0,L|261:305,1,120
329,172,31337,1,0,0:0:0:0:
281,298,31552,2,0,L|145:297,1,120
17,292,31980,1,0,0:0:0:0:
288,51,32194,2,0,B|312:98|290:118|290:118|352:189,1,120
453,236,32623,1,0,0:0:0:0:
125,178,32837,6,0,L|23:262,1,120
176,252,33266,2,0,L|76:331,1,120
200,49,33694,5,0,0:0:0:0:
308,144,33909,1,0,0:0:0:0:
248,96,34123,1,0,0:0:0:0:
458,283,34337,6,0,P|382:291|389:180,1,180
361,206,34766,1,0,0:0:0:0:
170,306,34980,1,0,0:0:0:0:
73,143,35194,5,0,0:0:0:0:
164,204,35409,1,0,0:0:0:0:
367,212,35623,2,0,P|334:140|273:111,1,120
98,69,36051,5,0,0:0:0:0:
267,254,36266,1,0,0:0:0:0:
332,125,36480,1,0,0:0:0:0:
262,184,36694,2,0,P|235:275|298:319,1,180
311,304,37123,1,0,0:0:0:0:
332,283,37230,1,0,0:0:0:0:
355,258,37337,2,0,P|431:174|441:150,1,120
98,69,37766,6,0,L|231:69,1,120
183,212,38194,1,0,0:0:0:0:
352,84,38409,2,0,B|289:63|289:63|216:85,1,120
108,259,38837,1,0,0:0:0:0:
369,344,39051,2,0,B|345:297|367:277|367:277|361:192,1,120
357,84,39480,1,0,0:0:0:0:
108,259,39694,6,0,L|210:175,1,120
281,108,40123,2,0,B|250:169|250:169|181:187,1,120
117,63,40552,1,0,0:0:0:0:
339,301,40766,1,0,0:0:0:0:
428,188,40980,1,0,0:0:0:0:
113,173,41194,6,0,P|86:218|115:231,1,71.9999978027344
239,233,41409,2,0,P|221:278|192:253,1,71.9999978027344
179,194,41623,1,0,0:0:0:0:
197,203,41730,1,0,0:0:0:0:
215,213,41837,1,0,0:0:0:0:
234,223,41944,1,0,0:0:0:0:
252,233,42052,6,0,L|330:180,1,71.9999978027344
441,55,42266,2,0,L|384:99,1,71.9999978027344
444,269,42480,2,0,P|405:233|395:260,3,71.9999978027344
268,280,42909,6,0,L|196:308,1,71.9999978027344
148,176,43123,2,0,L|216:220,1,71.9999978027344
320,92,43337,2,0,L|408:80,3,71.9999978027344
384,240,43766,6,0,L|336:164,1,71.9999978027344
152,268,43980,2,0,P|216:212|212:208,1,71.9999978027344
345,179,44194,1,0,0:0:0:0:
327,188,44301,1,0,0:0:0:0:
309,198,44408,1,0,0:0:0:0:
290,208,44515,1,0,0:0:0:0:
272,218,44623,6,0,L|212:177,1,71.9999978027344
83,40,44837,2,0,L|140:84,1,71.9999978027344
216,112,45052,2,0,L|304:56,3,71.9999978027344
380,216,45480,6,0,L|432:272,1,71.9999978027344
256,218,45694,2,0,L|200:278,1,71.9999978027344
320,124,45909,2,0,L|320:32,3,71.9999978027344
44,144,46337,6,0,P|88:76|164:56,1,143.999995605469
136,152,46659,1,0,0:0:0:0:
328,248,46766,6,0,L|384:292,1,71.9999978027344
392,148,46980,2,0,L|464:108,1,71.9999978027344
312,168,47194,2,0,L|220:136,3,71.9999978027344
232,256,47623,5,0,0:0:0:0:
211,217,47730,1,0,0:0:0:0:
178,189,47837,1,0,0:0:0:0:
136,176,47944,1,0,0:0:0:0:
92,180,48052,2,0,B|107:259|107:259|28:240,1,143.999995605469
256,88,48480,6,0,L|324:44,3,71.9999978027344
268,112,48909,1,0,0:0:0:0:
271,155,49016,1,0,0:0:0:0:
266,199,49123,1,0,0:0:0:0:
251,240,49230,1,0,0:0:0:0:
228,277,49337,2,0,P|184:260|140:272,3,71.9999978027344
248,300,49766,5,0,0:0:0:0:
262,307,49873,1,0,0:0:0:0:
277,314,49980,1,0,0:0:0:0:
292,321,50087,1,0,0:0:0:0:
307,329,50194,2,0,P|344:320|380:280,3,71.9999978027344
364,124,50623,2,0,P|320:140|296:184,1,71.9999978027344
144,224,50837,6,0,L|120:296,1,71.9999978027344
152,104,51052,2,0,L|152:24,1,71.9999978027344
304,158,51266,2,0,P|344:174|384:218,3,71.9999978027344
152,104,51694,6,0,L|144:176,1,71.9999978027344
109,287,51909,2,0,L|153:207,1,71.9999978027344
296,80,52123,2,0,P|320:48|360:32,3,71.9999978027344
284,116,52552,5,0,0:0:0:0:
273,158,52659,1,0,0:0:0:0:
273,202,52766,1,0,0:0:0:0:
283,244,52873,1,0,0:0:0:0:
303,283,52980,1,0,0:0:0:0:
331,317,53087,1,0,0:0:0:0:
367,342,53194,1,0,0:0:0:0:
256,192,53302,12,0,54909,0:0:0:0:
108,80,55123,5,0,0:0:0:0:
216,248,55337,1,0,0:0:0:0:
384,92,55552,1,0,0:0:0:0:
124,196,55766,2,0,P|72:200|36:248,3,83.9999974365235
328,276,56194,6,0,L|372:356,1,83.9999974365235
388,92,56409,2,0,L|264:32,1,83.9999974365235
108,84,56623,2,0,L|220:128,1,83.9999974365235
224,208,56837,5,0,0:0:0:0:
472,52,57052,1,0,0:0:0:0:
448,296,57266,1,0,0:0:0:0:
312,148,57480,2,0,L|264:88,4,41.9999987182618
208,268,57909,2,0,L|204:336,4,41.9999987182618
156,44,58337,5,0,0:0:0:0:
324,304,58552,1,0,0:0:0:0:
44,256,58766,1,0,0:0:0:0:
284,96,58980,1,0,0:0:0:0:
220,288,59194,2,0,P|216:336|184:376,3,83.9999974365235
112,136,59623,6,0,L|28:76,1,83.9999974365235
428,220,59837,2,0,L|440:324,1,83.9999974365235
288,104,60052,2,0,L|304:8,1,83.9999974365235
272,184,60266,5,0,0:0:0:0:
60,312,60480,1,0,0:0:0:0:
156,56,60694,1,0,0:0:0:0:
240,328,60909,2,0,L|184:284,4,41.9999987182618
400,180,61337,2,0,L|444:144,4,41.9999987182618
136,288,61766,5,0,0:0:0:0:
368,60,61980,1,0,0:0:0:0:
376,308,62194,1,0,0:0:0:0:
180,80,62409,1,0,0:0:0:0:
384,192,62623,2,0,P|432:184|472:128,3,83.9999974365235
296,72,63052,6,0,P|344:84|392:132,1,83.9999974365235
176,320,63266,2,0,P|224:308|260:252,1,83.9999974365235
148,92,63480,2,0,P|112:128|100:180,1,83.9999974365235
196,196,63694,5,0,0:0:0:0:
460,56,63909,1,0,0:0:0:0:
448,328,64123,1,0,0:0:0:0:
204,96,64337,2,0,L|156:36,4,41.9999987182618
320,264,64766,2,0,L|316:332,4,41.9999987182618
404,108,65194,5,0,0:0:0:0:
128,328,65409,1,0,0:0:0:0:
56,32,65623,1,0,0:0:0:0:
320,264,65837,1,0,0:0:0:0:
128,200,66052,2,0,P|72:200|32:160,3,83.9999974365235
344,48,66480,6,0,P|300:32|232:56,1,83.9999974365235
320,264,66694,2,0,L|372:156,1,83.9999974365235
412,104,66909,1,0,0:0:0:0:
144,60,67123,6,0,P|120:64|148:48,1,96
432,248,67337,2,0,P|467:249|435:264,1,96
148,304,67552,2,0,P|133:336|131:300,1,96
284,104,67766,2,0,L|336:52,4,41.9999987182618
340,304,68194,2,0,L|372:368,4,41.9999987182618
256,192,68623,12,0,69480,0:0:0:0:
336,96,69587,6,0,P|380:84|444:96,2,83.9999974365235
264,240,69909,2,0,P|244:276|176:312,1,83.9999974365235
80,64,70123,2,0,P|84:104|96:148,1,83.9999974365235
420,92,70337,2,0,P|412:136|364:184,1,83.9999974365235
276,124,70552,5,0,0:0:0:0:
480,312,70766,1,0,0:0:0:0:
210,301,70980,1,0,0:0:0:0:
408,144,71194,2,0,L|448:100,4,41.9999987182618
148,204,71623,2,0,L|108:264,4,41.9999987182618
268,308,72052,5,0,0:0:0:0:
412,60,72266,1,0,0:0:0:0:
80,76,72480,1,0,0:0:0:0:
384,224,72694,1,0,0:0:0:0:
104,288,72909,2,0,P|56:288|0:348,3,83.9999974365235
168,84,73337,6,0,L|260:52,1,83.9999974365235
168,233,73552,2,0,L|88:301,1,83.9999974365235
436,152,73766,2,0,L|472:52,1,83.9999974365235
420,248,73980,5,0,0:0:0:0:
80,160,74194,1,0,0:0:0:0:
364,28,74409,1,0,0:0:0:0:
308,288,74623,2,0,L|356:348,4,41.9999987182618
168,84,75052,2,0,L|124:32,4,41.9999987182618
296,108,75480,1,0,0:0:0:0:
68,328,75694,5,0,0:0:0:0:
40,60,75909,1,0,0:0:0:0:
272,252,76123,1,0,0:0:0:0:
412,72,76337,2,0,P|456:56|480:16,3,83.9999974365235
196,72,76766,6,0,L|104:128,1,83.9999974365235
368,188,76980,2,0,L|456:256,1,83.9999974365235
164,236,77194,2,0,L|112:320,1,83.9999974365235
224,176,77409,5,0,0:0:0:0:
424,348,77623,1,0,0:0:0:0:
464,56,77837,1,0,0:0:0:0:
284,64,78052,2,0,L|236:4,4,41.9999987182618
92,292,78480,2,0,L|88:360,4,41.9999987182618
292,188,78909,2,0,L|424:184,1,83.9999974365235
216,192,79123,5,0,0:0:0:0:
448,40,79337,1,0,0:0:0:0:
456,336,79552,1,0,0:0:0:0:
220,100,79766,2,0,P|208:56|160:20,3,83.9999974365235
48,244,80194,2,0,L|108:156,1,83.9999974365235
376,284,80409,2,0,L|304:220,1,83.9999974365235
464,48,80730,6,0,P|380:32|296:88,1,167.999994873047
40,248,81159,2,0,P|116:204|208:248,1,167.999994873047
468,92,81480,2,0,L|472:20,4,41.9999987182618
187,226,81909,2,0,L|183:294,4,41.9999987182618
280,108,82337,5,0,0:0:0:0:
280,108,82980,5,0,0:0:0:0:
376,296,83194,1,0,0:0:0:0:
144,292,83623,5,0,0:0:0:0:
376,296,84052,1,0,0:0:0:0:
140,292,84694,5,0,0:0:0:0:
376,288,84909,1,0,0:0:0:0:
280,116,85337,5,0,0:0:0:0:
280,116,85766,1,0,0:0:0:0:
140,296,86409,5,0,0:0:0:0:
288,116,86623,1,0,0:0:0:0:
456,112,87052,5,0,0:0:0:0:
104,116,87480,1,0,0:0:0:0:
448,116,88123,5,0,0:0:0:0:
112,108,88337,1,0,0:0:0:0:
112,108,88766,5,0,0:0:0:0:
240,300,89194,2,0,B|272:272|316:312|364:256,1,96
328,48,89623,2,0,B|296:84|332:120|288:156,1,96
240,296,90052,5,0,0:0:0:0:
116,104,90480,1,0,0:0:0:0:
240,296,90909,5,0,0:0:0:0:
464,236,91551,5,0,0:0:0:0:
240,296,91766,1,0,0:0:0:0:
464,236,92194,5,0,0:0:0:0:
288,84,92623,2,0,P|180:60|84:76,1,198.000006042481
260,336,93052,2,0,P|180:272|156:152,1,198.000006042481
392,80,93480,2,0,P|360:172|268:240,1,198.000006042481
292,124,93909,5,0,0:0:0:0:
152,188,94123,1,0,0:0:0:0:
400,260,94337,2,0,B|399:266|304:320|248:304|224:256|232:188|292:160|332:192|360:244|328:364,1,396.000012084961
60,60,95194,6,0,P|60:132|128:212,1,132.00000402832
460,60,95623,6,0,P|460:132|392:212,1,132.00000402832
254,201,96052,6,0,L|190:64,1,132.00000402832
84,85,96373,2,0,P|92:153|156:181,1,132.00000402832
312,128,96694,2,0,P|256:82|192:84,1,132.00000402832
64,280,97123,1,0,0:0:0:0:
312,128,97337,1,0,0:0:0:0:
456,320,97552,1,0,0:0:0:0:
267,281,97766,6,0,L|103:281,1,132.00000402832
316,136,98194,1,0,0:0:0:0:
198,280,98409,2,0,B|150:288|150:288|102:277|102:277|34:280,1,132.00000402832
332,48,98837,5,0,0:0:0:0:
418,279,99052,2,0,B|342:254|397:188|439:244|379:282,1,132.00000402832
162,340,99480,2,0,P|91:327|69:258,1,132.00000402832
163,80,99909,1,0,0:0:0:0:
281,246,100123,2,0,P|211:223|152:265,1,132.00000402832
291,342,100552,1,0,0:0:0:0:
415,185,100766,2,0,B|423:154|414:135|414:135|415:113|405:90|405:90|415:66|412:36,1,132.00000402832
421,301,101194,1,0,0:0:0:0:
120,106,101409,6,0,P|166:61|242:96,1,132.00000402832
169,323,101837,2,0,P|214:277|179:201,1,132.00000402832
57,286,102266,5,0,0:0:0:0:
195,209,102480,1,0,0:0:0:0:
226,75,102694,1,0,0:0:0:0:
226,75,102802,1,0,0:0:0:0:
226,75,102909,2,0,B|279:89|308:55|370:77,1,132.00000402832
372,109,103230,1,0,0:0:0:0:
388,150,103337,2,0,L|483:150,1,66.0000020141602
432,225,103552,2,0,P|417:292|363:322,2,132.00000402832
217,120,104194,5,0,0:0:0:0:
335,226,104409,1,0,0:0:0:0:
180,260,104623,2,0,B|125:280|88:243|30:264,1,132.00000402832
41,297,104944,1,0,0:0:0:0:
47,335,105052,2,0,L|136:334,1,66.0000020141602
82,195,105266,2,0,P|81:124|134:80,1,132.00000402832
312,270,105694,5,0,0:0:0:0:
183,176,105909,1,0,0:0:0:0:
383,73,106123,1,0,0:0:0:0:
312,270,106337,6,0,P|321:195|283:133,1,132.00000402832
238,158,106659,1,0,0:0:0:0:
183,176,106766,2,0,L|140:83,1,66.0000020141602
79,198,106980,2,0,P|42:250|70:343,2,132.00000402832
341,306,107623,2,0,L|255:307,1,66.0000020141602
113,280,107837,2,0,L|200:277,1,66.0000020141602
326,208,108052,1,0,0:0:0:0:
90,110,108266,6,0,B|97:78|97:78|86:60|86:60|89:35,1,66.0000020141602
221,294,108694,5,0,0:0:0:0:
404,158,108909,1,0,0:0:0:0:
186,47,109123,1,0,0:0:0:0:
186,213,109337,2,0,L|187:146,2,66.0000020141602
418,113,109766,6,0,L|446:24,1,71.9999978027344
450,281,109980,2,0,L|487:360,1,71.9999978027344
350,228,110194,1,0,0:0:0:0:
312,205,110301,1,0,0:0:0:0:
270,194,110408,1,0,0:0:0:0:
226,197,110515,1,0,0:0:0:0:
186,213,110622,1,0,0:0:0:0:
132,144,110730,6,0,L|79:72,1,71.9999978027344
52,330,110944,2,0,L|91:248,1,71.9999978027344
179,334,111159,5,0,0:0:0:0:
204,334,111266,1,0,0:0:0:0:
229,331,111373,1,0,0:0:0:0:
253,324,111480,2,0,P|224:295|206:248,3,71.9999978027344
468,162,111909,5,0,0:0:0:0:
439,200,112016,1,0,0:0:0:0:
402,230,112123,1,0,0:0:0:0:
357,249,112230,1,0,0:0:0:0:
287,198,112337,2,0,L|220:114,1,71.9999978027344
61,255,112552,2,0,L|43:341,1,71.9999978027344
370,108,112766,6,0,P|331:72|321:99,3,71.9999978027344
149,66,113194,2,0,L|52:73,1,71.9999978027344
187,275,113409,2,0,L|250:338,1,71.9999978027344
465,215,113623,5,0,0:0:0:0:
421,218,113730,1,0,0:0:0:0:
377,214,113837,1,0,0:0:0:0:
335,203,113944,1,0,0:0:0:0:
295,185,114052,2,0,L|356:108,1,71.9999978027344
50,57,114266,6,0,L|96:140,1,71.9999978027344
226,318,114480,2,0,L|120:329,1,71.9999978027344
303,66,114694,2,0,L|347:142,1,71.9999978027344
76,224,114909,2,0,P|115:188|125:215,3,71.9999978027344
226,318,115337,6,0,L|305:317,1,71.9999978027344
303,66,115552,2,0,L|299:153,1,71.9999978027344
76,224,115766,2,0,L|170:192,1,71.9999978027344
480,205,115980,6,0,L|397:265,1,71.9999978027344
63,319,116194,5,0,0:0:0:0:
129,291,116301,1,0,0:0:0:0:
184,245,116408,1,0,0:0:0:0:
223,185,116515,1,0,0:0:0:0:
244,116,116623,6,0,L|272:17,1,71.9999978027344
432,138,116944,6,0,L|437:260,1,71.9999978027344
84,98,117266,6,0,L|63:193,1,71.9999978027344
266,314,117480,6,0,L|250:235,1,71.9999978027344
315,48,117694,6,0,B|305:151|305:150,1,71.9999978027344
85,97,117909,5,0,0:0:0:0:
114,129,118016,1,0,0:0:0:0:
139,165,118123,1,0,0:0:0:0:
160,204,118230,1,0,0:0:0:0:
176,245,118337,6,0,P|175:283|154:330,1,71.9999978027344
432,205,118659,2,0,L|434:110,1,71.9999978027344
132,59,118980,2,0,L|197:95,1,71.9999978027344
354,290,119194,2,0,L|272:339,1,71.9999978027344
133,229,119409,2,0,L|51:218,1,71.9999978027344
208,138,119623,5,0,0:0:0:0:
271,79,119730,1,0,0:0:0:0:
328,68,119837,1,0,0:0:0:0:
399,77,119944,1,0,0:0:0:0:
460,115,120052,2,0,P|468:153|457:194,3,71.9999978027344
369,173,120480,5,0,0:0:0:0:
354,193,120587,1,0,0:0:0:0:
339,213,120694,1,0,0:0:0:0:
322,232,120801,1,0,0:0:0:0:
304,250,120909,2,0,L|206:222,1,71.9999978027344
55,48,121123,6,0,L|174:37,1,71.9999978027344
75,306,121337,6,0,L|29:373,1,71.9999978027344
339,117,121552,6,0,L|424:61,2,71.9999978027344
231,251,121980,5,0,0:0:0:0:
231,251,122087,5,0,0:0:0:0:
66,91,122302,5,0,0:0:0:0:
337,303,122516,5,0,0:0:0:0:
441,51,122730,5,0,0:0:0:0:
74,267,122945,5,0,0:0:0:0:
416,231,123159,5,0,0:0:0:0:
135,50,123373,5,0,0:0:0:0:
213,341,123694,5,0,0:0:0:0:
365,122,123909,1,0,0:0:0:0:
86,175,124123,1,0,0:0:0:0:
431,259,124337,5,0,0:0:0:0:
359,216,124444,1,0,0:0:0:0:
277,199,124551,1,0,0:0:0:0:
194,208,124658,1,0,0:0:0:0:
104,257,124766,2,0,L|156:342,1,83.9999974365235
246,90,124980,2,0,L|325:17,1,83.9999974365235
483,324,125194,2,0,L|413:237,1,83.9999974365235
375,173,125409,5,0,0:0:0:0:
151,333,125623,1,0,0:0:0:0:
99,39,125837,1,0,0:0:0:0:
234,222,126052,2,0,L|271:252,4,41.9999987182618
369,95,126480,2,0,L|414:48,4,41.9999987182618
48,282,126909,5,0,0:0:0:0:
177,50,127123,1,0,0:0:0:0:
370,245,127337,1,0,0:0:0:0:
65,173,127552,1,0,0:0:0:0:
351,73,127766,5,0,0:0:0:0:
316,149,127873,1,0,0:0:0:0:
268,218,127980,1,0,0:0:0:0:
207,275,128087,1,0,0:0:0:0:
136,320,128194,2,0,L|61:275,1,83.9999974365235
405,227,128409,2,0,L|488:176,1,83.9999974365235
185,19,128623,2,0,L|217:111,1,83.9999974365235
102,97,128837,5,0,0:0:0:0:
323,330,129052,1,0,0:0:0:0:
475,79,129266,1,0,0:0:0:0:
92,233,129480,2,0,L|129:203,4,41.9999987182618
405,227,129908,2,0,L|450:274,4,41.9999987182618
50,145,130337,5,0,0:0:0:0:
287,326,130552,1,0,0:0:0:0:
350,48,130766,1,0,0:0:0:0:
145,233,130980,1,0,0:0:0:0:
365,199,131194,6,0,P|409:197|453:231,3,83.9999974365235
168,324,131623,2,0,P|213:325|260:273,1,83.9999974365235
70,68,131837,2,0,L|127:135,1,83.9999974365235
365,98,132052,2,0,L|430:30,1,83.9999974365235
319,167,132266,5,0,0:0:0:0:
168,324,132480,1,0,0:0:0:0:
70,68,132694,1,0,0:0:0:0:
257,305,132909,2,0,L|294:335,4,41.9999987182618
240,74,133337,2,0,L|285:27,4,41.9999987182618
48,291,133766,5,0,0:0:0:0:
464,240,133980,1,0,0:0:0:0:
152,45,134194,1,0,0:0:0:0:
294,320,134409,1,0,0:0:0:0:
348,98,134623,6,0,P|401:80|422:38,3,83.9999974365235
52,104,135052,2,0,P|92:80|156:93,1,83.9999974365235
165,308,135266,2,0,L|123:229,1,83.9999974365235
226,233,135480,1,0,0:0:0:0:
291,73,135694,6,0,B|278:32|278:32|335:47,1,83.9999974365235
356,313,135909,6,0,B|397:326|397:326|382:269,1,83.9999974365235
98,203,136123,6,0,B|85:244|85:244|142:229,1,83.9999974365235
419,143,136337,6,0,L|455:119,4,41.9999987182618
255,313,136766,6,0,L|240:374,4,41.9999987182618
256,192,137194,12,0,138052,0:0:0:0:
128,104,138159,5,0,0:0:0:0:
180,169,138266,1,0,0:0:0:0:
246,221,138373,1,0,0:0:0:0:
322,256,138480,2,0,L|410:210,1,83.9999974365235
97,264,138694,2,0,L|7:299,1,83.9999974365235
298,72,138909,2,0,L|298:-14,1,83.9999974365235
301,149,139123,5,0,0:0:0:0:
170,337,139337,1,0,0:0:0:0:
85,103,139552,1,0,0:0:0:0:
345,314,139766,2,0,L|382:344,4,41.9999987182618
60,248,140194,2,0,L|105:201,4,41.9999987182618
403,73,140623,5,0,0:0:0:0:
248,297,140837,1,0,0:0:0:0:
42,72,141052,1,0,0:0:0:0:
423,276,141266,1,0,0:0:0:0:
50,266,141480,5,0,0:0:0:0:
87,191,141587,1,0,0:0:0:0:
143,128,141694,1,0,0:0:0:0:
212,81,141801,1,0,0:0:0:0:
291,54,141909,2,0,L|382:109,1,83.9999974365235
228,288,142123,2,0,L|137:337,1,83.9999974365235
429,246,142337,2,0,L|514:306,1,83.9999974365235
364,200,142552,5,0,0:0:0:0:
105,41,142766,1,0,0:0:0:0:
330,334,142980,1,0,0:0:0:0:
387,86,143194,2,0,L|424:116,4,41.9999987182618
106,268,143622,2,0,L|59:313,4,41.9999987182618
446,242,144052,5,0,0:0:0:0:
43,175,144266,1,0,0:0:0:0:
328,31,144480,1,0,0:0:0:0:
205,326,144694,1,0,0:0:0:0:
208,115,144909,2,0,P|180:74|139:51,3,83.9999974365235
103,306,145337,2,0,L|124:201,1,83.9999974365235
423,269,145552,2,0,L|316:298,1,83.9999974365235
286,40,145766,2,0,L|363:106,1,83.9999974365235
439,49,145980,5,0,0:0:0:0:
202,258,146194,1,0,0:0:0:0:
38,49,146409,1,0,0:0:0:0:
392,219,146623,2,0,L|429:249,4,41.9999987182618
52,269,147051,2,0,L|97:222,4,41.9999987182618
330,321,147480,5,0,0:0:0:0:
71,153,147694,1,0,0:0:0:0:
365,41,147909,1,0,0:0:0:0:
453,306,148123,1,0,0:0:0:0:
238,254,148337,6,0,P|208:292|141:303,3,83.9999974365235
136,38,148766,2,0,P|134:84|164:143,1,83.9999974365235
446,238,148980,2,0,P|445:185|396:143,1,83.9999974365235
92,186,149302,2,0,P|79:235|90:302,2,83.9999974365235
390,172,149730,2,0,P|413:129|415:83,2,83.9999974365235
193,297,150052,2,0,P|198:319|230:327,3,55.9999982910157
165,87,150480,2,0,P|179:62|210:40,3,55.9999982910157
390,264,150909,5,0,0:0:0:0:
61,142,151230,5,0,0:0:0:0:
420,56,151552,5,0,0:0:0:0:
108,275,151980,5,0,0:0:0:0:
309,275,152194,1,0,0:0:0:0:
141,51,152623,5,0,0:0:0:0:
309,275,152944,5,0,0:0:0:0:
459,32,153266,5,0,0:0:0:0:
83,186,153587,5,0,0:0:0:0:
454,223,153909,5,0,0:0:0:0:
241,40,154337,5,0,0:0:0:0:
130,322,154659,5,0,0:0:0:0:
453,148,154980,5,0,0:0:0:0:
52,118,155302,5,0,0:0:0:0:
388,314,155623,5,0,0:0:0:0:
196,98,156052,6,0,B|172:142|172:142|194:175|194:175|190:258,1,120
287,313,156480,1,0,0:0:0:0:
395,171,156694,2,0,B|441:140|441:140|442:105|442:105|470:48,1,120
125,183,157123,2,0,P|143:129|203:97,1,120
250,200,157552,1,0,0:0:0:0:
274,235,157659,1,0,0:0:0:0:
322,244,157766,5,0,0:0:0:0:
437,62,158087,5,0,0:0:0:0:
72,106,158409,5,0,0:0:0:0:
266,318,158837,5,0,0:0:0:0:
457,313,159052,1,0,0:0:0:0:
214,55,159373,6,0,P|218:148|163:232,1,180
332,145,159909,6,0,L|469:142,1,120
114,218,160552,6,0,L|209:219,1,60
434,263,160980,6,0,L|347:267,1,60
256,83,161302,6,0,L|273:157,1,60
46,78,161623,5,0,0:0:0:0:
101,338,161837,5,0,0:0:0:0:
414,168,162159,5,0,0:0:0:0:
73,100,162480,5,0,0:0:0:0:
169,265,162909,6,0,B|251:220|296:164|274:120|228:85|177:120|195:224|268:255|268:255|303:275|294:334|349:355|410:358,1,480
382,174,163873,5,0,0:0:0:0:
382,174,163980,5,0,0:0:0:0:
382,174,164087,5,0,0:0:0:0:
256,192,164194,12,0,164623,0:0:0:0:
