osu file format v14

[General]
AudioFilename: audio.mp3
AudioLeadIn: 0
PreviewTime: 61425
Countdown: 0
SampleSet: Soft
StackLeniency: 0.7
Mode: 0
LetterboxInBreaks: 0
WidescreenStoryboard: 1

[Editor]
DistanceSpacing: 1
BeatDivisor: 4
GridSize: 32
TimelineZoom: 1

[Metadata]
Title:Every Summertime
TitleUnicode:Every Summertime
Artist:NIKI
ArtistUnicode:NIKI
Creator:Crowley
Version:normal
Source:
Tags:flake midorijeon 88rising Pop English Shang-Chi and the Legend of the Ten Rings The Album Shang Chi OST Original Soundtrack
BeatmapID:3435121
BeatmapSetID:1675217

[Difficulty]
HPDrainRate:3
CircleSize:3.5
OverallDifficulty:4.5
ApproachRate:5.5
SliderMultiplier:1.9
SliderTickRate:1

[Events]
//Background and Video events
0,0,"crowley_eee_second.jpg",0,0
//Break Periods
2,92004,93148
//Storyboard Layer 0 (Background)
//Storyboard Layer 1 (Fail)
//Storyboard Layer 2 (Pass)
//Storyboard Layer 3 (Foreground)
//Storyboard Layer 4 (Overlay)
//Storyboard Sound Samples

[TimingPoints]
96,759.493670886076,4,2,1,50,1,0
856,759.493670886076,4,2,1,50,1,0
12248,-100,4,2,1,55,0,0
12628,-100,4,2,1,60,0,0
35602,-100,4,2,2,50,0,0
35982,-100,4,2,1,60,0,0
37121,-100,4,2,2,60,0,0
37311,-100,4,2,1,50,0,0
58577,-100,4,2,1,70,0,0
59716,-100,4,2,2,70,0,0
59906,-100,4,2,1,70,0,0
60096,-100,4,2,2,70,0,0
60286,-100,4,2,1,70,0,0
61615,-90.9090909090909,4,2,1,80,0,1
61995,-90.9090909090909,4,2,1,80,0,0
85919,-100,4,2,1,60,0,0
97881,-100,4,2,2,60,0,0
98071,-100,4,2,1,60,0,0
110223,-100,4,2,1,50,0,0
131488,-100,4,2,1,70,0,0
132628,-100,4,2,2,70,0,0
132818,-100,4,2,1,70,0,0
133007,-100,4,2,2,70,0,0
133197,-100,4,2,1,70,0,0
134337,-100,4,2,2,70,0,0
134526,-86.9565217391304,4,2,1,80,0,1
134906,-86.9565217391304,4,2,1,80,0,0
158830,-86.9565217391304,4,2,1,80,0,1
183134,-100,4,2,1,45,0,0

[Colours]
Combo1 : 255,182,147
Combo2 : 255,128,64

[HitObjects]
60,183,285,6,0,L|-11:204,2,47.5,2|2|2,0:2|0:2|0:2,0:0:0:0:
202,154,1235,5,2,0:2:0:0:
202,154,1615,1,2,0:2:0:0:
69,17,2374,2,0,P|20:37|13:105,1,95,2|0,0:2|0:0,0:0:0:0:
10,121,2944,1,2,0:2:0:0:
62,200,3324,1,2,0:2:0:0:
34,291,3704,6,0,P|90:274|189:253,1,142.5,2|2,0:2|0:2,0:0:0:0:
242,319,4653,2,0,P|266:286|260:231,1,95,2|2,0:2|0:2,0:0:0:0:
197,163,5412,1,2,0:0:0:0:
352,272,6172,2,0,L|371:363,2,47.5,2|2|2,0:2|0:2|0:0,0:0:0:0:
344,224,6742,6,0,P|411:208|505:194,1,142.5,2|2,0:2|0:2,0:0:0:0:
418,127,7691,2,0,L|430:32,1,95,2|0,0:2|0:0,0:0:0:0:
334,33,8450,2,0,L|322:128,1,95,2|0,0:2|0:0,0:0:0:0:
278,145,9020,1,2,0:2:0:0:
191,102,9400,1,2,0:2:0:0:
166,193,9780,5,2,0:2:0:0:
247,241,10159,1,2,0:2:0:0:
186,314,10539,1,2,0:0:0:0:
186,314,10729,2,0,L|67:339,1,95,2|2,0:0|0:0,0:0:0:0:
53,306,11299,1,2,0:0:0:0:
21,216,11678,6,0,L|8:107,1,95
57,119,12248,1,10,0:2:0:0:
104,114,12438,2,0,L|118:196,1,47.5,10|2,0:2|0:2,0:0:0:0:
120,207,12818,6,0,L|279:235,1,142.5,2|2,0:2|0:0,0:0:0:0:
317,307,13767,1,10,0:0:0:0:
397,257,14147,1,2,0:2:0:0:
350,174,14526,2,0,L|333:69,1,95,10|2,0:1|0:2,0:0:0:0:
317,35,15096,2,0,P|266:44|239:92,1,95,2|8,0:2|0:2,0:0:0:0:
225,170,15856,6,0,L|198:353,1,142.5,2|2,0:2|0:2,0:0:0:0:
134,375,16805,1,10,0:2:0:0:
97,294,17185,2,0,L|29:277,1,47.5,2|10,0:2|0:1,0:0:0:0:
4,271,17564,2,0,L|22:144,1,95,10|10,0:1|0:1,0:0:0:0:
96,122,18324,1,8,0:2:0:0:
96,122,18514,2,0,L|83:65,1,47.5,0|2,0:0|0:2,0:0:0:0:
70,30,18893,6,0,P|154:41|235:52,1,142.5,0|2,0:0|0:2,0:0:0:0:
275,118,19843,1,10,0:2:0:0:
208,187,20223,1,2,0:2:0:0:
266,261,20602,2,0,P|326:266|368:219,1,95,10|2,0:1|0:2,0:0:0:0:
376,206,21172,2,0,P|416:183|462:192,1,95,2|0,0:2|0:0,0:0:0:0:
475,286,21931,6,0,P|446:344|349:343,1,142.5,2|2,0:2|0:2,0:0:0:0:
280,343,22881,2,0,P|284:312|288:268,1,47.5,10|10,0:2|0:2,0:0:0:0:
320,263,23261,2,0,P|315:233|312:188,1,47.5,2|10,0:2|0:1,0:0:0:0:
283,178,23640,1,10,0:1:0:0:
190,200,24020,1,10,0:1:0:0:
119,145,24400,1,8,0:2:0:0:
119,145,24590,2,0,P|149:97|211:95,1,95,10|2,0:1|0:2,0:0:0:0:
228,104,25159,5,8,0:1:0:0:
294,36,25539,2,0,P|353:53|370:113,1,95,2|8,0:2|0:2,0:0:0:0:
369,127,26109,1,2,0:0:0:0:
353,268,26678,2,0,L|274:256,2,47.5,10|2|2,0:1|0:2|0:2,0:0:0:0:
399,276,27248,2,0,L|383:383,1,95,2|10,0:2|0:2,0:0:0:0:
245,348,28197,6,0,P|196:320|195:250,1,95,10|0,0:1|0:0,0:0:0:0:
233,203,28957,1,8,0:2:0:0:
233,203,29147,2,0,L|242:128,1,47.5,2|2,0:2|0:2,0:0:0:0:
174,85,29716,6,0,L|101:100,1,47.5,10|2,0:1|0:2,0:0:0:0:
95,130,30096,2,0,L|22:115,1,47.5,10|2,0:1|0:2,0:0:0:0:
8,94,30476,2,0,L|-2:-16,1,95,2|2,0:2|0:2,0:0:0:0:
93,9,31235,5,8,0:1:0:0:
184,34,31615,2,0,L|316:15,1,95,2|8,0:2|0:2,0:0:0:0:
325,13,32185,1,2,0:0:0:0:
286,149,32754,2,0,L|198:131,2,47.5,10|0|0,0:1|0:0|0:0,0:0:0:0:
332,161,33324,2,0,L|339:259,1,95,2|2,0:2|0:2,0:0:0:0:
270,320,34083,6,0,P|205:304|185:226,1,142.5,2|2,0:2|0:2,0:0:0:0:
239,162,35033,1,10,0:2:0:0:
321,208,35412,1,2,0:2:0:0:
379,133,35792,2,0,L|464:151,2,47.5,10|8|8,0:1|0:2|0:1,0:0:0:0:
305,72,36552,2,0,L|220:90,2,47.5,8|4|0,0:3|0:3|0:0,0:0:0:0:
381,15,37311,6,0,L|481:34,1,95,8|0,0:1|0:0,0:0:0:0:
436,120,38071,1,10,0:2:0:0:
486,200,38450,1,2,0:2:0:0:
431,278,38830,1,10,0:1:0:0:
485,355,39210,2,0,L|391:372,1,95,2|8,0:2|0:2,0:0:0:0:
297,381,39969,6,0,P|265:339|274:291,1,95,2|8,0:2|0:1,0:0:0:0:
330,226,40729,2,0,P|307:167|186:171,1,190,2|0,0:2|0:0,0:0:0:0:
119,221,41868,6,0,L|97:116,1,95,10|0,0:1|0:0,0:0:0:0:
88,81,42438,2,0,P|133:40|191:49,1,95,2|0,0:2|0:0,0:0:0:0:
206,60,43007,1,2,0:2:0:0:
286,9,43387,6,0,L|298:115,1,95,8|0,0:1|0:0,0:0:0:0:
374,157,44147,1,8,0:2:0:0:
312,228,44526,2,0,L|236:214,2,47.5,0|8|8,0:0|0:1|0:1,0:0:0:0:
370,302,45286,1,2,0:2:0:0:
421,222,45666,1,10,0:2:0:0:
354,154,46045,2,0,L|362:97,1,47.5,2|0,0:2|0:0,0:0:0:0:
367,59,46425,6,0,L|267:79,1,95,8|0,0:1|0:0,0:0:0:0:
197,134,47185,2,0,L|186:202,2,47.5,8|8|2,0:2|0:2|0:0,0:0:0:0:
143,55,47944,2,0,L|48:66,1,95,8|8,0:1|0:1,0:0:0:0:
12,154,48704,1,10,0:2:0:0:
75,224,49083,1,2,0:2:0:0:
24,304,49463,5,8,0:1:0:0:
86,375,49843,2,0,L|200:350,1,95,2|8,0:2|0:2,0:0:0:0:
271,377,50602,2,0,P|316:336|259:224,1,190,2|2,0:2|0:2,0:0:0:0:
199,171,51742,1,8,0:2:0:0:
267,106,52121,6,0,L|400:130,1,95,2|8,0:2|0:1,0:0:0:0:
453,141,52881,1,2,0:2:0:0:
390,212,53261,1,8,0:2:0:0:
459,276,53640,2,0,L|448:353,1,47.5,2|8,0:2|0:1,0:0:0:0:
445,370,54020,2,0,L|348:354,1,95,10|0,0:1|0:0,0:0:0:0:
258,332,54780,1,10,0:2:0:0:
173,375,55159,1,2,0:2:0:0:
131,289,55539,6,0,B|132:186|214:240|209:107,1,190,2|8,3:2|0:0,0:0:0:0:
128,74,56678,2,0,L|50:88,2,47.5,0|8|8,0:0|0:1|0:1,0:0:0:0:
207,21,57438,2,0,L|333:35,2,95,2|10|2,0:2|0:2|0:2,0:0:0:0:
128,74,58577,6,0,L|50:88,1,47.5,10|10,0:2|0:2,0:0:0:0:
56,123,58957,2,0,L|9:114,1,47.5,10|10,0:2|0:2,0:0:0:0:
199,205,59716,6,0,L|245:213,2,47.5,10|10|10,0:1|0:2|0:1,0:0:0:0:
151,196,60286,1,10,0:2:0:0:
81,261,60666,1,8,0:3:0:0:
143,332,61045,2,0,L|207:348,1,47.5,4|8,0:3|0:1,0:0:0:0:
267,289,61615,6,0,L|337:265,2,52.2500015945435,14|2|2,0:1|0:2|0:2,0:0:0:0:
183,225,62374,1,10,0:2:0:0:
256,151,62754,1,2,0:2:0:0:
190,69,63134,2,0,P|209:31|272:18,1,104.500003189087,10|2,0:1|0:2,0:0:0:0:
317,26,63704,2,0,L|419:47,1,104.500003189087,2|2,0:2|0:2,0:0:0:0:
466,140,64463,6,0,P|438:185|342:179,1,156.750004783631,2|2,0:2|0:2,0:0:0:0:
271,104,65412,1,10,0:2:0:0:
207,187,65792,2,0,L|219:250,1,52.2500015945435,2|10,0:2|0:1,0:0:0:0:
230,289,66172,2,0,L|294:306,2,52.2500015945435,8|0|0,0:1|0:0|0:0,0:0:0:0:
136,335,66931,1,8,0:2:0:0:
112,233,67311,1,0,0:0:0:0:
88,131,67691,6,0,L|24:148,2,52.2500015945435,10|2|2,0:1|0:2|0:2,0:0:0:0:
155,50,68450,1,10,0:2:0:0:
249,95,68830,1,2,0:2:0:0:
316,15,69210,2,0,L|440:39,1,104.500003189087,10|2,0:1|0:2,0:0:0:0:
469,46,69780,2,0,P|491:85|458:142,1,104.500003189087,2|2,0:2|0:2,0:0:0:0:
382,196,70539,6,0,B|310:223|355:270|273:301,1,156.750004783631,2|2,0:2|0:2,0:0:0:0:
180,252,71488,2,0,L|110:264,2,52.2500015945435,10|8|2,0:2|0:2|0:2,0:0:0:0:
261,186,72248,1,8,0:1:0:0:
196,103,72628,1,8,0:1:0:0:
259,20,73007,1,8,0:2:0:0:
259,20,73197,2,0,L|375:46,1,104.500003189087,8|8,0:1|0:2,0:0:0:0:
412,52,73767,6,0,L|428:-11,2,52.2500015945435,10|2|2,0:1|0:2|0:2,0:0:0:0:
471,138,74526,1,10,0:2:0:0:
388,202,74906,1,2,0:2:0:0:
472,263,75286,2,0,P|446:316|380:319,1,104.500003189087,10|2,0:1|0:2,0:0:0:0:
352,323,75856,2,0,L|233:307,1,104.500003189087,2|2,0:2|0:2,0:0:0:0:
162,367,76615,1,2,0:2:0:0:
162,367,76805,6,0,L|29:344,1,104.500003189087,10|2,0:1|0:2,0:0:0:0:
1,261,77564,1,10,0:2:0:0:
87,202,77944,1,2,0:2:0:0:
28,115,78324,2,0,L|15:-1,1,104.500003189087,8|8,0:1|0:1,0:0:0:0:
120,9,79083,2,0,L|130:103,1,52.2500015945435,8|0,0:2|0:0,0:0:0:0:
152,215,79843,6,0,L|211:198,2,52.2500015945435,10|2|2,0:1|0:2|0:2,0:0:0:0:
73,284,80602,1,10,0:2:0:0:
155,344,80982,1,2,0:2:0:0:
155,344,81172,2,0,L|282:307,1,104.500003189087,2|2,0:2|0:2,0:0:0:0:
411,298,82121,1,10,0:2:0:0:
398,194,82501,1,2,0:2:0:0:
309,137,82881,6,0,L|294:19,1,104.500003189087,10|2,0:1|0:2,0:0:0:0:
397,59,83640,2,0,L|407:134,2,52.2500015945435,10|8|2,0:2|0:2|0:2,0:0:0:0:
487,6,84400,1,10,0:1:0:0:
498,109,84780,1,10,0:1:0:0:
512,215,85159,1,8,0:2:0:0:
512,215,85349,2,0,L|460:239,1,52.2500015945435,10|2,0:1|0:2,0:0:0:0:
426,273,85729,6,0,B|367:263|367:263|352:241|352:241|283:226,1,156.750004783631,2|2,0:2|0:2,0:0:0:0:
216,294,86678,2,0,L|202:238,1,47.5,10|8,0:2|0:2,0:0:0:0:
191,201,87058,1,2,0:2:0:0:
226,112,87438,2,0,L|343:135,1,95,10|2,0:1|0:2,0:0:0:0:
366,124,88007,2,0,P|356:67|307:45,1,95,2|0,0:2|0:0,0:0:0:0:
243,3,88767,6,0,B|181:8|198:77|127:82,1,142.5,2|2,0:2|0:2,0:0:0:0:
52,134,89716,1,10,0:2:0:0:
115,204,90096,1,2,0:2:0:0:
36,257,90476,2,0,L|23:323,1,47.5,10|2,0:1|0:2,0:0:0:0:
51,344,90856,1,10,0:1:0:0:
124,284,91235,2,0,L|197:298,1,47.5,8|8,0:2|0:1,0:0:0:0:
200,330,91615,2,0,L|246:321,1,47.5,2|2,0:0|0:2,0:0:0:0:
414,85,94273,6,0,L|427:19,2,47.5,8|0|0,0:2|0:0|0:0,0:0:0:0:
402,131,94843,2,0,B|319:144|375:197|257:214,1,142.5,10|10,0:1|0:1,0:0:0:0:
198,175,95792,1,10,0:2:0:0:
141,251,96172,2,0,L|132:326,1,47.5,10|10,0:1|0:2,0:0:0:0:
165,335,96552,2,0,L|245:348,1,47.5,10|10,0:2|0:2,0:0:0:0:
255,324,96931,1,2,0:2:0:0:
333,271,97311,2,0,L|410:280,2,47.5,8|6|0,0:3|0:3|0:0,0:0:0:0:
256,214,98071,6,0,L|245:91,1,95,10|2,0:1|0:2,0:0:0:0:
341,106,98830,2,0,L|348:191,1,47.5,8|8,0:2|0:2,0:0:0:0:
381,184,99210,1,0,0:0:0:0:
459,130,99590,1,8,0:1:0:0:
415,45,99969,2,0,P|374:2|308:6,2,95,2|10|2,0:2|0:2|0:0,0:0:0:0:
458,129,101109,5,8,0:1:0:0:
384,189,101488,2,0,L|266:168,1,95,2|0,0:2|0:2,0:2:0:0:
356,103,102248,1,0,0:0:0:0:
449,118,102628,2,0,L|523:128,1,47.5,10|2,0:1|0:2,0:0:0:0:
501,171,103007,2,0,L|493:253,1,47.5,10|2,0:1|0:2,0:0:0:0:
461,251,103387,2,0,L|451:354,1,95,2|2,0:2|0:2,0:0:0:0:
360,371,104147,5,8,0:1:0:0:
274,316,104526,2,0,B|264:266|301:283|283:217,1,95,2|8,0:2|0:2,0:0:0:0:
257,185,105096,1,2,0:0:0:0:
306,51,105666,2,0,L|421:26,1,95,10|0,0:1|0:0,0:0:0:0:
443,48,106235,2,0,P|422:100|366:109,1,95,2|2,0:2|0:2,0:0:0:0:
302,153,106995,6,0,P|312:207|399:236,1,142.5,2|2,0:2|0:2,0:0:0:0:
462,182,107944,1,10,0:2:0:0:
502,267,108324,1,2,0:2:0:0:
439,336,108704,2,0,L|322:313,1,95,10|8,0:1|0:1,0:0:0:0:
262,363,109463,2,0,L|210:375,2,47.5,8|10|0,0:2|0:1|0:0,0:0:0:0:
270,268,110223,6,0,L|253:141,1,95,10|2,0:1|0:2,0:0:0:0:
303,93,110982,1,10,0:2:0:0:
237,24,111362,1,2,0:2:0:0:
194,109,111742,2,0,B|85:116|126:197|21:194,1,190,10|10,0:1|0:2,0:0:0:0:
43,288,112881,6,0,P|84:335|140:314,1,95,2|10,0:2|0:1,0:0:0:0:
182,269,113640,2,0,P|235:213|352:224,1,190,2|0,0:2|0:0,0:0:0:0:
419,271,114780,1,10,0:1:0:0:
471,192,115159,1,2,0:2:0:0:
394,135,115539,1,10,0:2:0:0:
321,73,115919,2,0,L|330:4,1,47.5,2|0,0:2|0:0,0:0:0:0:
369,3,116299,6,0,L|475:15,1,95,8|2,0:1|0:2,0:0:0:0:
505,98,117058,1,8,0:2:0:0:
436,164,117438,2,0,L|443:229,2,47.5,0|8|8,0:0|0:1|0:1,0:0:0:0:
351,119,118197,1,2,0:2:0:0:
288,190,118577,1,10,0:2:0:0:
362,248,118957,1,2,0:2:0:0:
291,311,119337,6,0,P|246:344|181:322,1,95,8|0,0:1|0:0,0:0:0:0:
147,268,120096,2,0,L|76:290,2,47.5,8|8|2,0:2|0:2|0:2,0:0:0:0:
238,240,120856,2,0,P|266:188|248:138,1,95,0|8,0:0|0:1,0:0:0:0:
181,100,121615,2,0,L|110:122,2,47.5,10|8|0,0:2|0:1|0:0,0:0:0:0:
247,31,122374,6,0,L|352:51,1,95,10|0,0:1|0:0,0:0:0:0:
434,63,123134,1,10,0:2:0:0:
370,134,123514,1,2,0:2:0:0:
302,199,123893,1,10,0:1:0:0:
363,269,124273,2,0,L|350:381,1,95,2|10,0:2|0:2,0:0:0:0:
440,328,125033,2,0,L|447:264,1,47.5,2|0,0:2|0:0,0:0:0:0:
491,271,125412,6,0,L|500:168,1,95,10|2,0:1|0:2,0:0:0:0:
427,113,126172,1,10,0:2:0:0:
345,162,126552,1,2,0:2:0:0:
284,89,126931,2,0,L|163:77,1,95,10|8,0:1|0:1,0:0:0:0:
141,74,127501,2,0,P|105:108|121:165,1,95,2|8,0:2|0:1,0:0:0:0:
142,183,128071,1,2,0:2:0:0:
213,245,128450,6,0,B|305:252|254:340|367:354,1,190,8|8,0:1|0:2,0:0:0:0:
438,301,129590,2,0,L|508:316,2,47.5,0|0|8,0:0|0:0|0:1,0:0:0:0:
363,241,130349,1,10,0:1:0:0:
421,165,130729,1,8,0:2:0:0:
345,106,131109,1,10,0:1:0:0:
268,162,131488,6,0,L|196:151,1,47.5,10|10,0:2|0:2,0:0:0:0:
190,118,131868,2,0,L|143:125,1,47.5,10|10,0:2|0:2,0:0:0:0:
306,246,132628,6,0,L|352:254,2,47.5,10|10|10,0:1|0:2|0:1,0:0:0:0:
258,237,133198,1,10,0:2:0:0:
168,225,133577,1,8,0:3:0:0:
168,225,133767,2,0,L|158:289,1,47.5,8|4,0:0|0:3,0:0:0:0:
202,294,134147,2,0,L|192:358,1,47.5,0|8,0:0|0:3,0:0:0:0:
238,359,134526,6,0,L|368:377,1,109.250002083778,14|2,0:1|0:2,0:0:0:0:
441,320,135286,1,10,0:2:0:0:
363,243,135666,1,2,0:2:0:0:
455,185,136045,2,0,L|467:57,1,109.250002083778,10|2,0:1|0:2,0:0:0:0:
473,21,136615,2,0,L|354:7,1,109.250002083778,2|2,0:2|0:2,0:0:0:0:
308,102,137374,6,0,B|246:95|246:95|228:107|228:107|138:97,1,163.875003125668,2|2,0:2|0:2,0:0:0:0:
53,152,138324,1,10,0:2:0:0:
133,219,138704,2,0,L|117:300,1,54.6250010418892,2|10,0:2|0:1,0:0:0:0:
112,326,139083,2,0,L|226:350,1,109.250002083778,8|0,0:1|0:0,0:0:0:0:
304,279,139843,1,8,0:2:0:0:
221,207,140223,1,0,0:0:0:0:
273,111,140602,6,0,L|265:44,2,54.6250010418892,10|2|2,0:1|0:2|0:2,0:0:0:0:
357,181,141362,1,10,0:2:0:0:
421,92,141742,1,2,0:2:0:0:
498,169,142121,2,0,L|487:283,1,109.250002083778,10|2,0:1|0:2,0:0:0:0:
479,332,142691,2,0,P|434:370|374:358,1,109.250002083778,2|2,0:2|0:2,0:0:0:0:
297,302,143450,6,0,B|290:215|345:250|331:135,1,163.875003125668,2|2,0:2|0:2,0:0:0:0:
418,78,144400,2,0,L|505:52,2,54.6250010418892,10|8|2,0:2|0:2|0:2,0:0:0:0:
319,31,145159,1,8,0:1:0:0:
252,118,145539,1,8,0:1:0:0:
159,60,145919,1,8,0:2:0:0:
159,60,146109,2,0,L|49:96,1,109.250002083778,8|8,0:1|0:2,0:0:0:0:
1,100,146678,6,0,L|20:7,2,54.6250010418892,10|2|2,0:1|0:2|0:2,0:0:0:0:
84,170,147438,1,10,0:2:0:0:
9,250,147818,1,2,0:2:0:0:
87,326,148197,2,0,L|197:296,1,109.250002083778,10|2,0:1|0:2,0:0:0:0:
240,324,148767,2,0,P|270:288|247:233,1,109.250002083778,2|2,0:2|0:2,0:0:0:0:
172,156,149526,1,2,0:2:0:0:
172,156,149716,6,0,P|197:119|265:114,2,109.250002083778,10|2|10,0:1|0:2|0:2,0:0:0:0:
69,118,150856,1,2,0:2:0:0:
143,38,151235,2,0,L|255:11,1,109.250002083778,8|8,0:1|0:1,0:0:0:0:
312,101,151995,2,0,L|426:130,1,109.250002083778,8|0,0:2|0:0,0:0:0:0:
438,178,152564,1,2,0:2:0:0:
459,227,152754,6,0,L|527:249,2,54.6250010418892,10|2|2,0:1|0:2|0:2,0:0:0:0:
353,196,153514,1,10,0:2:0:0:
374,307,153893,1,2,0:2:0:0:
374,307,154083,2,0,P|340:356|275:353,1,109.250002083778,2|2,0:2|0:2,0:0:0:0:
149,282,155033,1,10,0:2:0:0:
124,175,155412,1,2,0:2:0:0:
218,120,155792,6,0,L|199:4,1,109.250002083778,8|0,0:1|0:0,0:0:0:0:
254,22,156362,1,8,0:2:0:0:
306,36,156552,2,0,L|419:69,1,109.250002083778,8|0,0:2|0:0,0:0:0:0:
502,125,157311,1,8,0:1:0:0:
410,184,157691,1,8,0:1:0:0:
501,252,158071,1,10,0:2:0:0:
501,252,158261,2,0,L|488:364,1,109.250002083778,10|2,0:1|0:2,0:0:0:0:
434,368,158830,6,0,L|306:354,1,109.250002083778,14|2,0:1|0:2,0:0:0:0:
231,299,159590,1,10,0:2:0:0:
304,218,159969,1,2,0:2:0:0:
304,218,160159,2,0,L|287:107,1,109.250002083778,10|2,0:1|0:2,0:0:0:0:
202,40,160919,2,0,B|119:56|177:117|76:137,1,163.875003125668,2|0,0:2|0:0,0:0:0:0:
52,242,161868,6,0,L|-27:227,2,54.6250010418892,10|2|2,0:1|0:2|0:2,0:0:0:0:
159,262,162628,1,10,0:2:0:0:
86,343,163007,1,2,0:2:0:0:
86,343,163197,2,0,L|213:366,1,109.250002083778,10|2,0:1|0:2,0:0:0:0:
298,330,163957,2,0,B|294:216|247:283|250:166,1,163.875003125668,2|0,0:2|0:0,0:0:0:0:
332,106,164906,6,0,L|400:118,2,54.6250010418892,10|2|2,0:1|0:2|0:2,0:0:0:0:
257,25,165666,1,10,0:2:0:0:
169,87,166045,1,2,0:2:0:0:
169,87,166235,2,0,L|161:196,1,109.250002083778,10|2,0:1|0:2,0:0:0:0:
252,257,166995,1,2,0:2:0:0:
165,323,167374,2,0,L|53:308,1,109.250002083778,2|0,0:2|0:0,0:0:0:0:
1,303,167944,6,0,B|-14:215|52:223|31:125,1,163.875003125668,10|8,0:1|0:2,0:0:0:0:
8,98,168704,2,0,L|-3:30,2,54.6250010418892,8|8|0,0:0|0:0|0:0,0:0:0:0:
61,106,169273,1,10,0:1:0:0:
155,50,169653,1,2,0:0:0:0:
263,66,170033,2,0,L|256:125,1,54.6250010418892,2|10,0:2|0:2,0:0:0:0:
296,157,170412,2,0,P|271:206|218:213,1,109.250002083778,8|10,0:1|0:2,0:0:0:0:
166,208,170982,6,0,L|53:191,1,109.250002083778,10|2,0:1|0:2,0:0:0:0:
45,300,171742,1,10,0:2:0:0:
156,320,172121,1,2,0:2:0:0:
156,320,172311,2,0,L|273:339,1,109.250002083778,10|2,0:1|0:2,0:0:0:0:
371,357,173071,2,0,P|420:330|395:247,1,109.250002083778,2|2,0:2|0:0,0:0:0:0:
385,243,173640,1,2,0:0:0:0:
281,202,174020,6,0,L|210:218,2,54.6250010418892,10|2|2,0:1|0:2|0:2,0:0:0:0:
348,115,174780,1,10,0:2:0:0:
442,178,175159,1,2,0:2:0:0:
442,178,175349,2,0,P|472:133|454:86,1,109.250002083778,10|2,0:1|0:2,0:0:0:0:
373,10,176109,2,0,L|250:40,1,109.250002083778,2|0,0:2|0:0,0:0:0:0:
215,53,176678,2,0,L|231:111,1,54.6250010418892
193,146,177058,6,0,L|182:219,2,54.6250010418892,10|2|2,0:1|0:2|0:2,0:0:0:0:
121,63,177818,1,10,0:2:0:0:
49,145,178197,1,2,0:2:0:0:
49,145,178387,2,0,L|64:258,1,109.250002083778,2|2,0:2|0:2,0:0:0:0:
114,350,179147,2,0,L|176:364,1,54.6250010418892,2|8,0:2|0:2,0:0:0:0:
194,314,179526,2,0,L|308:289,1,109.250002083778,2|0,0:2|0:0,0:0:0:0:
338,330,180096,6,0,B|336:235|394:287|385:169,1,163.875003125668,10|8,0:1|0:2,0:0:0:0:
341,147,180856,1,8,0:2:0:0:
425,78,181235,1,0,0:0:0:0:
334,16,181615,2,0,L|211:34,1,109.250002083778,10|10,0:1|0:1,0:0:0:0:
142,101,182374,2,0,L|133:161,1,54.6250010418892,10|10,0:2|0:1,0:0:0:0:
178,186,182754,2,0,L|169:246,1,54.6250010418892,2|2,0:2|0:2,0:0:0:0:
129,265,183134,5,6,0:1:0:0:
