osu file format v14

[General]
AudioFilename: audio.mp3
AudioLeadIn: 0
PreviewTime: 61425
Countdown: 0
SampleSet: Soft
StackLeniency: 0.7
Mode: 0
LetterboxInBreaks: 0
WidescreenStoryboard: 1

[Editor]
DistanceSpacing: 1
BeatDivisor: 4
GridSize: 32
TimelineZoom: 2.4

[Metadata]
Title:Every Summertime
TitleUnicode:Every Summertime
Artist:NIKI
ArtistUnicode:NIKI
Creator:Crowley
Version:fall in love every summertime
Source:
Tags:flake midorijeon 88rising Pop English Shang-Chi and the Legend of the Ten Rings The Album Shang Chi OST Original Soundtrack
BeatmapID:3422340
BeatmapSetID:1675217

[Difficulty]
HPDrainRate:5
CircleSize:4
OverallDifficulty:8
ApproachRate:8.5
SliderMultiplier:1.8
SliderTickRate:1

[Events]
//Background and Video events
0,0,"crowley_eee_second.jpg",0,0
//Break Periods
2,92004,93598
//Storyboard Layer 0 (Background)
//Storyboard Layer 1 (Fail)
//Storyboard Layer 2 (Pass)
//Storyboard Layer 3 (Foreground)
//Storyboard Layer 4 (Overlay)
//Storyboard Sound Samples

[TimingPoints]
96,759.493670886076,4,2,1,50,1,0
96,-76.9230769230769,4,2,1,50,0,0
856,759.493670886076,4,2,1,50,1,0
856,-76.9230769230769,4,2,1,50,0,0
1235,-76.9230769230769,4,2,1,50,0,0
1330,-76.9230769230769,4,2,1,5,0,0
1615,-76.9230769230769,4,2,1,50,0,0
1710,-76.9230769230769,4,2,1,5,0,0
1995,-76.9230769230769,4,2,1,50,0,0
6742,-66.6666666666667,4,2,1,50,0,0
7691,-76.9230769230769,4,2,1,50,0,0
8545,-76.9230769230769,4,2,1,5,0,0
8640,-76.9230769230769,4,2,1,50,0,0
9780,-71.4285714285714,4,2,1,50,0,0
10824,-71.4285714285714,4,2,1,5,0,0
11109,-71.4285714285714,4,2,1,50,0,0
11204,-71.4285714285714,4,2,1,5,0,0
11299,-71.4285714285714,4,2,1,50,0,0
11393,-71.4285714285714,4,2,1,5,0,0
11488,-71.4285714285714,4,2,1,50,0,0
11773,-71.4285714285714,4,2,1,5,0,0
12058,-71.4285714285714,4,2,1,50,0,0
12153,-71.4285714285714,4,2,1,5,0,0
12248,-71.4285714285714,4,2,1,55,0,0
12438,-45.4545454545455,4,2,1,55,0,0
12533,-45.4545454545455,4,2,1,5,0,0
12628,-45.4545454545455,4,2,1,60,0,0
12723,-45.4545454545455,4,2,1,5,0,0
12818,-37.037037037037,4,2,1,60,0,0
13387,-66.6666666666667,4,2,1,60,0,0
16900,-66.6666666666667,4,2,1,5,0,0
17185,-66.6666666666667,4,2,1,60,0,0
17280,-66.6666666666667,4,2,1,5,0,0
17374,-66.6666666666667,4,2,1,60,0,0
29716,-66.6666666666667,4,2,1,70,0,0
31235,-66.6666666666667,4,2,1,60,0,0
35602,-66.6666666666667,4,2,2,50,0,0
35982,-66.6666666666667,4,2,1,60,0,0
36172,-58.8235294117647,4,2,1,60,0,0
36552,-66.6666666666667,4,2,1,60,0,0
37121,-66.6666666666667,4,2,2,60,0,0
37311,-66.6666666666667,4,2,1,50,0,0
48893,-58.8235294117647,4,2,1,50,0,0
49463,-66.6666666666667,4,2,1,50,0,0
58577,-66.6666666666667,4,2,1,70,0,0
59716,-66.6666666666667,4,2,2,70,0,0
59906,-66.6666666666667,4,2,1,70,0,0
60096,-66.6666666666667,4,2,2,70,0,0
60286,-66.6666666666667,4,2,1,70,0,0
60666,-100,4,2,1,70,0,0
61615,-58.8235294117647,4,2,1,80,0,1
61805,-58.8235294117647,4,2,1,80,0,0
73197,-52.6315789473684,4,2,1,80,0,0
73767,-58.8235294117647,4,2,1,80,0,0
85349,-45.4545454545455,4,2,1,80,0,0
85444,-45.4545454545455,4,2,1,5,0,0
85539,-45.4545454545455,4,2,1,80,0,0
85634,-45.4545454545455,4,2,1,5,0,0
85729,-37.037037037037,4,2,1,80,0,0
85919,-37.037037037037,4,2,1,60,0,0
86299,-66.6666666666667,4,2,1,60,0,0
97881,-66.6666666666667,4,2,2,60,0,0
98071,-66.6666666666667,4,2,1,60,0,0
102628,-66.6666666666667,4,2,1,70,0,0
104147,-66.6666666666667,4,2,1,60,0,0
109843,-55.5555555555556,4,2,1,60,0,0
110223,-66.6666666666667,4,2,1,50,0,0
121995,-55.5555555555556,4,2,1,50,0,0
122374,-66.6666666666667,4,2,1,50,0,0
131488,-66.6666666666667,4,2,1,70,0,0
132628,-66.6666666666667,4,2,2,70,0,0
132818,-66.6666666666667,4,2,1,70,0,0
133007,-66.6666666666667,4,2,2,70,0,0
133197,-66.6666666666667,4,2,1,70,0,0
133577,-100,4,2,1,70,0,0
134337,-100,4,2,2,70,0,0
134526,-58.8235294117647,4,2,1,80,0,1
134716,-58.8235294117647,4,2,1,80,0,0
146109,-52.6315789473684,4,2,1,80,0,0
146678,-58.8235294117647,4,2,1,80,0,0
158450,-52.6315789473684,4,2,1,80,0,0
158830,-55.5555555555556,4,2,1,80,0,1
170412,-47.6190476190476,4,2,1,80,0,1
170982,-55.5555555555556,4,2,1,80,0,1
183134,-100,4,2,1,45,0,0
185159,-100,4,2,1,45,0,0
186457,-100,4,2,1,5,0,0
186552,-100,4,2,1,45,0,0
186837,-100,4,2,1,5,0,0
186932,-100,4,2,1,45,0,0
208767,-100,4,2,1,5,0,0

[Colours]
Combo1 : 255,182,147
Combo2 : 255,128,64

[HitObjects]
63,69,286,5,2,0:2:0:0:
63,69,475,1,2,0:2:0:0:
63,69,665,2,0,L|73:133,1,58.4999973220826,2|0,0:2|0:0,0:0:0:0:
128,175,1235,6,0,L|161:185,1,29.2499986610413,2|0,0:2|0:0,0:0:0:0:
60,200,1615,6,0,L|34:223,1,29.2499986610413,2|0,0:2|0:0,0:0:0:0:
72,128,1995,1,0,0:0:0:0:
72,128,2185,1,0,0:0:0:0:
128,175,2374,6,0,L|262:215,1,116.999994644165,2|0,0:2|0:0,0:0:0:0:
302,160,2944,2,0,P|288:109|219:100,1,116.999994644165,2|2,0:2|0:2,0:0:0:0:
443,3,3704,6,0,P|428:75|418:131,1,116.999994644165,2|2,0:2|0:2,0:0:0:0:
478,168,4273,1,2,0:2:0:0:
338,305,4653,2,0,P|349:270|441:257,1,116.999994644165,2|2,0:2|0:2,0:0:0:0:
465,304,5223,1,0,0:0:0:0:
402,365,5412,2,0,P|219:341|219:341,1,175.499991966248,2|0,0:2|0:0,0:0:0:0:
184,284,6172,1,2,0:2:0:0:
252,239,6362,2,0,L|265:170,1,58.4999973220826,2|2,0:2|0:2,0:0:0:0:
113,64,6742,6,0,B|115:144|165:104|168:211,1,135.000005149842,2|0,0:2|0:0,0:0:0:0:
108,236,7311,1,2,0:2:0:0:
226,23,7691,2,0,L|365:46,1,116.999994644165,2|0,0:2|0:0,0:0:0:0:
341,42,8261,1,0,0:0:0:0:
381,114,8450,2,0,L|371:160,1,29.2499986610413,2|0,0:2|0:0,0:0:0:0:
433,196,8640,5,0,0:0:0:0:
433,196,8830,1,0,0:0:0:0:
511,128,9020,2,0,L|441:116,1,58.4999973220826,2|0,0:0|0:0,0:0:0:0:
298,212,9400,2,0,L|355:221,1,58.4999973220826,2|0,0:0|0:0,0:0:0:0:
341,42,9780,6,0,L|194:16,2,125.999996154785,2|2|2,0:2|0:2|0:0,0:0:0:0:
482,70,10729,2,0,L|452:107,1,31.4999990386963,2|0,0:2|0:0,0:0:0:0:
411,144,11109,6,0,L|432:171,1,31.4999990386963,2|0,0:2|0:0,0:0:0:0:
482,70,11299,2,0,L|452:107,1,31.4999990386963,2|0,0:0|0:0,0:0:0:0:
410,143,11488,1,2,0:2:0:0:
477,220,11678,6,0,L|456:247,1,31.4999990386963
409,302,12058,6,0,L|430:329,1,31.4999990386963
477,379,12248,1,10,0:2:0:0:
283,262,12438,6,0,L|355:246,1,49.5000015106202,10|0,0:2|0:0,0:0:0:0:
315,175,12628,2,0,L|266:185,1,49.5000015106202,2|0,0:2|0:0,0:0:0:0:
187,246,12818,6,0,B|321:281|281:150|405:175,1,243.000000926971,2|0,0:2|0:0,0:0:0:0:
472,207,13387,6,0,P|485:149|497:98,1,101.250003862381,2|0,0:0|0:0,0:0:0:0:
496,100,13767,2,0,L|425:86,1,67.5000025749208,10|0,0:0|0:0,0:0:0:0:
346,68,14147,1,2,0:2:0:0:
504,26,14337,1,10,0:2:0:0:
504,26,14431,1,8,0:0:0:0:
504,26,14526,6,0,L|369:0,1,135.000005149842,10|2,0:1|0:2,0:0:0:0:
266,90,15096,2,0,L|287:182,1,67.5000025749208,2|8,0:2|0:2,0:0:0:0:
337,263,15476,2,0,L|352:197,1,67.5000025749208,8|0,0:2|0:0,0:0:0:0:
181,363,15856,5,2,0:2:0:0:
181,363,16045,2,0,L|132:354,3,33.7500012874604,8|0|0|0,0:1|0:0|0:0|0:0,0:0:0:0:
128,353,16425,2,0,L|235:344,1,101.250003862381,2|0,0:2|0:0,0:0:0:0:
258,276,16805,2,0,L|265:243,1,33.7500012874604,10|0,0:2|0:0,0:0:0:0:
269,283,17185,6,0,L|276:250,1,33.7500012874604,2|0,0:2|0:0,0:0:0:0:
256,173,17374,1,10,0:1:0:0:
426,255,17564,6,0,L|514:243,2,67.5000025749208,10|2|10,0:1|0:2|0:1,0:0:0:0:
370,196,18134,1,2,0:2:0:0:
269,283,18324,1,8,0:2:0:0:
374,361,18514,1,0,0:0:0:0:
374,361,18704,1,2,0:2:0:0:
294,208,18893,2,0,P|283:162|274:133,1,67.5000025749208,0|8,0:0|0:1,0:0:0:0:
495,17,19463,5,2,0:2:0:0:
483,103,19652,1,2,0:2:0:0:
471,189,19843,2,0,L|379:173,1,67.5000025749208,10|2,0:2|0:2,0:0:0:0:
249,103,20223,2,0,L|315:91,1,67.5000025749208,2|2,0:2|0:2,0:0:0:0:
345,266,20602,6,0,P|322:305|222:301,1,135.000005149842,10|2,0:1|0:2,0:0:0:0:
173,158,21172,2,0,P|162:112|153:83,1,67.5000025749208,2|8,0:2|0:2,0:0:0:0:
239,107,21552,2,0,P|248:140|256:173,1,67.5000025749208
139,362,21931,6,0,B|134:286|188:319|181:227,1,135.000005149842,2|2,0:2|0:2,0:0:0:0:
114,200,22501,1,2,0:2:0:0:
114,200,22691,1,8,0:2:0:0:
239,107,22881,1,10,0:2:0:0:
76,33,23071,1,10,0:2:0:0:
169,0,23261,6,0,L|158:81,1,67.5000025749208,2|10,0:2|0:1,0:0:0:0:
86,122,23640,2,0,L|5:133,2,67.5000025749208,10|2|10,0:1|0:2|0:1,0:0:0:0:
186,188,24210,1,2,0:2:0:0:
186,188,24400,1,8,0:2:0:0:
86,329,24590,2,0,P|27:304|35:221,1,135.000005149842,10|2,0:1|0:2,0:0:0:0:
78,195,25159,1,8,0:1:0:0:
289,384,25539,6,0,P|348:359|340:276,1,135.000005149842,2|8,0:2|0:2,0:0:0:0:
250,230,26109,2,0,L|262:150,1,67.5000025749208,2|0,0:2|0:0,0:0:0:0:
370,84,26488,1,8,0:2:0:0:
370,84,26583,1,8,0:0:0:0:
370,84,26678,6,0,L|359:150,1,67.5000025749208,10|2,0:1|0:2,0:0:0:0:
408,209,27058,1,2,0:2:0:0:
269,306,27248,2,0,L|203:295,1,67.5000025749208,2|8,0:2|0:2,0:0:0:0:
335,174,27628,2,0,L|324:240,1,67.5000025749208,10|0,0:2|0:0,0:0:0:0:
103,80,28197,6,0,P|130:31|224:31,1,135.000005149842,10|0,0:1|0:0,0:0:0:0:
264,73,28767,1,0,0:0:0:0:
134,157,28957,2,0,L|126:229,1,67.5000025749208,8|2,0:2|0:2,0:0:0:0:
271,76,29337,2,0,L|356:89,1,67.5000025749208,2|8,0:2|0:1,0:0:0:0:
483,5,29716,5,10,0:1:0:0:
340,165,29906,1,2,0:2:0:0:
480,261,30096,1,10,0:1:0:0:
403,343,30286,1,2,0:2:0:0:
470,374,30476,5,2,0:2:0:0:
463,299,30665,1,2,0:2:0:0:
454,219,30855,1,2,0:2:0:0:
443,131,31045,1,2,0:2:0:0:
431,29,31235,5,8,0:1:0:0:
210,262,31615,6,0,P|158:238|164:159,1,135.000005149842,2|8,0:2|0:2,0:0:0:0:
266,48,32185,2,0,L|257:133,1,67.5000025749208,2|0,0:2|0:0,0:0:0:0:
334,90,32564,1,0,0:0:0:0:
195,22,32754,6,0,L|186:107,2,67.5000025749208,10|0|0,0:1|0:0|0:0,0:0:0:0:
71,167,33324,2,0,L|-16:160,1,67.5000025749208,2|8,0:2|0:2,0:0:0:0:
161,299,33704,1,2,0:2:0:0:
161,306,33799,1,0,0:0:0:0:
160,312,33893,1,0,0:0:0:0:
153,384,34083,1,2,0:2:0:0:
259,236,34273,6,0,L|266:149,1,67.5000025749208,8|2,0:1|0:2,0:0:0:0:
206,120,34653,1,2,0:2:0:0:
336,212,34843,1,8,0:2:0:0:
200,113,35033,6,0,L|101:104,1,67.5000025749208,10|8,0:2|0:2,0:0:0:0:
334,225,35412,2,0,L|327:292,1,67.5000025749208,2|8,0:2|0:1,0:0:0:0:
265,342,35792,1,10,0:1:0:0:
405,262,35982,1,8,0:2:0:0:
268,158,36172,6,0,P|294:117|366:113,1,114.750002188683,8|0,0:1|0:0,0:0:0:0:
412,158,36552,1,8,0:3:0:0:
490,178,36742,1,4,0:3:0:0:
511,100,36931,1,0,0:0:0:0:
432,79,37121,1,8,0:3:0:0:
334,225,37311,6,0,L|319:365,1,135.000005149842,8|0,0:1|0:0,0:0:0:0:
395,336,37881,1,0,0:0:0:0:
395,332,37976,1,0,0:0:0:0:
396,329,38071,2,0,L|403:261,1,67.5000025749208,10|8,0:2|0:2,0:0:0:0:
470,226,38356,1,0,0:0:0:0:
468,214,38450,2,0,L|461:146,1,67.5000025749208,2|8,0:2|0:1,0:0:0:0:
453,58,38830,5,10,0:1:0:0:
453,58,39020,1,0,0:0:0:0:
324,156,39210,2,0,L|331:224,1,67.5000025749208,2|0,0:2|0:0,0:0:0:0:
486,285,39590,2,0,P|476:327|388:343,1,135.000005149842,8|2,0:2|0:2,0:0:0:0:
330,223,40159,1,0,0:0:0:0:
329,215,40254,1,0,0:0:0:0:
328,207,40349,6,0,L|321:139,1,67.5000025749208,8|2,0:1|0:2,0:0:0:0:
408,255,40729,1,2,0:2:0:0:
408,255,40919,1,0,0:0:0:0:
321,139,41109,2,0,B|246:133|286:77|191:69,1,135.000005149842,8|0,0:2|0:0,0:0:0:0:
415,33,41678,1,8,0:1:0:0:
415,33,41773,1,0,0:0:0:0:
415,33,41868,6,0,L|400:182,1,135.000005149842,10|0,0:1|0:0,0:0:0:0:
331,302,42438,2,0,L|254:290,1,67.5000025749208,2|8,0:2|0:2,0:0:0:0:
210,237,42818,1,0,0:0:0:0:
273,372,43007,2,0,L|151:353,1,101.250003862381,2|0,0:2|0:0,0:0:0:0:
99,342,43387,6,0,P|108:306|208:273,1,135.000005149842,8|0,0:1|0:0,0:0:0:0:
241,212,43957,1,0,0:0:0:0:
116,137,44147,2,0,L|110:60,1,67.5000025749208,8|8,0:2|0:2,0:0:0:0:
181,62,44526,2,0,L|186:129,1,67.5000025749208,0|8,0:0|0:1,0:0:0:0:
139,4,44906,1,8,0:1:0:0:
139,4,45096,1,0,0:0:0:0:
39,158,45286,6,0,P|63:202|132:206,1,101.250003862381,2|0,0:2|0:0,0:0:0:0:
182,234,45666,2,0,P|169:281|126:304,1,101.250003862381,10|0,0:2|0:0,0:0:0:0:
110,309,46045,2,0,P|66:332|54:379,1,101.250003862381,2|0,0:2|0:0,0:0:0:0:
131,377,46425,6,0,L|110:224,1,135.000005149842,8|0,0:1|0:0,0:0:0:0:
171,194,46995,1,8,0:2:0:0:
31,111,47185,1,8,0:2:0:0:
48,185,47374,1,8,0:2:0:0:
91,47,47564,2,0,L|166:65,1,67.5000025749208,2|8,0:0|0:1,0:0:0:0:
245,182,47944,6,0,L|170:200,1,67.5000025749208,8|0,0:1|0:0,0:0:0:0:
295,66,48324,2,0,L|277:-9,1,67.5000025749208,8|0,0:1|0:0,0:0:0:0:
392,142,48704,1,10,0:2:0:0:
338,247,48893,2,0,P|357:297|456:311,1,153.000002918243,8|8,0:1|0:2,0:0:0:0:
475,171,49463,6,0,L|488:63,1,101.250003862381,8|0,0:1|0:0,0:0:0:0:
441,8,49843,2,0,P|378:2|341:76,1,135.000005149842,2|8,0:2|0:2,0:0:0:0:
370,126,50412,1,8,0:2:0:0:
475,171,50602,2,0,L|465:251,1,67.5000025749208,2|8,0:2|0:2,0:0:0:0:
429,313,50982,5,8,0:1:0:0:
429,313,51172,1,0,0:0:0:0:
286,244,51362,2,0,P|305:193|374:192,1,101.250003862381,2|0,0:2|0:0,0:0:0:0:
418,185,51742,2,0,L|426:117,1,67.5000025749208,8|0,0:2|0:0,0:0:0:0:
358,18,52121,2,0,L|349:85,1,67.5000025749208,2|0,0:2|0:0,0:0:0:0:
186,193,52501,6,0,L|104:179,1,67.5000025749208,8|0,0:1|0:0,0:0:0:0:
135,106,52881,2,0,L|201:117,1,67.5000025749208,2|0,0:2|0:0,0:0:0:0:
72,260,53261,2,0,P|30:250|5:155,1,135.000005149842,8|2,0:2|0:2,0:0:0:0:
60,126,53830,1,8,0:1:0:0:
201,201,54020,6,0,P|243:191|268:96,1,135.000005149842,10|0,0:1|0:0,0:0:0:0:
8,12,54780,2,0,B|4:77|43:41|43:120,1,101.250003862381,10|0,0:2|0:0,0:0:0:0:
108,138,55159,2,0,L|187:112,1,67.5000025749208,2|0,0:2|0:0,0:0:0:0:
257,319,55539,6,0,P|234:285|139:273,1,135.000005149842,10|0,0:1|0:0,0:0:0:0:
424,120,56299,6,0,P|358:121|313:169,1,135.000005149842,8|0,0:2|0:0,0:0:0:0:
245,139,56868,1,8,0:1:0:0:
324,256,57058,2,0,L|397:240,1,67.5000025749208,8|0,0:1|0:0,0:0:0:0:
181,375,57438,6,0,B|171:322|227:331|210:269,1,101.250003862381,2|0,0:2|0:0,0:0:0:0:
288,326,57818,1,10,0:2:0:0:
288,326,58007,1,0,0:0:0:0:
133,227,58197,2,0,P|151:190|226:189,1,101.250003862381,2|0,0:2|0:0,0:0:0:0:
206,258,58577,5,10,0:2:0:0:
294,73,58767,1,10,0:2:0:0:
158,120,58957,1,10,0:2:0:0:
341,210,59147,1,10,0:2:0:0:
359,219,59716,5,10,0:1:0:0:
303,55,59906,1,10,0:2:0:0:
140,111,60096,1,10,0:1:0:0:
196,276,60286,2,0,L|186:375,1,101.250003862381,10|0,0:2|0:0,0:0:0:0:
258,375,60666,6,0,L|266:294,1,67.5,8|0,0:3|0:0,0:0:0:0:
266,300,61045,1,4,0:3:0:0:
332,373,61235,2,0,L|338:308,1,45,8|4,0:1|0:3,0:0:0:0:
345,253,61615,6,0,P|383:263|412:306,1,76.5000014591217,14|2,0:1|0:2,0:0:0:0:
506,118,61995,2,0,L|359:153,1,114.750002188683,2|0,0:2|0:0,0:0:0:0:
321,161,62374,2,0,L|301:80,1,76.5000014591217,10|8,0:2|0:2,0:0:0:0:
385,2,62754,1,2,0:2:0:0:
385,2,62944,1,8,0:1:0:0:
235,144,63134,6,0,P|170:131|141:45,1,153.000002918243,10|2,0:1|0:2,0:0:0:0:
326,177,63704,2,0,P|296:217|248:219,1,76.5000014591217,2|8,0:2|0:2,0:0:0:0:
117,264,64083,2,0,P|182:262|224:350,1,153.000002918243,2|2,0:2|0:2,0:0:0:0:
13,382,64653,6,0,L|-7:298,1,76.5000014591217,8|2,0:1|0:2,0:0:0:0:
84,143,65033,2,0,L|114:271,1,114.750002188683,2|0,0:2|0:0,0:0:0:0:
138,324,65412,2,0,B|221:321|176:251|273:246,1,153.000002918243,10|2,0:2|0:2,0:0:0:0:
331,292,65982,1,10,0:1:0:0:
193,188,66172,5,8,0:1:0:0:
169,106,66362,1,0,0:0:0:0:
250,82,66552,1,0,0:0:0:0:
273,164,66742,1,0,0:0:0:0:
162,104,66931,1,8,0:2:0:0:
242,8,67121,2,0,P|319:19|397:28,1,153.000002918243
489,127,67691,6,0,P|451:121|413:117,1,76.5000014591217,10|2,0:1|0:2,0:0:0:0:
272,278,68071,2,0,P|291:235|367:220,1,114.750002188683,2|0,0:2|0:0,0:0:0:0:
411,263,68450,2,0,P|395:322|293:326,1,153.000002918243,10|2,0:2|0:2,0:0:0:0:
255,381,69020,1,8,0:1:0:0:
194,216,69210,6,0,L|207:126,1,76.5000014591217,10|0,0:1|0:0,0:0:0:0:
261,92,69590,1,2,0:2:0:0:
120,1,69780,2,0,L|109:76,1,76.5000014591217,2|8,0:2|0:2,0:0:0:0:
41,155,70159,2,0,L|116:165,1,76.5000014591217,2|0,0:2|0:0,0:0:0:0:
268,250,70539,5,2,0:2:0:0:
267,257,70634,1,0,0:0:0:0:
267,264,70729,2,0,L|256:357,1,76.5000014591217,8|2,0:1|0:2,0:0:0:0:
334,307,71109,1,2,0:2:0:0:
190,288,71299,1,8,0:2:0:0:
283,134,71488,5,10,0:2:0:0:
268,250,71678,1,8,0:2:0:0:
253,366,71868,2,0,L|339:376,1,76.5000014591217,2|10,0:2|0:1,0:0:0:0:
449,255,72248,6,0,P|428:183|315:167,2,153.000002918243,8|8|8,0:1|0:1|0:2,0:0:0:0:
340,0,73197,2,0,P|273:28|292:136,1,170.999995433807,8|8,0:1|0:2,0:0:0:0:
450,263,73767,6,0,L|438:378,1,76.5000014591217,10|2,0:1|0:2,0:0:0:0:
263,382,74147,2,0,P|208:362|200:298,1,114.750002188683,2|0,0:2|0:0,0:0:0:0:
230,244,74526,2,0,P|311:251|365:257,1,76.5000014591217,10|0,0:2|0:0,0:0:0:0:
359,306,74906,1,2,0:2:0:0:
359,306,75096,1,8,0:1:0:0:
202,175,75286,6,0,B|118:169|170:91|46:93,1,153.000002918243,10|2,0:1|0:2,0:0:0:0:
243,9,75856,2,0,P|254:39|238:87,1,76.5000014591217,2|8,0:2|0:2,0:0:0:0:
73,180,76235,2,0,L|86:269,1,76.5000014591217,2|0,0:2|0:0,0:0:0:0:
219,368,76615,5,2,0:2:0:0:
226,367,76710,1,0,0:0:0:0:
233,365,76805,2,0,L|207:190,2,153.000002918243,10|2|10,0:1|0:2|0:2,0:0:0:0:
323,123,77944,2,0,L|406:133,1,76.5000014591217,2|10,0:2|0:1,0:0:0:0:
202,19,78324,5,8,0:1:0:0:
133,53,78513,1,0,0:0:0:0:
168,121,78703,1,8,0:1:0:0:
236,87,78893,1,0,0:0:0:0:
123,49,79083,1,8,0:2:0:0:
79,160,79273,2,0,L|102:312,1,153.000002918243,0|2,0:0|0:2,0:0:0:0:
115,320,79748,1,0,0:0:0:0:
128,328,79843,6,0,L|220:311,1,76.5000014591217,10|2,0:1|0:2,0:0:0:0:
351,232,80223,2,0,P|341:191|261:162,1,114.750002188683,2|0,0:2|0:0,0:0:0:0:
225,217,80602,2,0,L|247:368,1,153.000002918243,10|2,0:2|0:2,0:0:0:0:
280,158,81172,6,0,L|359:142,1,76.5000014591217,2|8,0:2|0:1,0:0:0:0:
400,0,81552,2,0,L|415:74,1,76.5000014591217,2|8,0:2|0:1,0:0:0:0:
322,227,81931,1,10,0:2:0:0:
237,84,82121,6,0,L|143:75,1,76.5000014591217,10|2,0:2|0:2,0:0:0:0:
99,127,82501,1,2,0:2:0:0:
220,7,82691,1,0,0:0:0:0:
94,132,82881,6,0,L|86:208,1,76.5000014591217,10|0,0:1|0:0,0:0:0:0:
170,357,83261,1,2,0:2:0:0:
257,266,83450,1,8,0:2:0:0:
158,242,83640,5,10,0:2:0:0:
272,378,83830,1,8,0:2:0:0:
339,213,84020,1,2,0:2:0:0:
339,213,84210,1,8,0:1:0:0:
170,357,84400,6,0,L|12:335,2,153.000002918243,10|10|8,0:1|0:1|0:2,0:0:0:0:
152,164,85349,6,0,L|147:99,1,49.5000015106202,10|0,0:1|0:0,0:0:0:0:
220,106,85539,2,0,L|224:155,1,49.5000015106202,2|0,0:2|0:0,0:0:0:0:
159,250,85729,6,0,B|134:126|265:166|225:11,1,243.000000926971,2|0,0:2|0:0,0:0:0:0:
158,0,86299,6,0,L|66:27,1,67.5000025749208,2|2,0:2|0:2,0:0:0:0:
5,114,86678,2,0,P|30:157|94:158,1,101.250003862381,10|0,0:2|0:0,0:0:0:0:
105,159,87058,1,2,0:2:0:0:
105,159,87248,1,10,0:2:0:0:
45,280,87438,6,0,P|95:290|150:219,1,135.000005149842,10|2,0:1|0:2,0:0:0:0:
124,86,88007,2,0,L|108:11,1,67.5000025749208,2|8,0:2|0:2,0:0:0:0:
203,168,88387,2,0,P|253:158|308:229,1,135.000005149842,0|2,0:0|0:2,0:0:0:0:
296,287,88862,5,0,0:0:0:0:
294,300,88957,2,0,L|283:364,2,33.7500012874604,8|0|0,0:1|0:0|0:0,0:0:0:0:
432,241,89337,2,0,L|422:135,1,101.250003862381,2|0,0:2|0:0,0:0:0:0:
422,130,89716,2,0,L|488:141,1,67.5000025749208,10|2,0:2|0:2,0:0:0:0:
500,45,90096,2,0,L|419:31,1,67.5000025749208,2|10,0:2|0:1,0:0:0:0:
298,176,90476,5,10,0:1:0:0:
221,149,90666,1,2,0:2:0:0:
247,73,90856,1,10,0:1:0:0:
323,99,91045,1,2,0:2:0:0:
237,221,91235,6,0,L|248:318,1,67.5000025749208,8|8,0:2|0:1,0:0:0:0:
314,19,91615,2,0,L|395:5,1,67.5000025749208,2|2,0:0|0:2,0:0:0:0:
135,341,94273,5,8,0:2:0:0:
64,367,94463,1,0,0:0:0:0:
135,341,94653,1,0,0:0:0:0:
271,384,94843,6,0,B|273:306|219:340|224:258,1,135.000005149842,10|2,0:1|0:2,0:0:0:0:
315,155,95412,2,0,P|356:170|373:232,1,101.250003862381,10|0,0:1|0:0,0:0:0:0:
373,233,95792,2,0,P|340:256|302:244,1,67.5000025749208,10|0,0:2|0:0,0:0:0:0:
255,198,96172,1,10,0:1:0:0:
401,111,96362,1,10,0:2:0:0:
485,253,96552,6,0,L|494:332,2,67.5000025749208,10|10|2,0:2|0:2|0:2,0:0:0:0:
438,191,97121,1,10,0:2:0:0:
341,372,97311,2,0,L|269:356,1,67.5000025749208,8|6,0:3|0:3,0:0:0:0:
290,286,97691,2,0,L|355:300,1,67.5000025749208,0|10,0:0|0:3,0:0:0:0:
145,177,98071,6,0,L|69:197,1,67.5000025749208,10|0,0:1|0:0,0:0:0:0:
75,181,98356,1,2,0:2:0:0:
71,168,98450,2,0,L|136:150,1,67.5000025749208,2|0,0:2|0:0,0:0:0:0:
259,12,98830,1,8,0:2:0:0:
235,88,99020,1,8,0:2:0:0:
266,161,99210,2,0,L|339:183,1,67.5000025749208,0|8,0:0|0:2,0:0:0:0:
372,122,99495,1,0,0:0:0:0:
385,127,99590,6,0,L|458:149,1,67.5000025749208,8|0,0:1|0:0,0:0:0:0:
308,261,99969,1,2,0:2:0:0:
308,261,100159,1,2,0:2:0:0:
465,381,100349,2,0,P|484:354|478:313,1,67.5000025749208,10|0,0:2|0:0,0:0:0:0:
467,298,100634,1,0,0:0:0:0:
439,292,100729,2,0,L|355:317,1,67.5000025749208,2|0,0:2|0:0,0:0:0:0:
175,368,101109,1,8,0:1:0:0:
450,213,101488,6,0,L|309:254,1,135.000005149842,2|8,0:2|0:2,0:0:0:0:
289,178,102058,1,0,0:0:0:0:
384,96,102248,2,0,P|450:111|471:117,1,67.5000025749208,0|8,0:0|0:1,0:0:0:0:
249,0,102628,5,10,0:1:0:0:
384,96,102818,1,2,0:2:0:0:
282,226,103007,1,10,0:1:0:0:
147,130,103197,1,2,0:2:0:0:
287,61,103387,5,2,0:2:0:0:
322,131,103577,1,10,0:1:0:0:
246,164,103766,1,2,0:2:0:0:
210,93,103956,1,2,0:2:0:0:
265,112,104147,5,8,0:1:0:0:
127,335,104526,6,0,P|74:320|59:237,1,135.000005149842,2|8,0:2|0:2,0:0:0:0:
195,376,105096,2,0,P|232:363|253:333,1,67.5000025749208,2|0,0:2|0:0,0:0:0:0:
216,274,105476,1,0,0:0:0:0:
314,381,105666,2,0,P|333:347|324:314,1,67.5000025749208,10|0,0:1|0:0,0:0:0:0:
191,191,106045,6,0,L|274:208,1,67.5000025749208,0|2,0:0|0:2,0:0:0:0:
355,230,106425,1,8,0:2:0:0:
355,230,106615,1,2,0:2:0:0:
335,119,106805,2,0,L|351:53,1,67.5000025749208,0|2,0:0|0:2,0:0:0:0:
189,191,107185,6,0,L|205:256,1,67.5000025749208,8|2,0:1|0:2,0:0:0:0:
154,314,107564,1,2,0:2:0:0:
268,209,107754,1,8,0:2:0:0:
120,158,107944,2,0,L|35:179,1,67.5000025749208,10|8,0:2|0:2,0:0:0:0:
149,28,108324,2,0,L|165:93,1,67.5000025749208,2|8,0:2|0:1,0:0:0:0:
8,254,108704,6,0,P|24:293|81:306,1,101.250003862381,10|0,0:1|0:0,0:0:0:0:
88,303,109083,2,0,P|103:271|91:235,1,67.5000025749208,8|0,0:1|0:0,0:0:0:0:
40,161,109463,2,0,L|106:145,1,67.5000025749208,8|10,0:2|0:1,0:0:0:0:
229,8,109843,2,0,B|227:74|274:38|273:122,1,121.499996292114
324,170,110223,6,0,P|363:169|385:80,1,135.000005149842,10|2,0:1|0:2,0:0:0:0:
250,235,110792,1,0,0:0:0:0:
242,246,110887,1,0,0:0:0:0:
231,254,110982,2,0,P|192:253|164:217,1,67.5000025749208,10|8,0:2|0:2,0:0:0:0:
131,334,111362,2,0,P|100:309|100:263,1,67.5000025749208,2|8,0:2|0:1,0:0:0:0:
116,137,111742,6,0,L|268:157,1,135.000005149842,10|2,0:1|0:2,0:0:0:0:
208,76,112311,1,0,0:0:0:0:
77,200,112501,2,0,P|34:184|24:124,1,101.250003862381,10|0,0:2|0:0,0:0:0:0:
74,82,112881,2,0,L|85:4,1,67.5000025749208,2|0,0:2|0:0,0:0:0:0:
156,0,113261,1,10,0:1:0:0:
258,220,113640,6,0,L|247:142,1,67.5000025749208,2|0,0:2|0:0,0:0:0:0:
156,0,114020,2,0,L|165:66,1,67.5000025749208,8|0,0:2|0:0,0:0:0:0:
308,78,114400,1,0,0:0:0:0:
308,78,114590,1,10,0:1:0:0:
173,207,114780,6,0,L|187:307,1,101.250003862381,10|0,0:1|0:0,0:0:0:0:
190,317,115159,2,0,L|263:335,1,67.5000025749208,2|0,0:2|0:0,0:0:0:0:
43,377,115539,2,0,P|1:363|23:276,1,135.000005149842,10|2,0:2|0:2,0:0:0:0:
77,306,116109,1,0,0:0:0:0:
257,228,116299,6,0,P|299:214|277:127,1,135.000005149842,8|2,0:1|0:2,0:0:0:0:
23,12,117058,2,0,L|45:168,1,135.000005149842,8|0,0:2|0:0,0:0:0:0:
115,176,117628,1,8,0:1:0:0:
15,295,117818,2,0,L|99:279,1,67.5000025749208,8|0,0:1|0:0,0:0:0:0:
243,374,118197,6,0,B|236:323|199:353|194:281,1,101.250003862381,2|0,0:2|0:0,0:0:0:0:
264,258,118577,2,0,B|271:207|308:237|313:165,1,101.250003862381,10|0,0:2|0:0,0:0:0:0:
252,132,118957,2,0,L|199:125,2,33.7500012874604,2|0|0,0:2|0:0|0:0,0:0:0:0:
402,275,119337,6,0,L|485:286,1,67.5000025749208,8|0,0:1|0:0,0:0:0:0:
450,211,119716,1,0,0:0:0:0:
357,338,119906,1,8,0:2:0:0:
455,206,120096,2,0,L|466:123,1,67.5000025749208,8|8,0:2|0:2,0:0:0:0:
400,4,120476,2,0,L|385:111,1,101.250003862381,2|0,0:2|0:0,0:0:0:0:
385,114,120856,6,0,L|310:102,1,67.5000025749208,0|8,0:0|0:1,0:0:0:0:
177,186,121235,2,0,L|277:199,1,101.250003862381,8|0,0:1|0:0,0:0:0:0:
352,212,121615,1,10,0:2:0:0:
274,280,121805,1,8,0:1:0:0:
183,101,121995,2,0,P|193:62|279:49,1,121.499996292114
318,103,122374,6,0,B|397:105|362:159|461:148,1,135.000005149842,10|0,0:1|0:0,0:0:0:0:
434,68,122944,1,0,0:0:0:0:
327,181,123134,2,0,L|339:257,1,67.5000025749208,10|8,0:2|0:2,0:0:0:0:
419,290,123514,2,0,L|408:223,1,67.5000025749208,2|0,0:2|0:0,0:0:0:0:
250,370,123893,6,0,L|184:384,1,67.5000025749208,10|0,0:1|0:0,0:0:0:0:
263,258,124273,2,0,L|247:157,1,101.250003862381,2|0,0:2|0:0,0:0:0:0:
245,149,124653,2,0,L|329:131,1,67.5000025749208,10|0,0:2|0:0,0:0:0:0:
473,217,125033,2,0,P|493:186|485:149,1,67.5000025749208,2|0,0:2|0:0,0:0:0:0:
381,24,125412,6,0,L|408:180,1,135.000005149842,10|2,0:1|0:2,0:0:0:0:
352,214,125982,1,0,0:0:0:0:
471,85,126172,2,0,L|454:-8,1,67.5000025749208,10|0,0:2|0:0,0:0:0:0:
303,46,126552,2,0,L|314:112,1,67.5000025749208,2|8,0:2|0:1,0:0:0:0:
458,287,126931,6,0,B|379:292|432:356|315:354,1,135.000005149842,10|8,0:1|0:1,0:0:0:0:
276,316,127501,2,0,P|298:283|344:278,1,67.5000025749208,2|8,0:2|0:2,0:0:0:0:
471,367,127881,1,8,0:1:0:0:
387,222,128071,2,0,P|361:201|328:200,1,67.5000025749208,2|0,0:2|0:0,0:0:0:0:
179,366,128450,6,0,P|126:349|126:268,1,135.000005149842,8|0,0:1|0:0,0:0:0:0:
372,179,129210,2,0,P|425:162|425:81,1,135.000005149842,8|0,0:2|0:0,0:0:0:0:
361,100,129780,1,0,0:0:0:0:
186,14,129969,6,0,L|205:136,1,101.250003862381,8|0,0:1|0:0,0:0:0:0:
206,129,130349,2,0,L|286:115,1,67.5000025749208,10|0,0:1|0:0,0:0:0:0:
418,236,130729,1,8,0:2:0:0:
418,236,130919,1,0,0:0:0:0:
277,362,131109,2,0,L|306:247,1,101.250003862381,10|0,0:1|0:0,0:0:0:0:
328,179,131488,5,10,0:2:0:0:
204,366,131678,1,10,0:2:0:0:
359,336,131868,1,10,0:2:0:0:
170,211,132058,1,10,0:2:0:0:
154,199,132627,5,10,0:1:0:0:
191,384,132817,1,10,0:2:0:0:
377,347,133007,1,10,0:1:0:0:
340,162,133197,2,0,L|317:52,1,101.250003862381,10|0,0:2|0:0,0:0:0:0:
380,26,133577,1,8,0:3:0:0:
411,174,133767,6,0,L|469:161,1,45,8|4,0:2|0:3,0:0:0:0:
441,91,134147,2,0,L|397:100,1,45,0|8,0:0|0:3,0:0:0:0:
340,162,134526,5,14,0:1:0:0:
325,89,134716,1,2,0:2:0:0:
177,18,134906,2,0,P|134:18|105:89,1,114.750002188683,2|0,0:2|0:0,0:0:0:0:
130,148,135286,2,0,L|225:165,1,76.5000014591217,10|8,0:2|0:2,0:0:0:0:
44,255,135666,1,2,0:2:0:0:
44,255,135856,1,8,0:1:0:0:
101,75,136045,6,0,P|122:24|223:18,1,153.000002918243,10|2,0:1|0:2,0:0:0:0:
282,170,136615,2,0,L|296:260,1,76.5000014591217,2|8,0:2|0:2,0:0:0:0:
218,258,136995,2,0,L|206:182,1,76.5000014591217,2|0,0:2|0:0,0:0:0:0:
233,114,137374,1,2,0:2:0:0:
372,248,137564,6,0,L|450:235,1,76.5000014591217,8|2,0:1|0:2,0:0:0:0:
465,340,137944,2,0,L|389:352,1,76.5000014591217,2|0,0:2|0:0,0:0:0:0:
280,216,138324,1,10,0:2:0:0:
343,115,138514,1,0,0:0:0:0:
346,122,138609,1,0,0:0:0:0:
350,130,138704,2,0,L|425:117,1,76.5000014591217,2|10,0:2|0:1,0:0:0:0:
295,299,139083,5,8,0:1:0:0:
253,307,139178,1,0,0:0:0:0:
212,313,139273,1,0,0:0:0:0:
197,230,139463,1,0,0:0:0:0:
280,216,139653,1,0,0:0:0:0:
269,374,139843,5,8,0:2:0:0:
133,284,140033,1,0,0:0:0:0:
232,151,140223,2,0,L|221:55,1,76.5000014591217
21,18,140602,5,10,0:1:0:0:
30,94,140792,1,2,0:2:0:0:
150,226,140982,2,0,P|123:284|59:289,1,114.750002188683,2|0,0:2|0:0,0:0:0:0:
19,247,141362,2,0,P|36:180|135:171,1,153.000002918243,10|2,0:2|0:2,0:0:0:0:
167,106,141931,1,8,0:1:0:0:
230,254,142121,6,0,P|251:272|303:273,1,76.5000014591217,10|0,0:1|0:0,0:0:0:0:
355,221,142501,1,2,0:2:0:0:
414,96,142691,2,0,P|387:105|361:149,1,76.5000014591217,2|8,0:2|0:2,0:0:0:0:
280,38,143071,2,0,P|268:62|280:113,1,76.5000014591217,2|0,0:2|0:0,0:0:0:0:
497,211,143450,5,2,0:2:0:0:
500,204,143545,1,0,0:0:0:0:
504,197,143640,2,0,P|479:185|428:197,1,76.5000014591217,8|2,0:1|0:2,0:0:0:0:
404,267,144020,1,2,0:2:0:0:
452,330,144210,1,8,0:2:0:0:
262,376,144400,5,10,0:2:0:0:
291,244,144590,1,8,0:2:0:0:
320,112,144780,2,0,L|419:94,1,76.5000014591217,2|10,0:2|0:1,0:0:0:0:
189,274,145159,5,8,0:1:0:0:
108,249,145349,1,0,0:0:0:0:
133,168,145539,1,8,0:1:0:0:
213,193,145729,1,0,0:0:0:0:
41,288,145919,1,8,0:2:0:0:
52,88,146109,6,0,B|136:74|136:74|142:67|142:67|236:53,1,170.999995433807,8|8,0:1|0:2,0:0:0:0:
342,173,146678,5,10,0:1:0:0:
342,173,146868,1,2,0:2:0:0:
206,270,147058,2,0,P|160:254|141:186,1,114.750002188683,2|0,0:2|0:0,0:0:0:0:
195,142,147438,2,0,B|276:130|239:73|331:61,1,153.000002918243,10|2,0:2|0:2,0:0:0:0:
382,110,148007,1,8,0:1:0:0:
227,2,148197,6,0,P|151:12|128:84,1,153.000002918243,10|2,0:1|0:2,0:0:0:0:
13,211,148767,2,0,L|94:199,1,76.5000014591217,2|8,0:2|0:2,0:0:0:0:
213,268,149147,2,0,L|225:349,1,76.5000014591217,2|0,0:2|0:0,0:0:0:0:
40,384,149526,5,2,0:2:0:0:
40,384,149621,1,0,0:0:0:0:
40,384,149716,2,0,P|49:334|142:291,2,153.000002918243,10|2|10,0:1|0:2|0:2,0:0:0:0:
264,174,150856,2,0,L|252:98,1,76.5000014591217,2|10,0:2|0:1,0:0:0:0:
357,320,151235,5,8,0:1:0:0:
438,295,151425,1,0,0:0:0:0:
413,214,151615,1,8,0:1:0:0:
333,239,151805,1,0,0:0:0:0:
416,368,151995,1,8,0:2:0:0:
485,229,152185,2,0,L|495:146,1,76.5000014591217
377,26,152564,5,2,0:2:0:0:
377,26,152658,1,0,0:0:0:0:
377,26,152754,1,10,0:1:0:0:
362,100,152944,1,2,0:2:0:0:
485,229,153134,2,0,L|367:212,1,114.750002188683,2|0,0:2|0:0,0:0:0:0:
306,250,153514,6,0,P|315:297|413:324,1,153.000002918243,10|2,0:2|0:2,0:0:0:0:
208,379,154083,2,0,L|224:295,1,76.5000014591217,2|8,0:2|0:1,0:0:0:0:
327,97,154463,2,0,L|312:172,1,76.5000014591217,2|0,0:2|0:0,0:0:0:0:
242,199,154843,1,2,0:2:0:0:
394,59,155033,2,0,L|469:73,1,76.5000014591217,10|2,0:2|0:2,0:0:0:0:
242,199,155412,2,0,L|105:171,1,114.750002188683,2|0,0:2|0:0,0:0:0:0:
52,156,155792,6,0,B|53:75|109:111|111:13,1,153.000002918243,8|0,0:1|0:0,0:0:0:0:
30,0,156362,1,8,0:2:0:0:
169,108,156552,1,8,0:2:0:0:
186,37,156742,1,8,0:2:0:0:
53,158,156931,2,0,L|66:237,1,76.5000014591217,0|8,0:0|0:1,0:0:0:0:
269,122,157311,6,0,L|281:46,1,76.5000014591217,8|0,0:1|0:0,0:0:0:0:
284,36,157596,2,0,L|338:46,1,38.2500007295609,0|8,0:0|0:1,0:0:0:0:
110,20,157881,1,2,0:2:0:0:
103,57,157975,1,2,0:2:0:0:
96,95,158071,2,0,L|187:111,1,76.5000014591217,10|10,0:2|0:1,0:0:0:0:
338,206,158450,2,0,P|324:255|238:277,1,128.249996575356
189,262,158830,6,0,P|181:220|168:180,1,80.9999975280763,14|2,0:1|0:2,0:0:0:0:
303,49,159210,2,0,P|354:44|396:117,1,121.499996292114,2|0,0:2|0:0,0:0:0:0:
421,166,159590,2,0,L|515:151,1,80.9999975280763,10|8,0:2|0:2,0:0:0:0:
341,183,159969,1,2,0:2:0:0:
512,336,160159,6,0,P|488:273|373:282,1,161.999995056153,10|2,0:1|0:2,0:0:0:0:
202,366,160729,1,0,0:0:0:0:
283,307,160919,1,2,0:2:0:0:
169,183,161109,2,0,P|160:136|149:89,1,80.9999975280763,8|0,0:2|0:0,0:0:0:0:
231,88,161488,2,0,P|238:127|247:167,1,80.9999975280763
124,329,161868,5,10,0:1:0:0:
105,254,162058,1,2,0:2:0:0:
247,167,162248,2,0,L|335:180,1,80.9999975280763,2|0,0:2|0:0,0:0:0:0:
156,35,162628,2,0,P|102:21|38:99,1,161.999995056153,10|2,0:2|0:2,0:0:0:0:
105,254,163197,5,10,0:1:0:0:
56,312,163387,1,8,0:1:0:0:
28,283,163481,1,0,0:0:0:0:
28,243,163576,1,2,0:2:0:0:
160,201,163767,2,0,P|185:233|177:279,1,80.9999975280763,0|2,0:0|0:2,0:0:0:0:
12,380,164147,1,8,0:2:0:0:
12,380,164337,1,0,0:0:0:0:
12,380,164526,1,0,0:0:0:0:
235,92,164906,6,0,L|323:105,1,80.9999975280763,10|2,0:1|0:2,0:0:0:0:
490,225,165286,2,0,P|467:266|372:267,1,121.499996292114,2|0,0:2|0:0,0:0:0:0:
375,211,165666,2,0,L|398:41,1,161.999995056153,10|2,0:2|0:2,0:0:0:0:
296,203,166235,6,0,L|285:283,1,80.9999975280763,10|8,0:1|0:1,0:0:0:0:
461,147,166615,2,0,L|471:66,1,80.9999975280763,2|0,0:2|0:0,0:0:0:0:
444,0,166995,1,2,0:2:0:0:
307,98,167185,1,8,0:2:0:0:
490,225,167374,2,0,P|465:280|361:289,1,161.999995056153,2|0,0:2|0:0,0:0:0:0:
285,283,167849,1,0,0:0:0:0:
285,283,167944,6,0,L|296:203,1,80.9999975280763,10|0,0:1|0:0,0:0:0:0:
361,162,168324,1,0,0:0:0:0:
211,247,168514,1,8,0:2:0:0:
352,369,168704,2,0,L|443:380,1,80.9999975280763,8|8,0:2|0:2,0:0:0:0:
275,355,169083,1,0,0:0:0:0:
408,237,169273,6,0,L|419:149,1,80.9999975280763,10|8,0:1|0:1,0:0:0:0:
263,25,169653,2,0,L|343:35,1,80.9999975280763,2|8,0:2|0:1,0:0:0:0:
422,46,170033,1,2,0:2:0:0:
252,144,170223,1,10,0:2:0:0:
132,6,170412,6,0,B|141:99|141:99|138:104|138:104|151:229,1,188.999994232178,8|10,0:1|0:2,0:0:0:0:
89,368,170982,6,0,L|6:356,1,80.9999975280763,10|2,0:1|0:2,0:0:0:0:
31,179,171362,2,0,P|57:124|128:111,1,121.499996292114,2|0,0:2|0:0,0:0:0:0:
161,161,171742,2,0,L|174:58,1,80.9999975280763,10|0,0:2|0:0,0:0:0:0:
109,35,172121,1,2,0:2:0:0:
226,197,172311,6,0,L|319:210,1,80.9999975280763,10|8,0:1|0:1,0:0:0:0:
134,371,172691,1,2,0:2:0:0:
155,261,172881,1,0,0:0:0:0:
326,132,173071,2,0,L|339:29,1,80.9999975280763,2|8,0:2|0:2,0:0:0:0:
274,10,173450,1,0,0:0:0:0:
380,190,173640,2,0,L|363:321,1,121.499996292114
414,369,174020,5,10,0:1:0:0:
475,322,174210,1,2,0:2:0:0:
296,228,174400,2,0,L|208:248,1,80.9999975280763,2|0,0:2|0:0,0:0:0:0:
406,54,174780,2,0,P|462:71|475:132,1,121.499996292114,10|0,0:2|0:0,0:0:0:0:
475,136,175159,2,0,L|412:121,1,40.4999987640381,2|0,0:2|0:0,0:0:0:0:
273,10,175349,6,0,L|290:88,1,80.9999975280763,10|8,0:1|0:1,0:0:0:0:
216,244,175729,1,2,0:2:0:0:
207,204,175823,1,0,0:0:0:0:
198,165,175918,1,8,0:1:0:0:
296,228,176109,1,2,0:2:0:0:
191,317,176299,5,8,0:2:0:0:
118,291,176488,1,0,0:0:0:0:
143,219,176678,1,0,0:0:0:0:
216,244,176868,1,0,0:0:0:0:
373,362,177058,6,0,L|469:335,1,80.9999975280763,10|2,0:1|0:2,0:0:0:0:
296,228,177438,2,0,L|257:89,1,121.499996292114,2|0,0:2|0:0,0:0:0:0:
281,34,177818,2,0,B|366:41|336:110|435:100,1,161.999995056153,10|2,0:2|0:2,0:0:0:0:
408,276,178387,6,0,L|330:297,1,80.9999975280763,2|8,0:2|0:1,0:0:0:0:
490,156,178767,2,0,P|514:115|500:68,1,80.9999975280763,2|0,0:2|0:0,0:0:0:0:
509,83,179052,1,0,0:0:0:0:
509,83,179147,1,2,0:2:0:0:
355,13,179337,1,8,0:2:0:0:
355,13,179526,1,2,0:2:0:0:
322,206,179716,2,0,B|244:189|244:189|212:142,1,107.999996704102
160,94,180096,6,0,B|160:193|219:132|200:259,1,161.999995056153,10|0,0:1|0:0,0:0:0:0:
242,307,180666,1,8,0:2:0:0:
123,218,180856,1,8,0:2:0:0:
104,286,181045,1,8,0:2:0:0:
228,165,181235,2,0,L|325:148,1,80.9999975280763,0|8,0:0|0:1,0:0:0:0:
61,8,181615,6,0,L|55:69,1,40.4999987640381,10|2,0:1|0:2,0:0:0:0:
102,111,181805,1,2,0:2:0:0:
109,113,181900,1,0,0:0:0:0:
117,114,181995,2,0,L|111:175,1,40.4999987640381,10|2,0:1|0:2,0:0:0:0:
38,195,182185,2,0,L|41:154,1,40.4999987640381,2|0,0:2|0:0,0:0:0:0:
165,24,182374,5,10,0:2:0:0:
172,34,182468,1,2,0:2:0:0:
179,42,182564,2,0,L|263:31,1,80.9999975280763,2|2,0:0|0:0,0:0:0:0:
304,96,182849,1,2,0:0:0:0:
307,114,182944,2,0,L|318:186,1,40.4999987640381,2|0,0:0|0:0,0:0:0:0:
425,69,183134,6,0,B|460:36|529:52|543:84|559:133|534:188|496:229|442:247|368:212|315:242|305:307,1,450,6|0,0:1|0:0,0:0:0:0:
307,294,185159,6,0,L|234:280,1,60
235,355,185539,2,0,L|293:366,1,60
301,373,185919,1,0,0:0:0:0:
143,159,186172,6,0,P|150:133|156:91,1,67.5,2|0,0:2|0:0,0:0:0:0:
231,109,186552,2,0,P|221:141|217:174,1,67.5
205,264,186931,6,0,B|198:211|145:181|70:216|17:198|-21:157|-46:102|-29:53|-15:21|53:5|88:37,1,450
231,100,189210,6,0,P|205:179|166:364,1,270,2|0,0:2|0:0,0:0:0:0:
166,361,190539,1,0,0:0:0:0:
166,361,190729,2,0,P|230:346|300:342,1,135
351,283,191488,2,0,P|407:298|416:328,1,90
274,154,192248,6,0,L|267:87,1,60,2|0,0:2|0:0,0:0:0:0:
258,18,192723,2,0,B|326:6|369:80|369:80|406:141|444:153|491:149|538:120|530:51|495:37|467:22|445:25|421:53,1,427.5
264,97,194716,2,0,L|209:113,2,45
196,222,195286,6,0,B|135:211|96:278|96:278|63:333|29:343|-14:340|-56:314|-49:252|-17:239|8:226|28:228|60:229|92:250|146:267|182:346,1,540,2|0,0:2|0:0,0:0:0:0:
307,184,197754,2,0,L|362:200,2,45
219,16,198324,6,0,B|205:101|219:214|339:95|392:242|346:340|338:358|279:390|217:388|174:348|139:303|154:218|242:178,1,630,2|0,0:2|0:0,0:0:0:0:
457,33,201362,6,0,L|515:19,2,45,2|0|0,0:2|0:0|0:0,0:0:0:0:
414,99,201931,2,0,L|303:78,1,90
464,162,202501,6,0,L|522:148,2,45
374,231,203071,2,0,L|357:288,2,45
356,114,203640,2,0,L|315:71,2,45
356,114,204210,1,0,0:0:0:0:
356,114,204400,6,0,B|381:69|426:72|466:97|471:143|449:170|410:199|366:178|327:190|306:243|306:243|315:189|286:157|235:160|212:115|204:81|229:42|275:36|325:52|320:104|320:104|266:107|165:164|84:213|30:278|14:381,1,1035,2|0,0:2|0:0,0:0:0:0:
