osu file format v14

[General]
AudioFilename: audio.mp3
AudioLeadIn: 0
PreviewTime: -1
Countdown: 1
SampleSet: Normal
StackLeniency: 0.7
Mode: 0
LetterboxInBreaks: 0
WidescreenStoryboard: 0

[Editor]
DistanceSpacing: 3
BeatDivisor: 4
GridSize: 32
TimelineZoom: 1.5

[Metadata]
Title:the WORLD (TV size)
TitleUnicode:the WORLD (TV size)
Artist:NIGHTMARE
ArtistUnicode:NIGHTMARE
Creator:JumpTwiice
Version:Insane
Source:DEATH NOTE
Tags:death note opening 1
BeatmapID:1329008
BeatmapSetID:629522

[Difficulty]
HPDrainRate:5
CircleSize:4
OverallDifficulty:7
ApproachRate:9.3
SliderMultiplier:1.9
SliderTickRate:1

[Events]
//Background and Video events
0,0,"Kira Light Yagami Death Note.jpg",0,0
//Break Periods
2,15465,22448
//Storyboard Layer 0 (Background)
//Storyboard Layer 1 (Fail)
//Storyboard Layer 2 (Pass)
//Storyboard Layer 3 (Foreground)
//Storyboard Sound Samples

[TimingPoints]
1213,315.789473684211,4,1,0,100,1,0
2634,-100,4,2,1,100,0,1
12739,-100,4,1,0,100,0,0
23949,-153.846153846153,4,1,0,100,0,0
24739,-111.111111111111,4,1,0,100,0,0
35634,-133.333333333333,4,1,0,100,0,0
40686,-111.111111111111,4,1,0,100,0,0
51897,-100,4,1,0,100,0,1
61686,-100,4,1,0,100,0,0
68318,-111.111111111111,4,1,0,100,0,0
70700,342.857142857143,4,1,1,100,1,0
70871,-100,4,1,0,100,0,0
71214,315.789473684211,4,1,1,100,1,0
72319,315.789473684211,4,1,1,100,1,0

[HitObjects]
121,50,1370,5,0,3:0:0:0:
141,191,1686,5,0,3:0:0:0:
253,103,1844,1,0,3:0:0:0:
273,244,2002,1,0,3:0:0:0:
273,244,2635,6,0,P|313:322|414:313,1,190,0|0,0:0|0:0,0:0:0:0:
477,145,3108,1,0,2:2:0:0:
356,252,3266,1,0,0:0:0:0:
243,149,3424,2,0,B|203:128|144:129,1,95,0|0,0:0|0:0,0:0:0:0:
78,262,3739,1,0,0:0:0:0:
28,60,3898,6,0,B|91:63|91:63|156:50|156:50|220:54,1,190,0|0,0:0|0:0,0:0:0:0:
379,82,4370,1,0,3:2:0:0:
234,169,4528,1,0,0:0:0:0:
418,186,4686,2,0,P|414:234|401:280,2,95,0|0|0,0:0|0:0|0:0,0:0:0:0:
454,344,5161,6,0,P|360:350|321:268,1,190,0|0,0:0|0:0,0:0:0:0:
308,115,5635,1,0,3:2:0:0:
213,244,5791,1,0,0:0:0:0:
66,151,5950,2,0,L|159:136,1,95,0|0,0:0|0:0,0:0:0:0:
308,115,6266,1,0,0:0:0:0:
441,192,6424,6,0,P|350:193|307:114,1,190,0|0,0:0|0:0,0:0:0:0:
213,244,6897,2,0,L|120:259,1,95,0|0,0:0|0:0,0:0:0:0:
212,149,7214,1,0,0:0:0:0:
340,310,7370,1,0,0:0:0:0:
394,121,7529,1,0,0:0:0:0:
340,310,7687,6,0,L|138:339,1,190
126,161,8161,1,0,0:0:0:0:
289,229,8319,1,0,0:0:0:0:
151,337,8477,2,0,L|25:354,2,95
289,229,8950,6,0,P|379:230|423:151,1,190
257,133,9424,2,0,P|208:128|131:150,1,95
214,261,9740,1,0,0:0:0:0:
339,162,9897,2,0,P|338:112|308:38,1,95,0|0,0:0|0:0,0:0:0:0:
59,208,10213,6,0,B|122:204|122:204|185:185|185:185|249:181,1,190
491,221,10687,2,0,L|365:238,1,95
291,330,11002,1,0,0:0:0:0:
495,340,11161,5,0,0:0:0:0:
393,143,11318,1,0,0:0:0:0:
291,330,11476,2,0,L|85:354,1,190
10,267,11949,2,0,L|198:245,1,190
312,109,12423,5,0,0:0:0:0:
413,230,12581,1,0,0:0:0:0:
67,144,12739,1,0,0:0:0:0:
256,192,12818,12,0,15265,0:0:0:0:
197,280,23002,5,0,0:0:0:0:
263,100,23160,1,0,0:0:0:0:
329,280,23476,5,0,0:0:0:0:
263,100,23634,1,0,0:0:0:0:
135,116,23949,6,0,B|175:100|204:99|230:107|273:140|289:150|313:151|331:137|343:123|344:100|336:77|320:64|297:61|278:67|263:81|257:102|263:124,1,308.749985866547
182,190,24897,1,0,0:0:0:0:
182,190,25055,1,0,0:0:0:0:
446,311,25370,6,0,L|246:326,1,170.999994781494,0|0,0:0|0:0,0:0:0:0:
382,218,25844,2,0,P|427:187|461:134,1,85.4999973907472,0|0,0:0|0:0,0:0:0:0:
252,220,26160,1,0,0:0:0:0:
320,95,26318,1,0,0:0:0:0:
252,220,26476,2,0,P|208:239|165:245,1,85.4999973907472,0|0,0:0|0:0,0:0:0:0:
100,114,26791,1,0,0:0:0:0:
45,245,26949,1,0,0:0:0:0:
186,163,27107,2,0,P|229:144|274:139,1,85.4999973907472,0|0,0:0|0:0,0:0:0:0:
316,277,27423,2,0,L|432:304,1,85.4999973907472,0|0,0:0|0:0,0:0:0:0:
178,289,27739,1,0,0:0:0:0:
224,358,27897,6,0,P|133:359|94:288,1,170.999994781494
160,174,28370,2,0,L|253:209,1,85.4999973907472,0|0,0:0|0:0,0:0:0:0:
175,91,28686,2,0,P|128:97|82:135,1,85.4999973907472,0|0,0:0|0:0,0:0:0:0:
336,219,29002,1,0,0:0:0:0:
461,135,29160,2,0,B|407:142|407:142|342:136|342:136|291:141,1,170.999994781494
220,303,29634,2,0,P|272:317|329:317,1,85.4999973907472
292,142,29949,1,0,0:0:0:0:
159,250,30107,1,0,0:0:0:0:
127,79,30265,1,0,0:0:0:0:
81,278,30423,6,0,P|152:332|234:281,1,170.999994781494,0|0,0:3|0:3,0:3:0:0:
286,205,30897,2,0,P|331:219|367:244,1,85.4999973907472,0|0,0:0|0:0,0:0:0:0:
159,250,31213,1,0,0:0:0:0:
286,205,31370,1,0,0:0:0:0:
214,81,31528,2,0,P|159:74|105:91,1,85.4999973907472,0|0,0:0|0:0,0:0:0:0:
208,195,31844,1,0,0:0:0:0:
325,114,32002,1,0,0:0:0:0:
369,247,32160,2,0,L|350:349,1,85.4999973907472,0|0,0:0|0:0,0:0:0:0:
471,259,32476,2,0,L|454:168,1,85.4999973907472,0|0,0:0|0:0,0:0:0:0:
362,57,32791,1,0,0:0:0:0:
291,239,32949,6,0,L|96:263,1,170.999994781494,0|0,0:0|0:0,0:0:0:0:
269,327,33423,2,0,P|329:316|378:278,1,85.4999973907472
398,180,33739,1,0,0:0:0:0:
291,239,33897,1,0,0:0:0:0:
474,272,34055,2,0,L|501:152,1,85.4999973907472
415,96,34370,2,0,L|397:180,1,85.4999973907472
242,82,34686,1,0,0:0:0:0:
111,111,34844,5,0,0:0:0:0:
111,111,34923,1,0,0:0:0:0:
111,111,35002,1,0,0:0:0:0:
244,324,35160,1,0,0:0:0:0:
242,82,35318,5,0,0:0:0:0:
132,360,35476,1,0,0:0:0:0:
308,121,35634,6,0,L|448:97,1,142.500005435944,0|0,0:0|0:0,0:0:0:0:
411,197,36107,1,0,0:0:0:0:
370,295,36265,2,0,L|282:310,1,71.2500027179719
233,220,36581,2,0,L|321:205,1,71.2500027179719
228,317,36897,2,0,L|140:332,1,71.2500027179719
91,242,37213,2,0,L|179:227,1,71.2500027179719
303,208,37528,2,0,L|318:277,1,71.2500027179719
453,106,37844,2,0,L|437:36,1,71.2500027179719
272,31,38160,6,0,B|241:9|241:9|137:20,1,142.500005435944,0|0,0:3|0:3,0:3:0:0:
57,76,38634,1,0,0:0:0:0:
92,176,38791,2,0,L|184:205,1,71.2500027179719
226,88,39107,2,0,L|121:100,1,71.2500027179719
256,175,39423,2,0,L|348:204,1,71.2500027179719
390,87,39739,2,0,L|285:99,1,71.2500027179719
419,269,40055,1,0,0:0:0:0:
419,269,40686,6,0,B|229:278,1,170.999994781494,0|0,0:0|0:0,0:0:0:0:
57,169,41160,1,0,0:0:0:0:
139,317,41318,1,0,0:0:0:0:
9,279,41476,1,0,0:0:0:0:
160,204,41634,2,0,P|187:178|214:136,1,85.4999973907472
295,40,41949,1,0,0:0:0:0:
316,198,42107,1,0,0:0:0:0:
389,119,42265,2,0,L|499:106,1,85.4999973907472,0|0,0:0|0:0,0:0:0:0:
295,40,42581,2,0,L|185:27,2,85.4999973907472
255,235,43055,6,0,L|79:214,1,170.999994781494,0|0,0:0|0:0,0:0:0:0:
209,130,43528,2,0,L|323:142,1,85.4999973907472
464,228,43844,2,0,L|351:238,1,85.4999973907472
203,328,44160,2,0,L|288:335,1,85.4999973907472
58,199,44476,1,0,0:0:0:0:
38,293,44634,1,0,0:0:0:0:
147,193,44791,6,0,P|131:154|95:115,1,85.4999973907472
38,293,45107,2,0,P|73:315|125:325,1,85.4999973907472
227,186,45423,1,0,0:0:0:0:
131,46,45581,6,0,P|50:61|21:138,1,170.999994781494,0|0,0:3|0:3,0:3:0:0:
227,186,46055,2,0,P|272:191|323:178,1,85.4999973907472,0|0,0:0|0:0,0:0:0:0:
407,54,46370,1,0,0:0:0:0:
382,214,46528,1,0,0:0:0:0:
473,131,46686,1,0,0:0:0:0:
321,107,46844,1,0,0:0:0:0:
409,41,47002,5,0,0:0:0:0:
380,228,47160,1,0,0:0:0:0:
235,149,47318,2,0,P|182:153|148:174,1,85.4999973907472,0|0,0:0|0:0,0:0:0:0:
88,296,47634,2,0,P|141:292|175:271,1,85.4999973907472,0|0,0:0|0:0,0:0:0:0:
69,194,47949,1,0,0:0:0:0:
241,340,48107,6,0,L|418:297,1,170.999994781494,0|0,0:0|0:0,0:0:0:0:
227,210,48581,1,0,0:0:0:0:
332,80,48739,1,0,0:0:0:0:
252,248,48897,1,0,0:0:0:0:
275,79,49055,1,0,0:0:0:0:
286,273,49213,1,0,0:3:0:0:
477,175,49370,6,0,B|426:185|426:185|361:185|361:185|308:196,1,170.999994781494
252,248,49844,1,0,0:3:0:0:
113,323,50160,1,0,0:0:0:0:
118,100,50634,6,0,L|34:119,1,85.4999973907472,0|0,0:3|0:3,0:3:0:0:
138,188,50950,1,0,0:0:0:0:
191,10,51107,1,0,0:3:0:0:
34,119,51265,1,0,0:0:0:0:
368,204,51897,6,0,P|325:124|235:128,1,190,0|0,0:0|0:0,0:0:0:0:
164,302,52370,1,0,0:0:0:0:
285,195,52528,1,0,0:0:0:0:
348,330,52686,2,0,B|388:351|439:350,1,95,0|0,0:0|0:0,0:0:0:0:
470,204,53002,1,0,0:0:0:0:
292,271,53160,6,0,L|104:304,1,190,0|0,0:0|0:0,0:0:0:0:
66,143,53634,1,0,0:0:0:0:
219,196,53791,1,0,0:0:0:0:
353,105,53949,2,0,P|411:86|462:79,2,95
337,24,54423,6,0,P|273:91|314:175,1,190
352,256,54897,1,0,0:0:0:0:
194,284,55055,1,0,0:0:0:0:
326,357,55213,2,0,P|371:373|418:382,1,95,0|0,0:0|0:0,0:0:0:0:
352,256,55528,1,0,0:0:0:0:
479,168,55686,6,0,P|388:174|352:257,1,190
208,271,56160,2,0,P|158:264|87:227,1,95
250,197,56476,1,0,0:0:0:0:
332,375,56635,1,0,0:0:0:0:
130,337,56791,1,0,0:0:0:0:
249,196,56949,6,0,B|312:199|312:199|377:186|377:186|438:190,1,190
293,74,57423,1,0,0:0:0:0:
167,162,57581,1,0,0:0:0:0:
378,269,57739,2,0,L|499:279,2,95
242,195,58213,6,0,P|224:102|134:84,1,190
118,279,58686,2,0,P|167:284|244:262,1,95
328,208,59002,1,0,0:0:0:0:
167,162,59160,2,0,P|118:157|41:179,1,95
197,355,59476,6,0,L|399:315,1,190
462,181,59949,2,0,P|415:165|335:169,1,95
174,167,60265,1,0,0:0:0:0:
374,55,60423,5,0,0:0:0:0:
339,247,60581,1,0,0:0:0:0:
174,167,60739,2,0,L|-14:191,1,190
150,271,61213,2,0,L|338:247,1,190
412,64,61686,2,0,L|298:80,1,95
48,78,62002,6,0,B|110:67|110:67|170:41|170:41|234:31,1,190
336,176,62476,1,0,0:0:0:0:
192,126,62634,1,0,0:0:0:0:
220,274,62791,2,0,L|184:362,1,95
336,176,63107,1,0,0:0:0:0:
192,126,63265,6,0,P|102:136|67:220,1,190
208,296,63739,1,0,0:0:0:0:
284,88,63897,1,0,0:0:0:0:
152,199,64055,1,0,0:0:0:0:
305,252,64213,1,0,0:0:0:0:
284,88,64370,1,0,0:0:0:0:
350,328,64528,6,0,P|384:244|329:173,1,190
152,117,65002,1,0,0:0:0:0:
266,9,65160,1,0,0:0:0:0:
328,172,65318,2,0,P|376:169|421:154,1,95
445,6,65634,1,0,0:0:0:0:
328,172,65791,6,0,L|140:196,1,190
16,131,66265,1,0,0:0:0:0:
232,78,66423,1,0,0:0:0:0:
47,247,66581,1,0,0:0:0:0:
16,131,66739,1,0,0:0:0:0:
150,282,66897,1,0,0:0:0:0:
404,271,67055,6,0,B|342:257|342:257|283:229|283:229|222:218,1,190
372,354,67528,2,0,P|420:351|465:336,1,95
246,306,67844,2,0,P|198:309|153:324,1,95
364,179,68160,1,0,0:0:0:0:
377,98,68318,6,0,P|432:131|435:221,1,128.249996086121
438,216,68634,2,0,L|515:254,1,85.4999973907472
426,320,68949,1,0,0:0:0:0:
426,320,69028,1,0,0:0:0:0:
426,320,69107,2,0,L|299:304,2,128.249996086121
307,222,69739,2,0,P|250:239|219:319,2,128.249996086121
118,133,70871,6,0,P|84:217|139:288,1,190
328,185,71371,1,0,0:0:0:0:
169,204,71529,1,0,0:0:0:0:
378,256,71687,1,0,0:0:0:0:
230,53,71845,1,0,0:0:0:0:
263,276,72003,1,0,0:0:0:0:
356,100,72161,6,0,P|412:171|379:256,1,190
243,371,72634,1,0,0:0:0:0:
178,227,72792,1,0,0:0:0:0:
364,340,72950,1,0,0:0:0:0:
146,321,73108,1,0,0:0:0:0:
378,256,73266,1,0,0:0:0:0:
273,173,73424,6,0,L|69:184,1,190
187,56,73897,1,0,0:0:0:0:
234,263,74055,1,0,0:0:0:0:
347,172,74213,1,0,0:0:0:0:
187,56,74371,1,0,0:0:0:0:
316,258,74529,1,0,0:0:0:0:
180,326,74687,6,0,P|274:333|316:252,1,190
184,211,75161,5,0,0:0:0:0:
412,193,75319,1,0,0:0:0:0:
171,126,75476,5,0,0:0:0:0:
414,199,75634,1,0,0:0:0:0:
164,43,75792,5,0,0:0:0:0:
417,205,75950,1,0,0:0:0:0:
187,309,76108,5,0,0:0:0:0:
42,247,76266,1,0,0:0:0:0:
306,216,76582,5,0,0:0:0:0:
161,154,76740,1,0,0:0:0:0:
366,66,77055,5,0,0:0:0:0:
256,192,77134,12,0,79108,0:0:0:0:
