osu file format v14

[General]
AudioFilename: OP.mp3
AudioLeadIn: 0
PreviewTime: 2099
Countdown: 0
SampleSet: Soft
StackLeniency: 0.7
Mode: 0
LetterboxInBreaks: 0
WidescreenStoryboard: 1

[Editor]
Bookmarks: 279,2805,7857,12910,17963,23015,25542,30594,35647,40700,45752,50805,52068,57121,62173,67226,71055,76107
DistanceSpacing: 0.9
BeatDivisor: 4
GridSize: 4
TimelineZoom: 1.9

[Metadata]
Title:the WORLD (TV Size)
TitleUnicode:the WORLD (TV Size)
Artist:NIGHTMARE
ArtistUnicode:ナイトメア
Creator:Andrea
Version:Normal
Source:DEATH NOTE
Tags:Anime Japanese Opening OP Rock JRock J-Rock デスノート DEATHNOTE Light Yagami 夜神月 Misa Amane 弥海砂 MisaMisa ミサミサ Ryuk リューク L Near Mello Teru Mikami Rem レム osuplayer111 Sekai Sekaii Sekai-nyan Kowari -_Ex_- - Ex - Zekk
BeatmapID:3671204
BeatmapSetID:1786447

[Difficulty]
HPDrainRate:4
CircleSize:3
OverallDifficulty:4
ApproachRate:6
SliderMultiplier:1.2
SliderTickRate:1

[Events]
//Background and Video events
Video,160,"Video.mp4"
0,0,"L And Kira.jpg",0,0
//Break Periods
//Storyboard Layer 0 (Background)
//Storyboard Layer 1 (Fail)
//Storyboard Layer 2 (Pass)
//Storyboard Layer 3 (Foreground)
//Storyboard Layer 4 (Overlay)
//Storyboard Sound Samples

[TimingPoints]
269,315.789473684211,4,2,1,50,1,0
269,-100,4,2,1,50,0,0
1216,-100,4,2,1,5,0,0
1374,-100,4,2,1,70,0,0
2163,-100,4,2,1,50,0,0
2637,-100,4,2,1,80,0,1
4216,-100,4,2,1,80,0,1
12742,-100,4,2,1,70,0,0
13532,-100,4,2,1,70,0,0
16058,-100,4,2,1,70,0,0
16690,-100,4,2,1,70,0,0
17321,-100,4,2,1,70,0,0
18584,-100,4,2,1,70,0,0
19216,-100,4,2,1,70,0,0
19847,-100,4,2,1,70,0,0
21111,-100,4,2,1,70,0,0
21742,-100,4,2,1,70,0,0
23005,-100,4,2,1,70,0,0
23953,-100,4,2,1,70,0,0
24742,-100,4,2,1,5,0,0
24900,-100,4,2,1,70,0,0
25058,-100,4,2,1,70,0,0
25374,-100,4,2,1,70,0,0
27347,-100,4,2,1,5,0,0
27426,-100,4,2,1,70,0,0
34294,-100,4,2,1,5,0,0
34374,-100,4,2,1,70,0,0
35637,-100,4,2,1,60,0,0
40058,-100,4,2,1,70,0,0
40926,-100,4,2,1,5,0,0
41005,-100,4,2,1,70,0,0
41637,-100,4,2,1,70,0,0
44479,-100,4,2,1,70,0,0
46374,-100,4,2,1,70,0,0
47005,-100,4,2,1,70,0,0
50637,-100,4,2,1,70,0,0
50873,-100,4,2,1,5,0,0
50953,-100,4,2,1,70,0,0
51426,-100,4,2,1,50,0,0
51900,-100,4,2,1,80,0,1
52136,-100,4,2,1,5,0,1
52216,-100,4,2,1,80,0,1
54742,-100,4,2,1,80,0,1
55136,-100,4,2,1,5,0,1
55216,-100,4,2,1,80,0,1
56005,-100,4,2,1,80,0,1
56399,-100,4,2,1,5,0,1
56479,-100,4,2,1,80,0,1
57189,-100,4,2,1,5,0,1
57269,-100,4,2,1,80,0,1
61452,-100,4,2,1,5,0,1
61532,-100,4,2,1,80,0,1
62005,-100,4,2,1,70,0,0
70700,342.857142857143,4,2,1,70,1,0
71214,315.789473684211,4,2,1,70,1,0
72319,315.789473684211,4,2,1,70,1,0
77134,-100,4,2,1,5,0,0
79108,-100,4,2,1,5,0,0

[Colours]
Combo1 : 255,128,128
Combo2 : 0,128,255
Combo3 : 255,0,0
Combo4 : 128,191,255

[HitObjects]
76,328,1374,6,0,P|116:288|132:216,1,120,8|8,0:0|0:0,0:0:0:0:
148,176,1847,1,8,0:0:0:0:
148,176,2005,1,8,0:0:0:0:
340,36,2637,6,0,P|404:24|456:56,1,120,4|2,1:0|1:0,0:0:0:0:
476,96,3111,1,8,0:0:0:0:
448,200,3426,1,0,1:0:0:0:
448,200,3584,2,0,P|400:184|328:180,1,120,2|4,1:0|1:0,0:0:0:0:
268,268,4216,1,2,1:0:0:0:
268,268,4374,1,8,0:0:0:0:
164,240,4690,5,0,1:0:0:0:
164,240,4847,2,0,P|128:196|112:120,1,120,2|4,1:0|1:0,0:0:0:0:
168,44,5479,1,2,1:0:0:0:
168,44,5637,1,8,0:0:0:0:
272,80,5953,1,0,1:0:0:0:
272,80,6111,1,2,1:0:0:0:
376,112,6426,6,0,P|352:164|368:292,1,180,4|8,1:0|0:0,0:0:0:0:
272,344,7216,2,0,L|204:328,1,60,2|0,1:0|1:0,0:0:0:0:
160,316,7532,1,8,0:0:0:0:
160,316,7690,6,0,B|120:304|104:284|104:284|44:288,1,120,4|2,1:0|1:0,0:0:0:0:
8,252,8163,1,8,0:0:0:0:
64,160,8479,1,0,1:0:0:0:
64,160,8637,2,0,P|100:128|108:56,1,120,2|4,1:0|1:0,0:0:0:0:
216,32,9269,5,2,1:0:0:0:
216,32,9426,2,0,P|274:35|316:77,1,120,8|0,0:0|1:0,0:0:0:0:
340,124,9900,1,2,1:0:0:0:
268,204,10216,1,4,1:0:0:0:
328,296,10532,1,2,1:0:0:0:
328,296,10690,2,0,P|376:288|432:240,1,120,8|0,0:0|1:0,0:0:0:0:
464,200,11163,2,0,L|424:144,1,60,2|8,1:0|0:0,0:0:0:0:
396,108,11479,6,0,P|368:64|304:40,1,120,4|2,1:0|1:0,0:0:0:0:
252,52,11953,1,8,0:0:0:0:
216,156,12269,2,0,L|196:216,1,60,2|8,0:0|0:0,0:0:0:0:
180,264,12584,1,8,0:0:0:0:
180,264,12742,6,0,P|120:296|28:248,1,180,4|10,1:0|0:0,0:0:0:0:
52,140,13532,2,0,L|72:72,1,60,2|0,1:0|1:0,0:0:0:0:
84,32,13847,1,10,0:0:0:0:
168,100,14163,1,2,1:0:0:0:
264,52,14479,1,10,0:0:0:0:
336,132,14795,2,0,P|376:144|428:204,1,120,2|8,1:0|0:0,0:0:0:0:
436,256,15269,6,0,B|376:268|376:268|344:312|344:312|280:324,1,180,4|10,1:0|0:0,0:0:0:0:
180,280,16058,2,0,L|208:228,1,60,2|0,1:0|1:0,0:0:0:0:
232,180,16374,1,10,0:0:0:0:
192,80,16690,1,2,1:0:0:0:
108,144,17005,1,10,0:0:0:0:
60,48,17321,2,0,P|32:92|16:160,1,120,2|8,1:0|0:0,0:0:0:0:
32,208,17795,6,0,P|92:228|152:324,1,180,4|10,1:0|0:0,0:0:0:0:
260,304,18584,2,0,L|312:332,2,60,2|0|10,1:0|1:0|0:0,0:0:0:0:
252,196,19216,2,0,L|200:168,1,60,2|0,1:0|1:0,0:0:0:0:
152,144,19532,1,10,0:0:0:0:
184,40,19847,1,2,1:0:0:0:
280,88,20163,1,8,0:0:0:0:
280,88,20321,6,0,P|348:48|444:76,1,180,6|10,1:0|0:0,0:0:0:0:
480,172,21111,2,0,L|464:236,1,60,2|0,1:0|1:0,0:0:0:0:
452,284,21426,1,10,0:0:0:0:
360,228,21742,1,2,1:0:0:0:
308,324,22058,6,0,P|260:348|188:340,1,120,6|8,1:0|0:0,0:0:0:0:
164,300,22532,1,8,0:0:0:0:
164,300,22690,2,0,L|136:232,1,60,8|8,0:0|0:0,0:0:0:0:
120,196,23005,5,6,1:0:0:0:
120,196,23163,1,0,1:0:0:0:
156,96,23479,1,0,1:0:0:0:
156,96,23637,1,10,0:0:0:0:
248,152,23953,1,6,1:0:0:0:
504,352,24900,1,8,0:0:0:0:
504,352,25058,1,0,1:0:0:0:
428,276,25374,6,0,P|404:212|432:96,1,180,6|10,1:0|0:0,0:0:0:0:
460,64,26005,1,2,0:0:0:0:
460,64,26163,1,2,1:0:0:0:
360,20,26479,2,0,P|304:28|244:56,1,120,10|2,0:0|1:0,0:0:0:0:
184,144,27111,2,0,L|116:132,1,60,10|2,0:0|0:0,0:0:0:0:
72,124,27426,1,2,1:0:0:0:
16,216,27742,5,10,0:0:0:0:
16,216,27900,2,0,P|24:272|64:328,1,120,2|0,1:0|1:0,0:0:0:0:
108,344,28374,1,8,0:0:0:0:
184,268,28690,1,0,1:0:0:0:
280,316,29005,5,10,0:0:0:0:
280,316,29163,2,0,P|328:292|396:296,1,120,2|0,0:0|1:0,0:0:0:0:
448,304,29637,1,8,0:0:0:0:
472,200,29953,1,2,1:0:0:0:
496,96,30269,1,10,0:0:0:0:
496,96,30426,6,0,B|440:88|408:40|408:40|336:28,1,180,4|10,1:0|0:0,0:0:0:0:
284,124,31216,2,0,L|224:116,1,60,2|0,1:0|1:0,0:0:0:0:
172,108,31532,1,10,0:0:0:0:
88,176,31847,1,0,1:0:0:0:
156,260,32163,2,0,L|184:320,1,60,10|2,0:0|0:0,0:0:0:0:
208,364,32479,1,2,1:0:0:0:
272,276,32795,5,10,0:0:0:0:
272,276,32953,2,0,P|324:260|392:288,1,120,6|0,1:0|1:0,0:0:0:0:
420,320,33426,1,8,0:0:0:0:
472,224,33742,2,0,L|500:160,2,60,2|0|8,1:0|1:0|0:0,0:0:0:0:
372,180,34374,6,0,P|376:120|354:65,1,120,2|8,1:0|0:0,0:0:0:0:
252,36,35005,2,0,L|196:72,1,60,8|8,0:0|0:0,0:0:0:0:
152,44,35321,2,0,L|96:80,1,60,8|8,0:0|0:0,0:0:0:0:
56,104,35637,5,4,1:0:0:0:
24,208,35953,1,2,1:0:0:0:
132,208,36269,2,0,P|160:232|184:312,1,120,10|2,0:0|1:0,0:0:0:0:
284,348,36900,2,0,P|308:320|388:296,1,120,2|2,0:0|0:0,0:0:0:0:
432,200,37532,2,0,P|404:176|380:96,1,120,10|2,0:0|1:0,0:0:0:0:
284,48,38163,6,0,P|260:76|180:100,1,120,6|2,1:0|1:0,0:0:0:0:
96,36,38795,2,0,L|52:168,1,120,10|0,0:0|1:0,0:0:0:0:
20,252,39426,1,2,0:0:0:0:
68,348,39742,1,2,0:0:0:0:
144,272,40058,1,8,0:0:0:0:
336,368,40690,6,0,B|388:356|388:356|408:364|408:364|452:352,1,120,4|8,1:0|0:0,0:0:0:0:
504,336,41163,1,0,0:0:0:0:
504,336,41321,1,2,1:0:0:0:
476,232,41637,1,8,0:0:0:0:
440,128,41953,2,0,L|416:64,1,60,2|0,1:0|0:0,0:0:0:0:
396,24,42269,1,8,0:0:0:0:
320,100,42584,2,0,P|276:116|200:100,1,120,2|8,1:0|0:0,0:0:0:0:
160,72,43058,6,0,P|136:124|132:188,1,120,4|0,1:0|1:0,0:0:0:0:
156,236,43532,1,10,0:0:0:0:
180,340,43847,2,0,L|121:351,2,60,0|0|10,1:0|1:0|0:0,0:0:0:0:
256,264,44479,1,0,1:0:0:0:
332,340,44795,2,0,L|390:351,1,60,10|2,0:0|0:0,0:0:0:0:
440,328,45111,2,0,P|452:284|428:212,1,120,2|10,1:0|0:0,0:0:0:0:
408,164,45584,5,4,1:0:0:0:
364,64,45900,1,0,1:0:0:0:
364,64,46058,1,10,0:0:0:0:
284,136,46374,2,0,P|240:116|168:124,1,120,0|10,1:0|0:0,0:0:0:0:
88,196,47005,2,0,L|136:308,1,120,0|10,1:0|0:0,0:0:0:0:
160,356,47479,1,2,0:0:0:0:
160,356,47637,1,0,1:0:0:0:
260,316,47953,5,10,0:0:0:0:
260,316,48111,2,0,P|308:308|368:264,1,120,4|0,1:0|1:0,0:0:0:0:
400,224,48584,2,0,L|464:244,1,60,10|0,0:0|1:0,0:0:0:0:
508,256,48900,1,10,0:0:0:0:
472,156,49216,5,10,0:0:0:0:
472,156,49374,2,0,P|487:106|465:37,1,120,4|8,1:0|0:0,0:0:0:0:
434,0,49847,1,8,0:0:0:0:
336,48,50163,1,8,0:0:0:0:
220,164,50637,6,0,B|272:180|272:180|280:196|280:196|324:212,1,120,12|8,0:0|0:0,0:0:0:0:
376,232,51111,1,8,0:0:0:0:
376,232,51269,1,8,0:0:0:0:
476,40,51900,6,0,P|492:84|476:156,1,120,4|2,1:0|1:0,0:0:0:0:
424,152,52374,2,0,L|360:132,1,60,8|2,0:0|0:0,0:0:0:0:
312,120,52690,1,0,1:0:0:0:
312,120,52847,1,2,1:0:0:0:
280,224,53163,6,0,P|220:200|184:152,1,120,4|2,1:0|1:0,0:0:0:0:
168,108,53637,1,8,0:0:0:0:
132,4,53953,1,0,1:0:0:0:
132,4,54111,1,2,1:0:0:0:
72,92,54426,6,0,P|36:120|8:192,1,120,4|2,1:0|1:0,0:0:0:0:
28,236,54900,1,8,0:0:0:0:
104,312,55216,2,0,L|160:284,1,60,0|2,1:0|1:0,0:0:0:0:
204,260,55532,1,8,0:0:0:0:
204,260,55690,6,0,P|236:308|292:332,1,120,4|2,1:0|0:0,0:0:0:0:
344,344,56163,1,8,0:0:0:0:
420,268,56479,2,0,L|404:208,1,60,2|0,1:0|1:0,0:0:0:0:
392,156,56795,1,8,0:0:0:0:
392,156,56953,6,0,P|432:136|480:72,1,120,4|2,1:0|1:0,0:0:0:0:
488,24,57426,1,8,0:0:0:0:
380,36,57742,1,0,1:0:0:0:
380,36,57900,1,2,1:0:0:0:
272,44,58216,6,0,P|256:72|244:160,1,120,4|2,1:0|1:0,0:0:0:0:
220,208,58690,2,0,P|184:188|104:184,1,120,8|0,0:0|1:0,0:0:0:0:
60,208,59163,1,2,1:0:0:0:
84,312,59479,6,0,B|128:320|128:320|148:336|148:336|200:344,1,120,4|2,1:0|1:0,0:0:0:0:
252,348,59953,1,8,0:0:0:0:
300,252,60269,2,0,L|260:200,1,60,0|2,1:0|1:0,0:0:0:0:
232,160,60584,1,8,0:0:0:0:
232,160,60742,2,0,P|192:116|176:52,1,120,4|2,1:0|1:0,0:0:0:0:
208,16,61216,1,8,0:0:0:0:
316,28,61532,2,0,L|380:36,1,60,0|0,1:0|1:0,0:0:0:0:
428,40,61847,1,0,1:0:0:0:
428,40,62005,6,0,P|460:72|480:144,1,120,6|0,1:0|1:0,0:0:0:0:
456,192,62479,1,10,0:0:0:0:
408,288,62795,2,0,L|352:256,1,60,10|0,0:0|1:0,0:0:0:0:
308,228,63111,1,10,0:0:0:0:
308,228,63269,2,0,P|296:272|232:328,1,120,4|0,1:0|1:0,0:0:0:0:
192,332,63742,1,10,0:0:0:0:
112,260,64058,1,10,0:0:0:0:
112,260,64216,1,0,1:0:0:0:
28,192,64532,6,0,P|60:156|72:80,1,120,4|0,1:0|1:0,0:0:0:0:
72,32,65005,1,10,0:0:0:0:
172,76,65321,1,10,0:0:0:0:
172,76,65479,1,0,1:0:0:0:
260,12,65795,2,0,P|304:24|356:76,1,120,4|0,1:0|1:0,0:0:0:0:
368,128,66269,1,10,0:0:0:0:
348,232,66584,2,0,L|336:296,1,60,10|0,0:0|1:0,0:0:0:0:
328,344,66900,1,10,0:0:0:0:
328,344,67058,6,0,P|276:328|208:340,1,120,4|0,1:0|1:0,0:0:0:0:
160,352,67532,1,10,0:0:0:0:
84,276,67847,1,10,0:0:0:0:
116,172,68163,1,10,0:0:0:0:
116,172,68321,1,4,1:0:0:0:
220,140,68637,1,8,0:0:0:0:
220,140,68795,1,8,0:0:0:0:
308,204,69111,6,0,L|396:168,2,90,8|8|8,0:0|3:0|3:0,0:0:0:0:
328,252,69742,2,0,L|362:335,2,90,8|8|8,0:0|3:0|3:0,0:0:0:0:
272,248,70374,1,10,0:0:0:0:
188,116,70871,6,0,P|112:112|64:136,1,120,4|0,1:0|1:0,0:0:0:0:
44,176,71371,2,0,L|88:292,1,120,10|10,0:0|0:0,0:0:0:0:
112,336,71845,2,0,L|168:312,1,60,0|10,1:0|0:0,0:0:0:0:
216,292,72161,5,4,1:0:0:0:
261,194,72476,1,0,1:0:0:0:
284,144,72634,2,0,P|328:116|396:112,1,120,10|10,0:0|0:0,0:0:0:0:
444,136,73108,2,0,L|476:64,1,60,0|10,1:0|0:0,0:0:0:0:
488,32,73424,5,4,1:0:0:0:
381,11,73740,1,0,1:0:0:0:
328,16,73897,2,0,B|280:24|280:24|272:40|272:40|220:52,1,120,10|10,0:0|0:0,0:0:0:0:
168,68,74371,2,0,L|100:88,1,60,0|10,1:0|0:0,0:0:0:0:
60,100,74687,5,4,1:0:0:0:
48,208,75003,1,0,1:0:0:0:
48,208,75161,2,0,P|100:192|160:220,1,120,10|10,0:0|0:0,0:0:0:0:
200,248,75634,1,0,1:0:0:0:
200,248,75792,1,10,0:0:0:0:
304,220,76108,5,6,1:0:0:0:
304,220,76266,2,0,P|344:180|360:120,1,120,8|0,0:0|1:0,0:0:0:0:
372,68,76740,1,10,0:0:0:0:
472,108,77055,1,6,1:0:0:0:
256,192,77134,12,0,79108,0:0:0:0:
