osu file format v14

[General]
AudioFilename: OP.mp3
AudioLeadIn: 0
PreviewTime: 2099
Countdown: 0
SampleSet: Soft
StackLeniency: 0.7
Mode: 0
LetterboxInBreaks: 0
WidescreenStoryboard: 1

[Editor]
Bookmarks: 279,2805,7857,12910,17963,23015,25542,30594,35647,40700,45752,50805,52068,57121,62173,67226,71055,76107
DistanceSpacing: 1.7
BeatDivisor: 4
GridSize: 4
TimelineZoom: 1.9

[Metadata]
Title:the WORLD (TV Size)
TitleUnicode:the WORLD (TV Size)
Artist:NIGHTMARE
ArtistUnicode:ナイトメア
Creator:Andrea
Version:Kira
Source:DEATH NOTE
Tags:Anime Japanese Opening OP Rock JRock J-Rock デスノート DEATHNOTE Light Yagami 夜神月 Misa Amane 弥海砂 MisaMisa ミサミサ Ryuk リューク L Near Mello Teru Mikami Rem レム osuplayer111 Sekai Sekaii Sekai-nyan Kowari -_Ex_- - Ex - Zekk
BeatmapID:3659484
BeatmapSetID:1786447

[Difficulty]
HPDrainRate:6
CircleSize:4.2
OverallDifficulty:8.8
ApproachRate:9.2
SliderMultiplier:1.8
SliderTickRate:1

[Events]
//Background and Video events
Video,160,"Video.mp4"
0,0,"Kira.jpg",0,0
//Break Periods
//Storyboard Layer 0 (Background)
//Storyboard Layer 1 (Fail)
//Storyboard Layer 2 (Pass)
//Storyboard Layer 3 (Foreground)
//Storyboard Layer 4 (Overlay)
//Storyboard Sound Samples

[TimingPoints]
269,315.789473684211,4,2,1,50,1,0
269,-166.666666666667,4,2,1,50,0,0
1216,-100,4,2,1,5,0,0
1374,-100,4,2,1,70,0,0
2163,-125,4,2,1,50,0,0
2637,-90.9090909090909,4,2,1,80,0,1
4216,-90.9090909090909,4,2,1,80,0,1
12742,-100,4,2,1,70,0,0
13532,-100,4,2,1,70,0,0
16058,-100,4,2,1,70,0,0
16690,-100,4,2,1,70,0,0
17321,-100,4,2,1,70,0,0
18584,-100,4,2,1,70,0,0
19216,-100,4,2,1,70,0,0
19847,-100,4,2,1,70,0,0
21111,-100,4,2,1,70,0,0
21742,-100,4,2,1,70,0,0
23005,-100,4,2,1,70,0,0
23953,-200,4,2,1,70,0,0
24742,-100,4,2,1,5,0,0
24900,-100,4,2,1,70,0,0
25058,-200,4,2,1,70,0,0
25374,-100,4,2,1,70,0,0
27347,-100,4,2,1,5,0,0
27426,-100,4,2,1,70,0,0
34294,-100,4,2,1,5,0,0
34374,-100,4,2,1,70,0,0
35637,-125,4,2,1,60,0,0
40058,-100,4,2,1,70,0,0
40926,-100,4,2,1,5,0,0
41005,-100,4,2,1,70,0,0
41637,-100,4,2,1,70,0,0
44479,-100,4,2,1,70,0,0
46374,-100,4,2,1,70,0,0
47005,-100,4,2,1,70,0,0
49611,-100,4,2,1,5,0,0
49690,-100,4,2,1,70,0,0
50637,-83.3333333333333,4,2,1,70,0,0
50873,-83.3333333333333,4,2,1,5,0,0
50953,-83.3333333333333,4,2,1,70,0,0
51426,-125,4,2,1,60,0,0
51900,-90.9090909090909,4,2,1,80,0,1
52136,-90.9090909090909,4,2,1,5,0,1
52216,-90.9090909090909,4,2,1,80,0,1
54742,-90.9090909090909,4,2,1,80,0,1
55136,-90.9090909090909,4,2,1,5,0,1
55216,-90.9090909090909,4,2,1,80,0,1
56005,-90.9090909090909,4,2,1,80,0,1
56399,-90.9090909090909,4,2,1,5,0,1
56479,-90.9090909090909,4,2,1,80,0,1
57189,-90.9090909090909,4,2,1,5,0,1
57269,-90.9090909090909,4,2,1,80,0,1
61452,-90.9090909090909,4,2,1,5,0,1
61532,-90.9090909090909,4,2,1,80,0,1
62005,-100,4,2,1,70,0,0
70700,342.857142857143,4,2,1,70,1,0
71214,315.789473684211,4,2,1,70,1,0
72319,315.789473684211,4,2,1,70,1,0
77134,-100,4,2,1,5,0,0
79108,-100,4,2,1,5,0,0

[Colours]
Combo1 : 255,128,128
Combo2 : 255,0,0

[HitObjects]
96,340,269,6,0,B|168:308|168:216|168:216|68:244|40:136,1,323.999990112305,2|0,0:0|0:0,0:0:0:0:
208,4,1374,1,8,0:0:0:0:
292,304,1690,1,8,0:0:0:0:
412,64,1847,1,8,0:0:0:0:
464,328,2005,1,8,0:0:0:0:
384,256,2163,6,0,P|384:216|368:184,1,72,2|2,0:0|0:0,0:0:0:0:
284,128,2479,1,2,0:0:0:0:
108,316,2637,6,0,P|60:280|32:140,1,198.000006042481,4|2,1:0|1:0,0:0:0:0:
184,16,3111,1,8,0:0:0:0:
228,216,3269,1,2,0:0:0:0:
228,216,3347,1,2,0:0:0:0:
228,216,3426,1,0,1:0:0:0:
100,28,3584,1,2,1:0:0:0:
144,232,3742,1,8,0:0:0:0:
360,40,3900,6,0,P|412:28|456:40,1,99.0000030212403,4|0,1:0|0:0,0:0:0:0:
508,176,4216,1,2,1:0:0:0:
412,344,4374,2,0,P|384:288|408:160,1,198.000006042481,8|0,0:0|1:0,0:0:0:0:
455,39,4847,1,2,1:0:0:0:
508,176,5005,1,8,0:0:0:0:
272,164,5163,6,0,B|200:156|200:156|152:180|152:180|72:172,1,198.000006042481,4|2,1:0|1:0,0:0:0:0:
156,0,5637,2,0,P|132:44|128:92,1,99.0000030212403,8|2,0:0|0:0,0:0:0:0:
224,252,5953,1,0,1:0:0:0:
80,172,6111,1,2,1:0:0:0:
244,4,6269,1,8,0:0:0:0:
440,132,6426,6,0,B|476:196|476:196|436:328,1,198.000006042481,4|2,1:0|0:0,0:0:0:0:
176,304,6900,2,0,P|264:276|348:344,1,198.000006042481,8|2,0:0|1:0,0:0:0:0:
248,376,7374,1,0,1:0:0:0:
344,188,7532,1,8,0:0:0:0:
100,344,7690,6,0,B|84:296|100:260|100:260|72:228|72:228|80:188|72:144,1,198.000006042481,4|2,1:0|1:0,0:0:0:0:
216,20,8163,1,8,0:0:0:0:
228,204,8321,1,2,0:0:0:0:
228,204,8400,1,2,0:0:0:0:
228,204,8479,1,0,1:0:0:0:
104,60,8637,1,2,1:0:0:0:
304,80,8795,1,8,0:0:0:0:
140,296,8953,6,0,P|204:332|328:300,1,198.000006042481,4|2,1:0|1:0,0:0:0:0:
436,104,9426,2,0,B|428:176|428:176|456:208|456:208|448:296,1,198.000006042481,8|0,0:0|1:0,0:0:0:0:
512,152,9900,1,2,1:0:0:0:
368,240,10058,1,8,0:0:0:0:
256,40,10216,6,0,B|204:20|168:44|168:44|124:72|64:44,1,198.000006042481,4|2,1:0|1:0,0:0:0:0:
200,208,10690,2,0,P|224:164|216:116,1,99.0000030212403,8|2,0:0|0:0,0:0:0:0:
88,208,11005,1,0,1:0:0:0:
268,288,11163,1,2,1:0:0:0:
268,288,11242,1,2,1:0:0:0:
268,288,11321,1,8,0:0:0:0:
384,72,11479,6,0,P|444:60|520:160,1,198.000006042481,4|2,1:0|1:0,0:0:0:0:
512,200,11874,1,2,1:0:0:0:
512,200,11953,1,8,0:0:0:0:
304,112,12111,1,0,1:0:0:0:
268,288,12269,5,2,0:0:0:0:
384,72,12426,1,8,0:0:0:0:
452,296,12584,1,8,0:0:0:0:
304,112,12742,6,0,B|244:100|220:56|220:56|144:44,1,180,4|0,1:0|1:0,0:0:0:0:
24,200,13216,2,0,P|48:160|48:116,1,90,10|0,0:0|0:0,0:0:0:0:
144,268,13532,2,0,P|120:308|120:352,1,90,2|0,1:0|1:0,0:0:0:0:
176,152,13847,1,10,0:0:0:0:
48,280,14005,1,0,0:0:0:0:
216,224,14163,1,2,1:0:0:0:
24,200,14321,1,0,1:0:0:0:
272,152,14479,6,0,B|340:156|340:156|380:188|380:188|440:192,1,180,10|2,0:0|1:0,0:0:0:0:
300,244,14953,1,0,1:0:0:0:
420,104,15111,1,8,0:0:0:0:
184,52,15269,6,0,P|108:32|20:92,1,180,4|0,1:0|1:0,0:0:0:0:
120,224,15742,2,0,P|132:176|120:132,1,90,10|0,0:0|0:0,0:0:0:0:
276,60,16058,1,2,1:0:0:0:
276,232,16216,1,0,1:0:0:0:
428,148,16374,2,0,P|384:136|336:148,1,90,10|0,0:0|0:0,0:0:0:0:
476,268,16690,5,2,1:0:0:0:
512,104,16847,1,0,1:0:0:0:
384,224,17005,2,0,P|396:268|384:316,1,90,10|0,0:0|0:0,0:0:0:0:
264,384,17321,1,2,1:0:0:0:
256,232,17479,1,0,1:0:0:0:
386,310,17637,1,8,0:0:0:0:
156,304,17795,6,0,P|124:248|124:128,1,180,4|0,1:0|1:0,0:0:0:0:
308,64,18269,2,0,P|260:48|220:56,1,90,10|0,0:0|0:0,0:0:0:0:
32,168,18584,1,2,1:0:0:0:
124,36,18742,1,0,1:0:0:0:
256,220,18900,2,0,P|272:172|264:132,1,90,10|0,0:0|0:0,0:0:0:0:
396,28,19216,5,2,1:0:0:0:
492,160,19374,1,0,1:0:0:0:
344,244,19532,2,0,P|328:292|336:332,1,90,10|0,0:0|0:0,0:0:0:0:
460,288,19847,1,2,1:0:0:0:
364,136,20005,1,0,1:0:0:0:
240,260,20163,1,8,0:0:0:0:
448,92,20321,6,0,P|392:52|288:76,1,180,6|0,1:0|1:0,0:0:0:0:
168,224,20795,2,0,P|156:176|128:140,1,90,10|0,0:0|0:0,0:0:0:0:
108,304,21111,1,2,1:0:0:0:
248,196,21269,1,0,1:0:0:0:
84,216,21426,2,0,P|36:228|0:256,1,90,10|0,0:0|0:0,0:0:0:0:
56,376,21742,1,2,1:0:0:0:
168,224,21900,1,0,1:0:0:0:
40,48,22058,5,6,1:0:0:0:
12,259,22216,1,8,0:0:0:0:
12,259,22295,1,8,0:0:0:0:
12,259,22374,1,8,0:0:0:0:
208,148,22532,1,8,0:0:0:0:
0,128,22690,1,8,0:0:0:0:
120,336,22847,1,8,0:0:0:0:
136,96,23005,5,6,1:0:0:0:
328,252,23163,2,0,P|344:208|336:164,1,90,0|2,1:0|0:0,0:0:0:0:
192,236,23479,1,0,1:0:0:0:
448,192,23637,1,10,0:0:0:0:
448,192,23953,6,0,P|480:256|380:360,1,225,6|0,1:0|0:0,0:0:0:0:
256,128,24900,1,8,0:0:0:0:
121,359,25058,1,0,1:0:0:0:
121,359,25374,6,0,B|96:292|96:292|108:256|108:256|84:188,1,180,6|0,1:0|1:0,0:0:0:0:
196,48,25847,2,0,P|268:12|364:40,1,180,10|2,0:0|1:0,0:0:0:0:
464,168,26321,1,0,1:0:0:0:
464,168,26400,1,0,1:0:0:0:
464,168,26479,1,10,0:0:0:0:
308,128,26637,1,0,0:0:0:0:
468,48,26795,5,2,1:0:0:0:
408,244,26953,1,0,1:0:0:0:
308,128,27111,2,0,B|264:136|248:160|248:160|184:152,1,135,10|0,0:0|0:0,0:0:0:0:
144,148,27426,2,0,P|124:188|124:232,1,90,2|0,1:0|1:0,0:0:0:0:
192,368,27742,1,10,0:0:0:0:
324,240,27900,6,0,B|384:240|408:192|408:192|496:216,1,180,2|0,1:0|1:0,0:0:0:0:
444,364,28374,1,8,0:0:0:0:
482,212,28532,1,2,0:0:0:0:
344,328,28690,1,0,1:0:0:0:
328,152,28847,1,0,1:0:0:0:
328,152,28926,1,0,1:0:0:0:
328,152,29005,1,10,0:0:0:0:
180,208,29163,6,0,P|120:216|36:296,1,180,2|0,0:0|1:0,0:0:0:0:
184,304,29637,1,8,0:0:0:0:
140,120,29795,1,0,0:0:0:0:
264,224,29953,1,2,1:0:0:0:
60,156,30111,1,0,1:0:0:0:
184,304,30269,1,10,0:0:0:0:
232,72,30426,6,0,B|300:80|300:80|340:108|340:108|408:116,1,180,4|0,1:0|1:0,0:0:0:0:
488,248,30900,1,10,0:0:0:0:
402,115,31058,1,0,0:0:0:0:
360,264,31216,1,2,1:0:0:0:
488,152,31374,1,0,1:0:0:0:
388,352,31532,6,0,P|336:348|268:244,1,180,10|2,0:0|1:0,0:0:0:0:
240,80,32005,1,0,1:0:0:0:
240,80,32084,1,0,1:0:0:0:
240,80,32163,1,10,0:0:0:0:
267,250,32321,1,0,0:0:0:0:
336,84,32479,2,0,P|325:40|297:5,1,90,2|0,1:0|1:0,0:0:0:0:
136,64,32795,1,10,0:0:0:0:
316,180,32953,6,0,B|376:177|398:211|398:211|425:252|476:241,1,180,6|0,1:0|1:0,0:0:0:0:
332,272,33426,1,8,0:0:0:0:
468,152,33584,1,0,0:0:0:0:
424,332,33742,1,2,1:0:0:0:
316,180,33900,1,0,1:0:0:0:
256,336,34058,6,0,P|200:304|132:316,1,135,8|0,0:0|0:0,0:0:0:0:
88,336,34374,2,0,P|56:304|40:260,1,90,2|0,1:0|1:0,0:0:0:0:
88,96,34690,1,8,0:0:0:0:
260,252,34847,5,8,0:0:0:0:
260,252,34926,1,8,0:0:0:0:
260,252,35005,1,8,0:0:0:0:
36,176,35163,1,8,0:0:0:0:
208,4,35321,1,8,0:0:0:0:
144,248,35479,1,8,0:0:0:0:
328,80,35637,6,0,P|384:64|464:100,1,144,4|2,1:0|1:0,0:0:0:0:
496,196,36111,1,0,1:0:0:0:
496,196,36269,2,0,P|472:248|460:336,1,144,10|2,0:0|1:0,0:0:0:0:
360,348,36742,1,0,1:0:0:0:
360,348,36900,2,0,P|320:336|280:336,1,72,2|0,0:0|1:0,0:0:0:0:
240,248,37216,2,0,P|252:208|252:168,1,72,2|0,0:0|1:0,0:0:0:0:
200,88,37532,2,0,P|144:76|48:88,1,144,10|2,0:0|1:0,0:0:0:0:
16,176,38005,1,0,0:0:0:0:
88,304,38163,6,0,B|140:276|140:276|168:284|168:284|220:256,1,144,6|2,1:0|1:0,0:0:0:0:
300,200,38637,1,0,1:0:0:0:
300,200,38795,2,0,P|324:148|324:56,1,144,10|2,0:0|1:0,0:0:0:0:
248,4,39269,1,0,1:0:0:0:
392,16,39426,2,0,P|432:28|456:52,1,72,2|0,0:0|1:0,0:0:0:0:
488,176,39742,2,0,P|448:164|424:140,1,72,2|0,0:0|1:0,0:0:0:0:
168,48,40058,1,8,0:0:0:0:
168,48,40690,6,0,P|128:96|132:172,1,135,4|0,1:0|0:0,0:0:0:0:
128,216,41005,2,0,P|80:224|40:240,1,90,8|0,0:0|0:0,0:0:0:0:
172,340,41321,2,0,P|220:332|260:316,1,90,2|0,1:0|1:0,0:0:0:0:
296,156,41637,1,8,0:0:0:0:
258,316,41795,1,0,0:0:0:0:
424,268,41953,6,0,B|440:196|440:196|472:172|472:172|488:100,1,180,2|8,1:0|0:0,0:0:0:0:
512,252,42426,1,0,0:0:0:0:
396,112,42584,2,0,P|348:96|308:100,1,90,2|0,1:0|1:0,0:0:0:0:
240,248,42900,1,8,0:0:0:0:
56,64,43058,6,0,B|84:52|96:24|96:24|116:160,1,180,4|0,1:0|1:0,0:0:0:0:
240,248,43532,1,10,0:0:0:0:
84,232,43690,1,0,0:0:0:0:
212,132,43847,2,0,P|228:88|224:40,1,90,0|0,1:0|1:0,0:0:0:0:
364,200,44163,2,0,P|348:244|352:292,1,90,10|0,0:0|0:0,0:0:0:0:
228,384,44479,1,0,1:0:0:0:
232,236,44637,1,0,1:0:0:0:
424,256,44795,6,0,P|468:272|516:268,1,90,10|2,0:0|0:0,0:0:0:0:
510,269,45032,1,2,0:0:0:0:
510,269,45111,1,2,1:0:0:0:
352,80,45269,1,0,1:0:0:0:
320,260,45426,1,10,0:0:0:0:
440,36,45584,6,0,P|368:0|268:24,1,180,4|0,1:0|1:0,0:0:0:0:
208,184,46058,2,0,P|224:232|216:272,1,90,10|0,0:0|0:0,0:0:0:0:
108,384,46374,1,0,1:0:0:0:
16,256,46532,1,0,1:0:0:0:
156,120,46690,2,0,P|197:104|241:111,1,90,10|0,0:0|0:0,0:0:0:0:
332,252,47005,1,0,1:0:0:0:
384,88,47163,1,0,1:0:0:0:
224,216,47321,5,10,0:0:0:0:
424,168,47479,1,2,0:0:0:0:
424,168,47558,1,2,0:0:0:0:
424,168,47637,1,0,1:0:0:0:
352,352,47795,1,0,1:0:0:0:
296,156,47953,1,10,0:0:0:0:
469,314,48111,6,0,P|489:262|417:166,1,180,4|0,1:0|1:0,0:0:0:0:
208,8,48584,1,10,0:0:0:0:
240,276,48742,1,0,1:0:0:0:
392,36,48900,1,10,0:0:0:0:
92,80,49058,1,0,1:0:0:0:
348,224,49216,1,10,0:0:0:0:
24,252,49374,6,0,B|76:232|76:232|108:236|108:236|152:220,1,135,4|0,1:0|0:0,0:0:0:0:
196,204,49690,1,8,0:0:0:0:
392,36,49847,1,8,0:0:0:0:
224,348,50163,1,8,0:0:0:0:
224,348,50637,6,0,P|284:360|380:312,1,161.999995056153,12|0,0:0|0:0,0:0:0:0:
384,276,50953,1,8,0:0:0:0:
392,36,51111,1,8,0:0:0:0:
512,312,51269,1,8,0:0:0:0:
272,192,51426,6,0,P|240:172|204:168,1,72,6|2,0:0|0:0,0:0:0:0:
88,144,51742,1,2,0:0:0:0:
320,288,51900,6,0,P|360:244|368:156,1,148.50000453186,4|0,1:0|0:0,0:0:0:0:
348,116,52216,1,2,1:0:0:0:
512,8,52374,1,8,0:0:0:0:
484,208,52532,1,0,1:0:0:0:
484,208,52611,1,0,1:0:0:0:
484,208,52690,1,0,1:0:0:0:
376,16,52847,1,2,1:0:0:0:
512,120,53005,1,8,0:0:0:0:
272,192,53163,6,0,B|204:176|204:176|160:192|160:192|80:176,1,198.000006042481,4|2,1:0|1:0,0:0:0:0:
224,272,53637,1,8,0:0:0:0:
136,88,53795,1,0,1:0:0:0:
136,88,53874,1,0,1:0:0:0:
136,88,53953,1,0,1:0:0:0:
12,252,54111,1,2,1:0:0:0:
56,40,54269,1,8,0:0:0:0:
148,300,54426,6,0,P|180:340|228:356,1,99.0000030212403,4|0,1:0|0:0,0:0:0:0:
396,292,54742,1,2,1:0:0:0:
224,272,54900,2,0,P|284:248|368:272,1,148.50000453186,8|0,0:0|0:0,0:0:0:0:
396,292,55216,1,0,1:0:0:0:
320,144,55374,1,2,1:0:0:0:
328,360,55531,1,8,0:0:0:0:
400,92,55690,2,0,P|431:130|443:177,1,99.0000030212403,4|0,1:0|0:0,0:0:0:0:
396,292,56005,1,2,0:0:0:0:
272,76,56163,6,0,B|224:68|224:68|180:84|180:84|128:76,1,148.50000453186,8|0,0:0|0:0,0:0:0:0:
84,68,56479,1,2,1:0:0:0:
4,252,56637,1,0,1:0:0:0:
4,252,56716,1,0,1:0:0:0:
4,252,56795,1,8,0:0:0:0:
248,200,56953,6,0,B|296:208|296:208|340:192|340:192|392:200,1,148.50000453186,4|0,1:0|0:0,0:0:0:0:
436,208,57269,1,2,1:0:0:0:
320,340,57426,1,8,0:0:0:0:
284,112,57584,1,0,1:0:0:0:
284,112,57663,1,0,1:0:0:0:
284,112,57742,1,0,1:0:0:0:
384,284,57900,1,2,1:0:0:0:
412,112,58058,1,8,0:0:0:0:
212,288,58216,6,0,P|128:304|48:232,1,198.000006042481,4|2,1:0|1:0,0:0:0:0:
68,40,58690,1,8,0:0:0:0:
148,216,58847,1,2,0:0:0:0:
0,100,59005,1,0,1:0:0:0:
208,20,59163,1,2,1:0:0:0:
48,234,59321,1,8,0:0:0:0:
264,108,59479,6,0,B|320:124|364:84|364:84|464:116,1,198.000006042481,4|2,1:0|1:0,0:0:0:0:
504,276,59953,1,8,0:0:0:0:
449,111,60111,1,2,0:0:0:0:
340,236,60269,1,0,1:0:0:0:
508,36,60426,1,2,1:0:0:0:
508,36,60505,1,2,1:0:0:0:
508,36,60584,1,8,0:0:0:0:
240,168,60742,6,0,P|172:140|44:188,1,198.000006042481,4|2,1:0|1:0,0:0:0:0:
268,272,61216,2,0,P|312:240|344:152,1,148.50000453186,8|0,0:0|0:0,0:0:0:0:
348,108,61532,1,0,1:0:0:0:
448,12,61690,1,0,1:0:0:0:
500,140,61847,1,0,1:0:0:0:
272,28,62005,6,0,B|204:52|204:52|188:80|188:80|116:108,1,180,6|0,1:0|1:0,0:0:0:0:
4,200,62479,1,10,0:0:0:0:
120,8,62637,1,0,1:0:0:0:
212,196,62795,1,10,0:0:0:0:
8,104,62953,1,0,1:0:0:0:
8,104,63032,1,0,1:0:0:0:
8,104,63111,1,10,0:0:0:0:
200,296,63269,6,0,P|272:268|308:164,1,180,4|0,1:0|1:0,0:0:0:0:
400,20,63742,1,10,0:0:0:0:
480,204,63900,1,0,1:0:0:0:
312,88,64058,1,10,0:0:0:0:
512,32,64216,1,0,1:0:0:0:
396,200,64374,1,10,0:0:0:0:
256,16,64532,6,0,P|256:88|260:200,1,180,4|0,1:0|1:0,0:0:0:0:
180,354,65005,1,10,0:0:0:0:
90,151,65163,1,0,1:0:0:0:
281,269,65321,1,10,0:0:0:0:
70,293,65479,1,0,1:0:0:0:
215,128,65637,1,10,0:0:0:0:
288,368,65795,6,0,B|340:340|376:352|376:352|408:392|464:368,1,180,4|0,1:0|1:0,0:0:0:0:
484,180,66269,1,10,0:0:0:0:
320,256,66426,1,0,1:0:0:0:
320,256,66505,1,0,1:0:0:0:
320,256,66584,1,10,0:0:0:0:
424,68,66742,1,0,1:0:0:0:
492,272,66900,1,10,0:0:0:0:
312,140,67058,6,0,P|256:72|169:67,1,180,4|0,1:0|1:0,0:0:0:0:
112,248,67532,1,10,0:0:0:0:
32,88,67690,1,0,1:0:0:0:
204,184,67847,1,10,0:0:0:0:
16,248,68005,1,0,1:0:0:0:
168,68,68163,1,10,0:0:0:0:
212,296,68321,6,0,B|292:309|292:309|328:277|384:285,1,180,4|8,1:0|0:0,0:0:0:0:
500,128,68795,1,8,0:0:0:0:
352,12,68953,1,0,1:0:0:0:
352,12,69032,1,0,1:0:0:0:
352,12,69111,5,8,0:0:0:0:
316,124,69347,1,8,3:0:0:0:
228,36,69584,1,8,3:0:0:0:
416,100,69742,5,8,0:0:0:0:
224,160,69979,1,8,3:0:0:0:
352,12,70216,1,8,3:0:0:0:
376,208,70374,5,10,0:0:0:0:
376,208,70871,6,0,P|324:252|212:228,1,180,4|0,1:0|1:0,0:0:0:0:
48,16,71371,1,10,0:0:0:0:
48,248,71529,1,0,1:0:0:0:
48,248,71608,1,0,1:0:0:0:
48,248,71687,1,10,0:0:0:0:
216,80,71845,1,0,1:0:0:0:
0,136,72003,1,10,0:0:0:0:
144,308,72161,6,0,B|184:268|224:280|224:280|244:328|304:328,1,180,4|0,1:0|1:0,0:0:0:0:
424,184,72634,1,10,0:0:0:0:
472,372,72792,1,0,1:0:0:0:
472,372,72871,1,0,1:0:0:0:
472,372,72950,1,10,0:0:0:0:
328,236,73108,1,0,1:0:0:0:
484,116,73266,1,10,0:0:0:0:
244,220,73424,6,0,B|184:204|184:204|152:168|152:168|84:152,1,180,4|0,1:0|1:0,0:0:0:0:
308,96,73897,1,10,0:0:0:0:
236,316,74055,1,0,1:0:0:0:
236,316,74134,1,0,1:0:0:0:
236,316,74213,1,10,0:0:0:0:
388,164,74371,1,0,1:0:0:0:
464,352,74529,1,10,0:0:0:0:
240,192,74687,6,0,P|176:216|120:312,1,180,4|0,1:0|1:0,0:0:0:0:
272,288,75161,1,10,0:0:0:0:
200,96,75319,1,0,1:0:0:0:
200,96,75397,1,0,1:0:0:0:
200,96,75476,1,10,0:0:0:0:
372,212,75634,1,0,1:0:0:0:
348,8,75792,2,0,P|312:32|288:80,1,90,10|0,0:0|1:0,0:0:0:0:
80,280,76108,5,6,1:0:0:0:
200,96,76266,2,0,P|232:136|240:176,1,90,8|2,0:0|0:0,0:0:0:0:
80,160,76582,1,0,1:0:0:0:
348,8,76740,1,10,0:0:0:0:
236,356,77055,1,6,1:0:0:0:
256,192,77134,12,0,79108,0:0:0:0:
