osu file format v14

[General]
AudioFilename: audio.mp3
AudioLeadIn: 0
PreviewTime: 44185
Countdown: 0
SampleSet: Soft
StackLeniency: 0.7
Mode: 0
LetterboxInBreaks: 0
WidescreenStoryboard: 1

[Editor]
DistanceSpacing: 1.1
BeatDivisor: 2
GridSize: 4
TimelineZoom: 1

[Metadata]
Title:Alumina (TV Size)
TitleUnicode:アルミナ (TV Size)
Artist:NIGHTMARE
ArtistUnicode:NIGHTMARE
Creator:Andrea
Version:Normal
Source:DEATH NOTE
Tags:Anime Japanese Ending ED Rock JRock J-Rock デスノート DEATHNOTE Light Yagami 夜神月 Misa Amane 弥海砂 MisaMisa ミサミサ Ryuk リューク L Near Mello Teru Mikami Rem レム osuplayer111 Sekai Sekaii Sekai-nyan -_Ex_- - Ex - Zekk LeomineXD Leomine
BeatmapID:3669202
BeatmapSetID:1788644

[Difficulty]
HPDrainRate:4
CircleSize:3
OverallDifficulty:4
ApproachRate:5
SliderMultiplier:1.2
SliderTickRate:1

[Events]
//Background and Video events
Video,-190,"Video.mp4"
0,0,"Kira And L.jpg",0,0
//Break Periods
//Storyboard Layer 0 (Background)
//Storyboard Layer 1 (Fail)
//Storyboard Layer 2 (Pass)
//Storyboard Layer 3 (Foreground)
//Storyboard Layer 4 (Overlay)
//Storyboard Sound Samples

[TimingPoints]
240,324.324324324324,4,2,1,60,1,0
240,-125,4,2,1,60,0,0
1374,-125,4,2,1,60,0,0
2510,-125,4,2,1,60,0,0
2834,-125,4,2,1,60,0,0
4131,-125,4,2,1,60,0,0
6077,-125,4,2,1,60,0,0
6563,-125,4,2,1,60,0,0
7699,-125,4,2,1,60,0,0
8023,-125,4,2,1,60,0,0
8672,-125,4,2,1,60,0,0
9321,-125,4,2,1,60,0,0
10861,-125,4,2,1,5,0,0
10942,-125,4,2,1,60,0,0
11267,-125,4,2,1,60,0,0
14023,-125,4,2,1,60,0,0
14753,-125,4,2,1,5,0,0
14834,-125,4,2,1,60,0,0
15807,-100,4,2,1,80,0,0
18402,-100,4,2,1,80,0,0
18726,-100,4,2,1,80,0,0
19212,-100,4,2,1,80,0,0
19699,-100,4,2,1,70,0,0
20185,-100,4,2,1,5,0,0
20348,-100,4,2,1,70,0,0
20996,-100,4,2,1,75,0,0
21321,-100,4,2,1,75,0,0
24239,-100,4,2,1,75,0,0
25537,-100,4,2,1,75,0,0
26834,-100,4,2,1,75,0,0
28456,-100,4,2,1,75,0,0
30726,-100,4,2,1,75,0,0
31050,-100,4,2,1,75,0,0
31375,-100,4,2,1,75,0,0
35915,-100,4,2,1,75,0,0
39158,-100,4,2,1,70,0,0
40780,-100,4,2,1,70,0,0
41753,-100,4,2,1,75,0,0
41996,-100,4,2,1,5,0,0
42077,-100,4,2,1,75,0,0
43050,-100,4,2,1,78,0,0
43699,-100,4,2,1,78,0,0
44348,-100,4,2,1,85,0,1
45888,-100,4,2,1,5,0,1
45969,-100,4,2,1,85,0,1
46294,-100,4,2,1,85,0,1
46618,-100,4,2,1,85,0,1
47591,-100,4,2,1,85,0,1
48482,-100,4,2,1,5,0,1
48564,-100,4,2,1,85,0,1
49537,-100,4,2,1,85,0,1
49780,-100,4,2,1,5,0,1
49861,-100,4,2,1,85,0,1
50185,-100,4,2,1,85,0,1
51158,-100,4,2,1,85,0,1
52374,-100,4,2,1,5,0,1
52456,-100,4,2,1,85,0,1
52780,-100,4,2,1,85,0,1
53672,-100,4,2,1,5,0,1
53753,-100,4,2,1,85,0,1
54726,-100,4,2,1,85,0,1
55375,-100,4,2,1,85,0,1
56266,-100,4,2,1,5,0,1
56348,-100,4,2,1,85,0,1
56672,-100,4,2,1,85,0,1
57321,-100,4,2,1,85,0,1
57969,-100,4,2,1,85,0,1
58861,-100,4,2,1,5,0,1
58942,-100,4,2,1,85,0,1
59915,-100,4,2,1,75,0,0
60158,-100,4,2,1,5,0,0
60239,-100,4,2,1,75,0,0
61537,-100,4,2,1,78,0,0
62510,-100,4,2,1,75,0,0
65104,-100,4,2,1,60,0,0
65672,-100,4,2,1,5,0,0

[Colours]
Combo1 : 255,128,128
Combo2 : 0,128,255
Combo3 : 255,0,0
Combo4 : 128,191,255

[HitObjects]
104,112,240,6,0,P|149:91|216:99,1,96,4|2,1:2|0:0,0:0:0:0:
288,144,888,1,2,0:0:0:0:
288,144,1050,2,0,L|344:44,1,96,2|2,0:0|1:2,0:0:0:0:
428,108,1699,1,0,1:1:0:0:
428,108,1861,2,0,L|376:204,1,96,2|2,1:2|0:0,0:0:0:0:
356,240,2348,1,2,0:0:0:0:
312,336,2672,6,0,B|256:328|256:328|228:308|228:308|168:300,1,144,2|2,0:0|0:0,0:0:0:0:
72,288,3483,1,2,0:0:0:0:
72,288,3645,1,2,0:0:0:0:
100,184,3969,5,2,0:0:0:0:
100,184,4131,2,0,L|116:124,1,48,2|0,1:2|1:1,0:0:0:0:
196,72,4618,1,2,1:2:0:0:
196,72,4780,2,0,P|240:80|288:136,1,96,2|8,2:2|2:2,0:0:0:0:
272,220,5429,6,0,L|388:252,1,96,2|2,1:2|0:0,0:0:0:0:
340,348,6077,1,2,0:0:0:0:
340,348,6239,2,0,L|240:319,1,96,2|2,0:0|1:2,0:0:0:0:
148,280,6888,1,0,1:1:0:0:
148,280,7050,2,0,P|168:232|156:172,1,96,2|2,1:2|0:0,0:0:0:0:
140,140,7537,5,0,0:0:0:0:
156,36,7861,1,2,0:0:0:0:
244,96,8185,1,2,0:0:0:0:
244,96,8348,2,0,B|280:100|280:100|292:108|292:108|344:116,1,96,2|2,0:0|0:0,0:0:0:0:
388,124,8834,1,2,0:0:0:0:
460,200,9158,5,2,0:0:0:0:
460,200,9321,2,0,L|448:256,1,48,2|0,1:2|1:1,0:0:0:0:
376,324,9807,1,0,1:1:0:0:
376,324,9969,2,0,P|332:288|312:232,1,96,2|8,2:2|2:2,0:0:0:0:
316,148,10618,1,4,1:2:0:0:
240,76,10942,6,0,L|188:116,1,48,10|0,2:2|0:0,0:0:0:0:
156,132,11267,1,2,2:2:0:0:
60,88,11591,1,8,2:2:0:0:
16,184,11915,2,0,P|36:232|76:272,1,96,2|10,0:0|2:2,0:0:0:0:
116,284,12402,1,0,0:0:0:0:
116,284,12564,2,0,P|148:240|200:216,1,96,2|10,2:2|1:2,0:0:0:0:
288,240,13212,5,2,1:2:0:0:
388,280,13537,1,8,2:2:0:0:
480,92,14185,2,0,P|440:64|368:64,1,96,10|2,2:2|2:2,0:0:0:0:
308,120,14834,2,0,L|280:172,2,48,10|0|2,2:2|0:0|2:2,0:0:0:0:
240,40,15483,1,14,2:2:0:0:
136,64,15807,6,0,B|88:88|88:88|56:148,1,120,6|8,1:2|2:2,0:0:0:0:
56,200,16294,2,0,B|80:248|80:248|140:280,1,120,6|0,1:2|1:1,0:0:0:0:
188,300,16780,1,10,2:2:0:0:
284,248,17104,5,2,1:2:0:0:
224,160,17429,1,8,2:2:0:0:
224,160,17591,2,0,P|224:112|272:48,1,120,6|0,1:2|1:1,0:0:0:0:
316,40,18077,6,0,P|364:40|428:76,1,120,10|14,2:2|2:2,0:0:0:0:
464,176,18726,1,0,1:1:0:0:
464,176,18888,1,14,2:2:0:0:
436,280,19212,1,0,1:1:0:0:
436,280,19375,1,14,2:2:0:0:
352,212,19699,5,6,1:2:0:0:
164,320,20348,1,6,1:2:0:0:
80,256,20672,1,0,3:3:0:0:
136,164,20996,6,0,P|100:120|96:44,1,120,4|10,1:2|2:2,0:0:0:0:
196,28,21645,1,2,1:2:0:0:
196,28,21807,2,0,L|320:36,1,120,2|4,1:2|1:2,0:0:0:0:
424,40,22456,1,2,1:2:0:0:
488,128,22780,1,2,2:2:0:0:
412,204,23104,1,2,1:2:0:0:
412,204,23267,2,0,L|404:268,1,60,8|2,2:2|2:2,0:0:0:0:
400,316,23591,6,0,B|348:304|348:304|276:340,1,120,2|10,1:2|2:2,0:0:0:0:
232,244,24239,1,2,1:2:0:0:
232,244,24402,2,0,P|264:184|252:124,1,120,2|4,1:2|1:2,0:0:0:0:
192,48,25050,1,0,1:1:0:0:
192,48,25212,1,10,2:2:0:0:
100,104,25537,2,0,L|40:88,2,60,0|2|10,1:1|1:2|2:2,0:0:0:0:
152,200,26185,6,0,P|120:252|128:312,1,120,2|10,1:2|2:2,0:0:0:0:
164,348,26672,1,2,0:0:0:0:
164,348,26834,2,0,L|228:344,1,60,2|2,1:2|1:2,0:0:0:0:
296,264,27321,1,4,1:2:0:0:
376,336,27645,1,2,1:2:0:0:
448,256,27969,2,0,P|476:196|472:136,1,120,2|2,2:2|1:2,0:0:0:0:
440,100,28456,1,10,2:2:0:0:
356,32,28780,6,0,P|296:48|232:56,1,120,4|10,1:2|2:2,0:0:0:0:
220,164,29429,1,6,1:2:0:0:
220,164,29591,2,0,P|236:224|244:288,1,120,2|4,1:2|1:2,0:0:0:0:
160,348,30239,1,0,1:1:0:0:
160,348,30402,1,10,2:2:0:0:
72,288,30726,2,0,L|8:276,2,60,0|2|10,3:3|0:0|2:2,0:0:0:0:
132,196,31375,6,0,P|148:136|140:76,1,120,4|10,1:2|2:2,0:0:0:0:
120,32,31861,1,0,0:0:0:0:
120,32,32023,2,0,L|184:16,1,60,2|2,1:2|2:2,0:0:0:0:
280,60,32510,2,0,P|336:80|400:64,1,120,2|2,2:2|2:2,0:0:0:0:
440,44,32996,1,8,2:2:0:0:
440,44,33158,2,0,P|452:101|432:157,1,120,2|2,2:2|2:2,0:0:0:0:
372,248,33807,5,2,2:2:0:0:
372,248,33969,1,2,1:2:0:0:
428,340,34294,1,10,2:2:0:0:
324,368,34618,2,0,L|268:340,1,60,2|2,1:2|1:2,0:0:0:0:
220,316,34942,1,8,2:2:0:0:
220,316,35104,6,0,P|156:292|100:304,1,120,4|0,1:2|1:1,0:0:0:0:
56,324,35591,1,10,2:2:0:0:
4,228,35915,1,0,1:1:0:0:
92,164,36239,1,10,2:2:0:0:
32,76,36564,6,0,B|64:44|64:44|144:56,1,120,4|10,1:2|2:2,0:0:0:0:
192,64,37050,1,0,0:0:0:0:
192,64,37212,2,0,L|216:128,1,60,2|2,1:2|2:2,0:0:0:0:
256,220,37699,2,0,P|304:264|360:272,1,120,2|2,2:2|2:2,0:0:0:0:
444,208,38348,2,0,P|468:152|464:84,1,120,2|2,2:2|2:2,0:0:0:0:
392,16,38996,1,2,2:2:0:0:
392,16,39158,6,0,P|320:20|264:40,1,120,4|2,1:2|0:0,0:0:0:0:
216,124,39807,1,8,2:2:0:0:
128,60,40131,2,0,L|100:112,1,60,2|2,2:2|2:2,0:0:0:0:
76,164,40456,1,0,1:1:0:0:
20,256,40780,1,0,1:1:0:0:
100,328,41104,2,0,P|160:304|216:316,1,120,10|2,2:2|1:2,0:0:0:0:
320,336,41753,6,0,P|344:292|360:220,1,120,4|8,1:2|2:2,0:0:0:0:
360,172,42239,1,2,2:2:0:0:
360,172,42402,1,2,1:2:0:0:
256,200,42726,1,8,2:2:0:0:
172,132,43050,1,12,2:2:0:0:
216,32,43375,6,0,L|148:8,2,60,0|0|8,3:3|3:3|2:2,0:0:0:0:
320,68,44023,1,0,3:3:0:0:
360,172,44348,6,0,P|420:160|480:184,1,120,12|10,2:2|2:2,0:0:0:0:
504,216,44834,1,0,1:1:0:0:
504,216,44996,2,0,P|508:264|492:340,1,120,10|8,2:2|2:2,0:0:0:0:
448,360,45483,1,2,1:2:0:0:
380,276,45807,5,2,0:0:0:0:
380,276,45969,2,0,L|328:320,1,60,10|0,2:2|1:0,0:0:0:0:
292,348,46294,2,0,P|240:312|184:308,1,120,10|10,2:2|2:2,0:0:0:0:
100,240,46942,2,0,L|140:120,1,120,10|10,2:2|2:2,0:0:0:0:
132,16,47591,2,0,L|192:36,1,60,10|2,2:2|1:2,0:0:0:0:
240,56,47915,1,8,2:2:0:0:
344,88,48239,6,0,P|396:60|456:64,1,120,8|8,2:2|2:2,0:0:0:0:
476,168,48888,1,10,2:2:0:0:
492,276,49212,2,0,L|464:328,1,60,10|2,2:2|1:2,0:0:0:0:
416,352,49537,2,0,P|360:324|324:280,1,120,12|8,2:2|2:2,0:0:0:0:
340,172,50185,1,10,2:2:0:0:
356,64,50510,6,0,L|296:56,1,60,10|0,2:2|1:1,0:0:0:0:
244,52,50834,2,0,P|184:44|128:68,1,120,10|8,2:2|2:2,0:0:0:0:
44,128,51483,1,10,2:2:0:0:
140,176,51807,2,0,L|168:232,1,60,8|2,2:2|1:2,0:0:0:0:
192,276,52131,6,0,P|252:264|300:232,1,120,10|10,2:2|2:2,0:0:0:0:
340,132,52780,1,10,2:2:0:0:
380,32,53104,2,0,L|444:32,1,60,10|2,2:2|1:2,0:0:0:0:
496,32,53429,2,0,P|508:100|496:156,1,120,10|8,2:2|2:2,0:0:0:0:
408,208,54077,2,0,P|398:266|410:325,1,120,10|12,2:2|2:2,0:0:0:0:
308,356,54726,6,0,B|256:352|256:352|240:340|240:340|192:336,1,120,12|10,2:2|2:2,0:0:0:0:
140,328,55212,1,0,1:0:0:0:
140,328,55375,2,0,L|148:260,1,60,10|2,2:2|1:2,0:0:0:0:
152,160,55861,2,0,P|96:132|68:84,1,120,2|2,1:2|0:0,0:0:0:0:
80,32,56348,1,10,2:2:0:0:
188,32,56672,2,0,L|248:32,1,60,10|0,2:2|1:1,0:0:0:0:
300,32,56996,1,10,2:2:0:0:
340,132,57321,6,0,P|352:192|392:240,1,120,10|10,2:2|2:2,0:0:0:0:
476,296,57969,1,10,2:2:0:0:
476,296,58131,1,2,1:2:0:0:
508,192,58456,1,2,1:2:0:0:
508,192,58618,2,0,P|496:132|456:84,1,120,8|8,2:2|2:2,0:0:0:0:
368,28,59267,1,10,2:2:0:0:
340,132,59591,2,0,L|276:116,1,60,8|0,2:2|1:1,0:0:0:0:
228,104,59915,1,4,1:2:0:0:
124,80,60239,6,0,P|64:64|4:76,1,120,10|2,2:2|1:2,0:0:0:0:
4,128,60726,1,2,1:2:0:0:
12,236,61050,2,0,B|56:224|56:224|128:260,1,120,2|0,2:2|1:1,0:0:0:0:
172,280,61537,1,12,2:2:0:0:
228,188,61861,2,0,L|208:132,1,60,2|0,1:2|3:3,0:0:0:0:
184,84,62185,1,10,2:2:0:0:
272,20,62510,6,0,P|324:40|388:44,1,120,6|10,1:2|2:2,0:0:0:0:
428,80,62996,2,0,P|424:139|403:195,1,120,6|2,1:2|1:2,0:0:0:0:
376,244,63483,1,10,2:2:0:0:
376,244,63645,1,6,1:2:0:0:
332,344,63969,6,0,L|264:324,1,60,2|10,1:2|2:2,0:0:0:0:
224,312,64294,2,0,P|164:296|104:316,1,120,6|2,1:2|1:2,0:0:0:0:
64,340,64780,1,10,2:2:0:0:
20,240,65104,5,2,2:2:0:0:
92,156,65429,1,2,2:2:0:0:
92,156,65591,1,2,2:2:0:0:
256,192,65672,12,0,68348,0:0:0:0:
