osu file format v14

[General]
AudioFilename: audio.mp3
AudioLeadIn: 0
PreviewTime: 60012
Countdown: 0
SampleSet: Soft
StackLeniency: 0.5
Mode: 0
LetterboxInBreaks: 0
WidescreenStoryboard: 1

[Editor]
Bookmarks: 21687,40887,50487,79287,98487,108087,127287,136887,146487,156087
DistanceSpacing: 1
BeatDivisor: 4
GridSize: 32
TimelineZoom: 1.5

[Metadata]
Title:Nyanya no Uta
TitleUnicode:にゃにゃの歌
Artist:NICODE
ArtistUnicode:NICODE
Creator:SLM
Version:Extra
Source:Deemo
Tags:Narae piano jazz
BeatmapID:1955255
BeatmapSetID:935942

[Difficulty]
HPDrainRate:6
CircleSize:4.2
OverallDifficulty:8.5
ApproachRate:9.5
SliderMultiplier:1.7
SliderTickRate:1

[Events]
//Background and Video events
0,0,"64487892_20190304_072815.jpg",0,0
//Break Periods
2,98487,106962
2,137087,145962
//Storyboard Layer 0 (Background)
//Storyboard Layer 1 (Fail)
//Storyboard Layer 2 (Pass)
//Storyboard Layer 3 (Foreground)
//Storyboard Sound Samples

[TimingPoints]
2487,300,4,2,2,25,1,0
2487,-333.333333333333,4,2,2,25,0,0
18087,-333.333333333333,4,2,2,32,0,0
19287,-238.095238095238,4,2,2,40,0,0
20487,-153.846153846154,4,2,2,50,0,0
21237,-111.111111111111,4,2,2,50,0,0
21687,-83.3333333333333,4,2,2,50,0,0
27687,-71.4285714285714,4,2,2,50,0,0
28287,-83.3333333333333,4,2,2,50,0,0
29337,-76.9230769230769,4,2,2,50,0,0
30687,-142.857142857143,4,2,2,50,0,0
31287,-100,4,2,2,50,0,0
33687,-111.111111111111,4,2,2,50,0,0
34587,-100,4,2,2,50,0,0
36087,-90.9090909090909,4,2,2,50,0,0
37287,-83.3333333333333,4,2,2,55,0,0
38487,-100,4,2,2,50,0,0
40587,-100,4,2,2,40,0,0
41187,-200,4,2,2,30,0,0
47937,-166.666666666667,4,2,2,30,0,0
48687,-166.666666666667,4,2,2,30,0,0
49187,-142.857142857143,4,2,2,33,0,0
49487,-125,4,2,2,36,0,0
49787,-142.857142857143,4,2,2,40,0,0
50387,-142.857142857143,4,2,2,40,0,0
51087,-125,4,2,2,40,0,0
57687,-125,4,2,2,30,0,0
58287,-125,4,2,2,40,0,0
58587,-125,4,2,2,45,0,0
58887,-125,4,2,2,40,0,0
74487,-125,4,2,2,50,0,0
76887,-100,4,2,2,60,0,0
78687,-100,4,2,2,60,0,0
79287,-100,4,2,2,60,0,1
83037,-111.111111111111,4,2,2,60,0,1
83487,-100,4,2,2,60,0,1
88287,-66.6666666666667,4,2,2,70,0,0
88887,-100,4,2,2,60,0,1
91287,-90.9090909090909,4,2,2,60,0,1
92487,-100,4,2,2,60,0,1
96087,-100,4,2,2,65,0,1
98187,-100,4,2,2,65,0,0
107487,-100,4,2,2,50,0,0
108087,-125,4,2,2,45,0,0
116487,-111.111111111111,4,2,2,45,0,0
117687,-125,4,2,2,55,0,0
120087,-125,4,2,2,50,0,0
123687,-125,4,2,2,45,0,0
126687,-125,4,2,2,55,0,0
127287,-125,4,2,2,50,0,0
128487,-125,4,2,2,45,0,0
131787,-111.111111111111,4,2,2,45,0,0
132687,-125,4,2,2,55,0,0
133287,-125,4,2,2,50,0,0
134487,-125,4,2,2,45,0,0
135687,-166.666666666667,4,2,2,45,0,0
135987,-166.666666666667,4,2,2,40,0,0
136887,-212.765957446809,4,2,2,45,0,0
146487,-212.765957446809,4,2,2,35,0,0
151962,-212.765957446809,4,2,2,5,0,0
152037,-212.765957446809,4,2,2,45,0,0
153687,-181.818181818182,4,2,2,45,0,0
154737,-151.515151515152,4,2,2,55,0,0
155637,-125,4,2,2,55,0,0
155787,-90.9090909090909,4,2,2,65,0,0
156087,-90.9090909090909,4,2,2,65,0,1
165087,-62.5,4,2,2,75,0,0
165687,-90.9090909090909,4,2,2,65,0,1
166887,-90.9090909090909,4,2,2,55,0,1
167787,-90.9090909090909,4,2,2,65,0,1
169287,-90.9090909090909,4,2,2,65,0,1
170487,-90.9090909090909,4,2,2,65,0,1
172887,-90.9090909090909,4,2,2,70,0,1
174687,-90.9090909090909,4,2,2,70,0,0

[Colours]
Combo1 : 125,255,80
Combo2 : 255,145,255
Combo3 : 255,240,80

[HitObjects]
87,43,2487,5,0,0:0:0:0:
87,43,3087,2,0,L|138:50,1,50.9999984436036,0|0,0:0|0:0,0:0:0:0:
209,105,3687,2,0,P|200:129|194:154,1,50.9999984436036,0|0,0:0|0:0,0:0:0:0:
107,186,4287,2,0,P|106:161|107:136,1,50.9999984436036,0|0,0:0|0:0,0:0:0:0:
28,244,4887,6,0,P|15:194|11:139,1,101.999996887207,0|0,0:0|0:0,0:0:0:0:
46,63,5787,1,0,0:0:0:0:
107,136,6087,2,0,L|211:116,1,101.999996887207,0|0,0:0|0:0,0:0:0:0:
304,116,7287,6,0,L|405:136,1,101.999996887207,0|0,0:0|0:0,0:0:0:0:
425,51,8187,1,0,0:0:0:0:
451,60,8787,1,0,0:0:0:0:
497,133,9087,2,0,L|496:183,1,50.9999984436036,0|0,0:0|0:0,0:0:0:0:
408,135,9687,6,0,P|359:120|311:134,2,101.999996887207,0|0|0,0:0|0:0|0:0,0:0:0:0:
435,217,11487,2,0,L|434:267,1,50.9999984436036,0|0,0:0|0:0,0:0:0:0:
374,332,12087,5,0,0:0:0:0:
313,267,12687,2,0,L|313:217,1,50.9999984436036,0|0,0:0|0:0,0:0:0:0:
398,203,13287,2,0,P|423:200|448:200,1,50.9999984436036,0|0,0:0|0:0,0:0:0:0:
383,115,13887,2,0,P|358:122|336:133,1,50.9999984436036,0|0,0:0|0:0,0:0:0:0:
257,84,14487,6,0,P|248:134|249:190,1,101.999996887207,0|0,0:0|0:0,0:0:0:0:
293,259,15387,1,0,0:0:0:0:
216,299,15687,2,0,L|110:286,1,101.999996887207,0|0,0:0|0:0,0:0:0:0:
61,218,16887,5,0,0:0:0:0:
133,170,17487,2,0,L|184:179,1,50.9999984436036,0|0,0:0|0:0,0:0:0:0:
298,68,18087,6,0,P|300:94|298:119,1,50.9999984436036,0|0,0:0|0:0,0:0:0:0:
213,118,18687,2,0,P|211:93|214:68,1,50.9999984436036,0|0,0:0|0:0,0:0:0:0:
355,183,19287,6,0,P|350:218|341:251,1,71.399997821045,0|0,0:0|0:0,0:0:0:0:
170,252,19887,2,0,P|161:218|157:183,1,71.399997821045,0|0,0:0|0:0,0:0:0:0:
134,353,20487,6,0,P|160:346|188:342,1,55.2499974708558,0|0,0:0|0:0,0:0:0:0:
378,353,20787,2,0,P|352:346|324:342,1,55.2499974708558,0|0,0:0|0:0,0:0:0:0:
323,341,21012,1,2,0:0:0:0:
323,341,21087,1,10,0:0:0:0:
256,254,21237,1,8,0:0:0:0:
419,217,21387,2,0,L|453:225,6,19.1249994163513,0|0|0|0|0|0|0,0:0|0:0|0:0|0:0|0:0|0:0|0:0,0:0:0:0:
325,234,21687,6,0,P|275:225|225:216,1,101.999996887207,4|0,0:0|0:0,0:0:0:0:
120,194,21987,1,2,0:0:0:0:
120,194,22137,1,0,0:0:0:0:
302,85,22287,5,0,0:0:0:0:
66,101,22437,1,2,0:0:0:0:
180,27,22587,2,0,P|184:77|188:128,1,101.999996887207,0|0,0:0|0:0,0:0:0:0:
117,321,22887,5,10,0:0:0:0:
233,318,23037,2,0,P|229:267|225:217,1,101.999996887207,0|0,0:0|0:0,0:0:0:0:
75,231,23337,1,8,0:3:0:0:
104,227,23412,1,8,0:3:0:0:
135,225,23487,1,4,0:0:0:0:
283,132,23637,1,4,0:0:0:0:
84,33,23787,6,0,P|89:84|93:135,1,101.999996887207,2|0,0:0|0:0,0:0:0:0:
0,94,24087,1,0,0:0:0:0:
180,77,24237,1,0,0:0:0:0:
180,77,24387,1,2,0:0:0:0:
195,218,24537,6,0,P|194:243|195:269,2,50.9999984436036
289,223,24837,1,2,0:0:0:0:
104,227,24987,1,2,0:0:0:0:
282,101,25137,5,2,0:0:0:0:
312,92,25212,1,2,0:0:0:0:
342,85,25287,2,0,P|346:110|350:135,1,50.9999984436036,0|0,0:0|0:0,0:0:0:0:
384,224,25437,5,2,0:0:0:0:
415,225,25512,1,2,0:0:0:0:
445,229,25587,2,0,P|440:254|436:279,1,50.9999984436036,0|0,0:0|0:0,0:0:0:0:
401,361,25737,1,0,0:0:0:0:
439,125,25887,5,0,0:0:0:0:
273,313,26037,1,2,0:0:0:0:
242,314,26112,1,2,0:0:0:0:
212,318,26187,2,0,L|194:217,1,101.999996887207,8|0,0:0|0:0,0:0:0:0:
55,73,26487,6,0,P|105:64|155:55,1,101.999996887207,4|0,0:0|0:0,0:0:0:0:
334,108,26787,2,0,P|283:116|233:125,1,101.999996887207,2|0,0:0|0:0,0:0:0:0:
194,217,27087,5,0,0:0:0:0:
350,16,27237,1,2,0:0:0:0:
443,228,27387,2,0,P|392:217|342:210,1,101.999996887207,0|0,0:0|0:0,0:0:0:0:
153,264,27687,6,0,B|194:247|241:247|241:247|262:293|301:309,1,178.499994552612,2|0,0:0|0:0,0:0:0:0:
321,317,27987,1,2,0:0:0:0:
289,319,28062,1,2,0:0:0:0:
269,337,28137,1,2,0:0:0:0:
256,356,28212,1,2,0:0:0:0:
239,369,28287,6,0,L|184:357,1,50.9999984436036,8|0,0:3|0:0,0:0:0:0:
56,219,28437,1,2,0:0:0:0:
68,194,28512,1,2,0:0:0:0:
84,175,28587,2,0,L|133:164,1,50.9999984436036
153,264,28737,1,8,0:0:0:0:
344,191,28887,6,0,B|301:218|301:218|250:209,1,101.999996887207,8|0,0:0|0:0,0:0:0:0:
272,64,29187,1,8,0:0:0:0:
394,275,29337,6,0,B|310:264|310:264|239:304,1,165.749992412568,8|0,0:0|0:0,0:0:0:0:
224,331,29637,6,0,P|181:222|100:305,1,276.249987354279
149,382,30087,1,6,0:0:0:0:
333,303,30237,5,0,0:0:0:0:
219,74,30387,1,2,0:0:0:0:
11,227,30537,1,2,0:0:0:0:
357,200,30687,6,0,P|387:200|417:203,1,59.4999981842042,0|0,0:0|0:0,0:0:0:0:
247,263,30987,2,0,L|193:255,3,29.7499990921021
211,154,31287,5,4,0:0:0:0:
168,45,31437,2,0,L|252:46,1,85,0|8,0:0|0:0,0:0:0:0:
163,262,31737,2,0,L|247:263,2,85,0|0|8,0:0|0:0|0:0,0:0:0:0:
211,154,32187,5,2,0:0:0:0:
211,154,32337,1,2,0:0:0:0:
397,234,32487,5,2,0:0:0:0:
446,60,32637,1,0,0:0:0:0:
446,60,32787,1,8,0:0:0:0:
252,147,32937,6,0,L|211:154,2,42.5,8|8|4,0:3|0:3|0:0,0:0:0:0:
104,135,33237,1,10,0:0:0:0:
107,161,33312,1,2,0:0:0:0:
112,189,33387,1,2,0:0:0:0:
115,217,33462,1,0,0:0:0:0:
119,244,33537,1,2,0:0:0:0:
261,360,33687,6,0,L|244:246,1,114.749996498108,0|0,0:0|0:0,0:0:0:0:
43,343,33987,2,0,B|77:337|77:337|103:348|103:348|154:341,1,114.749996498108,2|0,0:0|0:0,0:0:0:0:
130,169,34287,2,0,L|120:244,1,76.4999976654053,0|8,0:0|0:0,0:0:0:0:
229,78,34587,2,0,B|136:68,2,85,4|0|4,0:0|0:0|0:0,0:0:0:0:
405,137,35087,6,0,L|353:159,1,56.6666666666667,0|2,0:0|0:0,0:0:0:0:
322,315,35387,2,0,L|299:263,1,56.6666666666667,0|2,0:0|0:0,0:0:0:0:
134,231,35687,2,0,L|187:210,1,56.6666666666667,0|2,0:0|0:0,0:0:0:0:
229,78,35987,5,0,0:0:0:0:
213,42,36087,2,0,L|161:59,1,46.7500014266968,8|0,0:0|0:0,0:0:0:0:
30,97,36237,5,2,0:0:0:0:
38,125,36312,1,2,0:0:0:0:
38,154,36387,1,2,0:0:0:0:
26,181,36462,1,2,0:0:0:0:
10,206,36537,1,2,0:0:0:0:
0,234,36612,1,2,0:0:0:0:
4,263,36687,1,2,0:0:0:0:
139,359,36837,6,0,P|201:281|106:252,1,233.750007133484,8|0,0:0|0:0,0:0:0:0:
419,291,37287,6,0,L|469:304,1,50.9999984436036,4|0,0:0|0:0,0:0:0:0:
336,353,37437,1,2,0:0:0:0:
317,314,37512,1,2,0:0:0:0:
316,271,37587,1,2,0:0:0:0:
332,232,37662,1,2,0:0:0:0:
364,204,37737,1,2,0:0:0:0:
387,168,37812,1,2,0:0:0:0:
391,125,37887,1,2,0:0:0:0:
237,18,38037,6,0,P|169:102|272:134,1,254.999992218018,8|0,0:0|0:0,0:0:0:0:
355,3,38487,5,4,0:0:0:0:
332,232,38637,1,0,0:0:0:0:
137,135,38787,1,0,0:0:0:0:
272,133,38937,1,8,0:0:0:0:
304,133,39237,5,2,0:0:0:0:
336,133,39537,1,8,0:0:0:0:
285,319,39687,5,4,0:0:0:0:
211,231,39837,1,0,0:0:0:0:
272,133,39987,1,0,0:0:0:0:
383,161,40137,1,0,0:0:0:0:
391,276,40287,1,2,0:0:0:0:
202,345,40587,6,0,L|202:323,1,21.25,2|2,0:0|0:0,0:0:0:0:
172,182,41187,6,0,P|129:137|68:143,1,127.5,0|0,0:0|0:0,0:0:0:0:
23,294,41787,1,0,0:0:0:0:
23,294,41937,2,0,P|65:293|107:294,1,85,0|0,0:0|0:0,0:0:0:0:
172,182,42387,6,0,P|193:182|215:184,1,42.5,0|0,0:0|0:0,0:0:0:0:
198,268,42687,2,0,P|199:289|198:311,1,42.5,0|0,0:0|0:0,0:0:0:0:
86,208,42987,2,0,P|86:187|88:165,1,42.5,0|0,0:0|0:0,0:0:0:0:
297,253,43287,6,0,P|298:295|297:338,1,85,0|0,0:0|0:0,0:0:0:0:
334,35,43887,2,0,P|333:77|335:120,1,85,0|0,0:0|0:0,0:0:0:0:
289,222,44487,2,0,P|331:219|372:228,1,85,0|0,0:0|0:0,0:0:0:0:
266,247,44937,6,0,P|257:205|259:163,1,85,0|0,0:0|0:0,0:0:0:0:
348,69,45537,1,0,0:0:0:0:
400,198,45987,5,0,0:0:0:0:
400,198,46287,1,0,0:0:0:0:
400,198,46587,1,0,0:0:0:0:
302,323,46887,6,0,P|282:320|260:318,1,42.5,0|0,0:0|0:0,0:0:0:0:
142,291,47187,1,0,0:0:0:0:
204,222,47337,2,0,P|224:218|246:216,1,42.5,0|0,0:0|0:0,0:0:0:0:
315,133,47637,2,0,P|294:129|272:127,1,42.5,0|0,0:0|0:0,0:0:0:0:
107,195,47937,6,0,P|36:181|25:110,1,152.999995330811,0|0,0:0|0:0,0:0:0:0:
84,37,48687,1,2,0:0:0:0:
256,79,48987,5,2,0:0:0:0:
155,173,49187,6,0,L|160:212,1,39.6666654561361,0|2,0:0|0:0,0:0:0:0:
256,184,49487,2,0,L|256:229,1,45.3333333333333,0|2,0:0|0:0,0:0:0:0:
357,173,49787,2,0,L|351:212,1,39.6666654561361,0|2,0:0|0:0,0:0:0:0:
255,339,50087,5,2,0:0:0:0:
362,301,50187,1,2,0:0:0:0:
150,301,50387,6,0,B|120:268|129:228|134:225|140:223|151:183|126:151,1,158.666661824544,4|0,0:0|0:0,0:0:0:0:
63,78,51087,6,0,P|41:72|18:70,2,45.3333333333333,8|0|0,0:3|0:0|0:0,0:0:0:0:
227,213,51387,2,0,P|205:218|183:222,2,45.3333333333333,0|0|0,0:0|0:0|0:0,0:0:0:0:
94,174,51687,6,0,P|80:216|86:261,1,90.6666666666667,4|0,0:0|0:0,0:0:0:0:
108,295,51987,2,0,P|105:317|99:339,1,45.3333333333333
314,150,52187,6,0,P|322:106|314:62,1,90.6666666666667,0|0,0:0|0:0,0:0:0:0:
342,31,52487,1,0,0:0:0:0:
416,135,52587,2,0,P|460:144|505:141,1,90.6666666666667,0|0,0:0|0:0,0:0:0:0:
510,30,52887,5,0,0:3:0:0:
414,242,53087,2,0,P|392:238|368:237,2,45.3333333333333,0|2|0,0:0|0:0|0:0,0:0:0:0:
272,97,53387,2,0,P|250:98|228:103,2,45.3333333333333,0|0|0,0:0|0:0|0:0,0:0:0:0:
189,362,53687,6,0,P|206:321|201:276,1,90.6666666666667,0|0,0:0|0:0,0:0:0:0:
111,240,53987,2,0,P|99:220|93:198,1,45.3333333333333,0|4,0:0|0:0,0:0:0:0:
141,79,54287,5,0,0:0:0:0:
237,150,54387,1,0,0:0:0:0:
111,240,54687,6,0,B|63:266|82:313,1,90.6666666666667,4|0,0:0|0:0,0:0:0:0:
111,240,54987,2,0,B|64:237|64:237|28:262,1,90.6666666666667,0|0,0:0|0:0,0:0:0:0:
187,312,55287,6,0,B|234:315|234:315|270:290,1,90.6666666666667,4|0,0:0|0:0,0:0:0:0:
200,172,55587,1,0,0:0:0:0:
363,328,55787,5,0,0:0:0:0:
443,297,55887,2,0,P|421:293|399:292,2,45.3333333333333,0|0|0,0:0|0:0|0:0,0:0:0:0:
340,167,56187,2,0,P|362:163|384:162,2,45.3333333333333,0|0|0,0:0|0:0|0:0,0:0:0:0:
462,66,56487,6,0,P|416:17|350:14,1,136,4|0,0:0|0:0,0:0:0:0:
258,241,56987,1,4,0:0:0:0:
257,241,57387,2,0,P|197:217|185:153,1,136,4|8,0:0|0:0,0:0:0:0:
247,83,57987,5,0,0:0:0:0:
324,135,58287,1,8,0:0:0:0:
309,226,58587,1,8,0:0:0:0:
84,130,58887,5,8,0:0:0:0:
206,212,59087,5,8,0:0:0:0:
201,255,59187,1,8,0:0:0:0:
103,331,59387,5,8,0:0:0:0:
70,304,59487,2,8,L|63:270,3,34,8|8|8|8,0:0|0:0|0:0|0:0,0:0:0:0:
90,163,59787,2,8,L|83:129,3,34,8|8|8|8,0:0|0:0|0:0|0:0,0:0:0:0:
13,324,60087,6,0,P|58:321|102:330,1,90.6666666666667,4|0,0:0|0:0,0:0:0:0:
211,242,60387,2,0,P|219:263|222:286,2,45.3333333333333,0|0|0,0:0|0:0|0:0,0:0:0:0:
328,305,60687,2,0,P|372:297|413:314,1,90.6666666666667
442,124,60987,2,0,P|421:113|399:109,1,45.3333333333333,0|0,0:0|0:0,0:0:0:0:
317,167,61187,1,0,0:0:0:0:
264,38,61287,6,0,P|220:36|181:58,1,90.6666666666667,4|0,0:0|0:0,0:0:0:0:
124,189,61587,2,0,P|128:211|136:233,2,45.3333333333333,2|0|0,0:0|0:0|0:0,0:0:0:0:
328,305,61887,2,0,P|335:284|340:262,2,45.3333333333333,4|0|0,0:0|0:0|0:0,0:0:0:0:
234,136,62187,6,0,P|228:180|245:222,1,90.6666666666667
431,349,62487,2,0,P|448:308|443:263,1,90.6666666666667,4|0,0:0|0:0,0:0:0:0:
419,97,62787,1,2,0:0:0:0:
350,188,63087,6,0,P|319:156|304:114,1,90.6666666666667,0|0,0:0|0:0,0:0:0:0:
186,88,63387,2,0,P|229:78|274:85,1,90.6666666666667,0|0,0:0|0:0,0:0:0:0:
171,221,63687,2,0,P|192:213|217:211,2,45.3333333333333,4|0|0,0:0|0:0|0:0,0:0:0:0:
109,308,63987,5,2,0:0:0:0:
76,147,64187,6,0,L|64:103,1,45.3333333333333,0|4,0:0|0:0,0:0:0:0:
186,89,64487,2,0,L|191:44,1,45.3333333333333,0|8,0:0|0:3,0:0:0:0:
300,154,64787,2,0,L|317:112,1,45.3333333333333,0|4,0:0|0:0,0:0:0:0:
280,319,65187,5,0,0:0:0:0:
418,287,65487,2,0,P|419:241|404:199,1,90.6666666666667,0|0,0:0|0:0,0:0:0:0:
256,166,65787,2,0,P|277:158|299:153,2,45.3333333333333,0|0|0,0:0|0:0|0:0,0:0:0:0:
180,254,66087,6,0,P|139:234|94:224,1,90.6666666666667,4|0,0:0|0:0,0:0:0:0:
20,262,66387,1,2,0:0:0:0:
19,270,66462,1,0,0:0:0:0:
18,278,66537,1,0,0:0:0:0:
17,286,66612,1,2,0:0:0:0:
16,294,66687,2,0,P|20:316|20:340,3,34,4|0|0|0,0:0|0:0|0:0|0:0,0:0:0:0:
33,149,66987,6,0,P|35:126|43:105,2,45.3333333333333,0|0|0,0:0|0:0|0:0,0:0:0:0:
166,40,67287,5,2,0:0:0:0:
209,52,67387,1,2,0:0:0:0:
235,89,67487,1,2,0:0:0:0:
238,134,67587,5,2,0:0:0:0:
257,93,67687,1,2,0:0:0:0:
296,69,67787,1,2,0:0:0:0:
340,58,67887,6,0,L|383:72,1,45.3333333333333,2|0,0:0|0:0,0:0:0:0:
420,190,68087,2,0,L|335:160,1,90.6666666666667,2|0,0:0|0:0,0:0:0:0:
284,252,68387,5,2,0:0:0:0:
284,252,68487,2,0,P|307:255|327:266,1,45.3333333333333,4|0,0:0|0:0,0:0:0:0:
228,331,68687,6,0,L|183:340,1,45.3333333333333,0|0,0:0|0:0,0:0:0:0:
43,299,68987,2,0,L|87:308,1,45.3333333333333,0|4,0:0|0:0,0:0:0:0:
46,202,69287,5,0,0:0:0:0:
202,195,69387,2,0,P|199:172|195:150,1,45.3333333333333,0|0,0:0|0:0,0:0:0:0:
42,105,69587,6,0,B|89:58|89:58|157:72,1,136,4|0,0:0|0:0,0:0:0:0:
195,239,69987,2,0,P|199:217|202:195,2,45.3333333333333,0|0|0,0:0|0:0|0:0,0:0:0:0:
289,298,70287,2,0,L|296:343,1,45.3333333333333,8|0,0:0|0:0,0:0:0:0:
466,202,70487,5,8,0:0:0:0:
310,195,70587,2,0,P|313:172|317:150,1,45.3333333333333,8|0,0:0|0:0,0:0:0:0:
469,104,70787,6,0,P|421:60|355:67,1,136,4|0,0:0|0:0,0:0:0:0:
210,149,71187,2,0,L|195:239,1,90.6666666666667,2|0,0:0|0:0,0:0:0:0:
323,281,71487,6,0,B|327:233|327:233|310:195,1,90.6666666666667,4|0,0:0|0:0,0:0:0:0:
81,89,71787,2,0,P|79:133|98:174,1,90.6666666666667,2|0,0:0|0:0,0:0:0:0:
228,49,72087,6,0,L|183:54,1,45.3333333333333,0|0,0:0|0:0,0:0:0:0:
195,238,72387,1,0,0:0:0:0:
309,194,72587,6,0,P|289:182|267:176,2,45.3333333333333,4|0|0,0:0|0:0|0:0,0:0:0:0:
413,140,72887,2,0,P|434:132|456:129,2,45.3333333333333,4|0|0,0:0|0:0|0:0,0:0:0:0:
434,266,73187,6,0,P|409:326|345:337,1,136,4|0,0:0|0:0,0:0:0:0:
157,275,73587,2,0,P|201:265|247:267,1,90.6666666666667,0|0,0:0|0:0,0:0:0:0:
82,204,73887,6,0,B|34:230|50:279,1,90.6666666666667,0|2,0:0|0:0,0:0:0:0:
82,204,74187,2,0,B|35:201|35:201|-1:226,1,90.6666666666667,2|0,0:0|0:0,0:0:0:0:
158,276,74487,6,0,B|205:279|205:279|241:254,1,90.6666666666667,8|0,0:0|0:0,0:0:0:0:
171,136,74787,6,0,P|166:113|160:91,2,45.3333333333333,8|0|0,0:0|0:0|0:0,0:0:0:0:
277,285,75087,2,0,P|276:262|279:229,2,45.3333333333333,4|0|0,0:0|0:0|0:0,0:0:0:0:
388,126,75387,5,2,0:0:0:0:
393,80,75487,1,2,0:0:0:0:
379,36,75587,1,2,0:0:0:0:
388,281,75987,6,0,L|397:326,1,45.3333333333333,8|0,0:0|0:0,0:0:0:0:
140,272,76387,6,0,L|132:316,1,45.3333333333333,8|0,0:0|0:0,0:0:0:0:
201,368,76587,2,0,L|234:364,3,34,0|0|0|0,0:0|0:0|0:0|0:0,0:0:0:0:
336,270,76887,2,0,L|251:277,1,85,12|0,0:0|0:0,0:0:0:0:
94,189,77187,5,4,0:0:0:0:
94,189,77337,1,8,0:0:0:0:
262,380,77487,1,4,0:0:0:0:
258,127,77637,1,8,0:0:0:0:
110,351,77787,1,4,0:0:0:0:
374,286,77937,6,0,B|335:268|335:268|250:277,1,127.5,8|0,0:0|0:0,0:0:0:0:
110,351,78237,2,0,L|152:346,1,42.5,8|0,0:0|0:0,0:0:0:0:
395,178,78387,6,0,B|356:160|356:160|313:165,1,85,8|0,0:0|0:0,0:0:0:0:
353,56,78687,6,0,L|409:65,5,56.6666666666667,8|0|0|0|0|0,0:0|0:0|0:0|0:0|0:0|0:0,0:0:0:0:
120,48,79287,6,0,P|143:126|230:116,1,170,4|2,0:0|0:0,0:0:0:0:
246,36,79737,1,8,0:3:0:0:
147,238,79887,2,0,B|111:225|111:225|64:228,1,85,8|0,0:3|0:0,0:0:0:0:
198,329,80187,1,2,0:0:0:0:
198,329,80337,2,0,B|234:316|234:316|281:319,1,85,0|8,0:0|0:3,0:0:0:0:
417,230,80637,5,2,0:0:0:0:
246,92,80787,2,0,P|227:129|229:171,1,85,2|0,0:0|0:0,0:0:0:0:
327,205,81087,1,2,0:0:0:0:
325,183,81162,1,2,0:0:0:0:
324,162,81237,1,2,0:0:0:0:
139,94,81387,1,2,0:0:0:0:
276,8,81537,1,0,0:0:0:0:
148,188,81687,6,0,B|103:193|68:160|68:160|29:173|3:208,1,170,4|8,0:0|0:0,0:0:0:0:
75,272,82137,1,4,0:0:0:0:
236,349,82287,2,0,P|241:307|228:266,1,85,8|8,0:3|0:0,0:0:0:0:
258,167,82587,1,2,0:0:0:0:
258,167,82737,2,0,P|252:125|265:84,1,85,2|4,0:0|0:0,0:0:0:0:
124,215,83037,5,2,0:0:0:0:
98,206,83112,1,2,0:0:0:0:
72,199,83187,2,0,L|147:187,1,76.4999976654053,8|8,0:0|0:0,0:0:0:0:
348,128,83487,2,0,L|391:129,3,42.5,4|0|4|0,0:0|0:0|0:0|0:0,0:0:0:0:
282,257,83787,2,0,L|292:298,3,42.5,8|0|0|0,0:0|0:0|0:0|0:0,0:0:0:0:
205,382,84087,5,4,0:0:0:0:
144,207,84237,1,2,0:0:0:0:
154,166,84312,1,2,0:0:0:0:
147,124,84387,1,2,0:0:0:0:
48,158,84537,5,8,0:3:0:0:
112,242,84687,1,2,0:0:0:0:
101,283,84762,1,2,0:0:0:0:
108,324,84837,1,2,0:0:0:0:
208,290,84987,2,0,L|251:282,3,42.5,2|0|0|0,0:0|0:0|0:0|0:0,0:0:0:0:
354,163,85287,5,6,0:0:0:0:
312,153,85362,1,2,0:0:0:0:
281,123,85437,1,2,0:0:0:0:
281,80,85512,1,2,0:0:0:0:
259,43,85587,1,2,0:0:0:0:
218,31,85662,1,2,0:0:0:0:
179,48,85737,1,2,0:0:0:0:
163,87,85812,1,2,0:0:0:0:
175,127,85887,6,0,L|167:168,3,42.5,4|0|0|0,0:0|0:0|0:0|0:0,0:0:0:0:
242,240,86187,2,0,L|249:281,3,42.5,8|0|0|0,0:3|0:0|0:0|0:0,0:0:0:0:
477,340,86487,6,0,B|489:294|440:278|440:278|411:314|360:319,1,170,4|2,0:0|0:0,0:0:0:0:
343,209,86937,1,8,0:3:0:0:
267,382,87087,1,4,0:0:0:0:
67,314,87237,2,0,P|109:308|151:309,1,85,2|2,0:0|0:0,0:0:0:0:
239,164,87537,1,8,0:3:0:0:
188,51,87687,5,4,0:0:0:0:
126,213,87837,1,0,0:0:0:0:
288,275,87987,1,2,0:0:0:0:
350,113,88137,1,2,0:0:0:0:
41,189,88287,6,0,B|68:150|74:102|74:102|115:129|165:134,1,191.250007295609,14|0,0:0|0:0,0:0:0:0:
435,89,88587,2,0,B|408:50|402:2|402:2|361:29|311:34,1,191.250007295609,14|0,0:0|0:0,0:0:0:0:
46,284,88887,6,0,B|89:280|131:276|131:276|177:272|208:302,1,170,4|2,0:0|0:0,0:0:0:0:
163,384,89337,1,8,0:3:0:0:
400,251,89487,2,0,L|314:242,1,85,0|8,0:0|0:3,0:0:0:0:
348,347,89787,1,0,0:0:0:0:
367,146,89937,5,2,0:0:0:0:
200,218,90237,1,2,0:0:0:0:
128,51,90537,1,2,0:0:0:0:
49,167,90687,6,0,P|77:162|106:162,2,56.6666666666667,2|0|0,0:0|0:0|0:0,0:0:0:0:
190,319,90987,2,0,P|218:319|247:324,2,56.6666666666667,2|8|8,0:0|0:0|0:0,0:0:0:0:
367,146,91287,6,0,P|356:58|271:32,1,187.000005706787,4|2,0:0|0:0,0:0:0:0:
375,303,91737,1,4,0:0:0:0:
181,251,91887,2,0,P|227:240|274:236,1,93.5000028533936,0|8,0:0|0:3,0:0:0:0:
212,129,92187,1,0,0:0:0:0:
75,266,92337,1,2,0:0:0:0:
95,56,92487,6,0,L|97:141,1,85,6|2,0:0|0:0,0:0:0:0:
75,266,92787,2,0,L|76:350,1,85,10|0,0:0|0:0,0:0:0:0:
237,91,93087,2,0,P|233:134|233:176,1,85,2|2,0:0|0:0,0:0:0:0:
204,295,93387,1,2,0:0:0:0:
243,282,93462,1,2,0:0:0:0:
286,274,93537,1,2,0:0:0:0:
327,268,93612,1,2,0:0:0:0:
370,267,93687,5,6,0:0:0:0:
465,353,93837,1,0,0:0:0:0:
430,136,93987,2,0,L|345:142,1,85,8|0,0:0|0:0,0:0:0:0:
243,282,94287,1,4,0:0:0:0:
237,91,94437,2,0,L|152:97,1,85,8|0,0:0|0:0,0:0:0:0:
59,269,94737,6,0,L|144:275,1,85,10|4,0:0|0:0,0:0:0:0:
374,173,95037,2,0,L|289:179,1,85,2|2,0:0|0:0,0:0:0:0:
195,188,95337,1,2,0:0:0:0:
316,351,95487,1,2,0:0:0:0:
316,351,95637,1,2,0:0:0:0:
481,212,95787,2,0,P|477:169|477:127,1,85,8|4,0:0|0:0,0:0:0:0:
377,257,96087,6,0,P|375:215|374:173,1,85,6|0,0:0|0:0,0:0:0:0:
131,30,96387,1,10,0:0:0:0:
169,286,96537,1,10,0:0:0:0:
382,149,96687,5,2,0:0:0:0:
113,51,96837,1,10,0:0:0:0:
175,310,96987,1,6,0:0:0:0:
228,155,97137,1,10,0:0:0:0:
277,23,97437,5,2,0:0:0:0:
321,284,97587,1,10,0:0:0:0:
77,201,97737,1,10,0:0:0:0:
228,155,97887,1,10,0:0:0:0:
257,146,98187,5,10,0:0:0:0:
437,243,107487,5,8,0:0:0:0:
437,243,107637,1,8,0:0:0:0:
382,364,107787,1,2,0:0:0:0:
382,364,107937,1,2,0:0:0:0:
255,329,108087,6,0,P|221:322|187:319,1,68,4|0,0:0|0:0,0:0:0:0:
325,214,108387,2,0,P|291:217|257:223,1,68,0|0,0:0|0:0,0:0:0:0:
156,206,108687,1,4,0:0:0:0:
54,158,108837,1,0,0:0:0:0:
234,124,108987,2,0,P|240:90|243:56,1,68,0|0,0:0|0:0,0:0:0:0:
446,100,109287,5,4,0:0:0:0:
339,29,109437,2,0,L|372:25,2,34,0|0|2,0:0|0:0|0:0,0:0:0:0:
242,56,109737,1,0,0:0:0:0:
234,124,109887,2,0,P|240:90|243:56,1,68,4|2,0:0|0:0,0:0:0:0:
127,122,110187,2,0,P|130:155|135:189,1,68,0|0,0:0|0:0,0:0:0:0:
234,124,110487,5,4,0:0:0:0:
98,20,110637,1,0,0:0:0:0:
98,20,110787,1,0,0:0:0:0:
32,159,110937,2,0,P|35:192|40:226,1,68,0|4,0:0|0:0,0:0:0:0:
226,304,111237,2,2,P|231:270|234:236,1,68
103,314,111537,6,0,P|106:347|111:381,1,68,0|4,0:0|0:0,0:0:0:0:
234,124,111837,2,0,P|230:90|226:56,1,68,0|2,0:0|0:0,0:0:0:0:
367,26,112137,1,2,0:0:0:0:
371,223,112437,5,8,0:0:0:0:
371,223,112587,2,0,B|329:217|329:217|294:229|294:229|238:219,1,136,0|4,0:0|0:0,0:0:0:0:
142,170,113037,5,0,0:0:0:0:
131,283,113187,2,0,L|67:282,2,45.3333333333333,0|0|0,0:0|0:0|0:0,0:0:0:0:
16,217,113487,1,4,0:0:0:0:
50,104,113637,1,0,0:0:0:0:
142,170,113787,2,0,P|174:161|208:159,1,68,2|0,0:0|0:0,0:0:0:0:
336,269,114087,5,4,0:0:0:0:
336,269,114237,1,0,0:0:0:0:
447,226,114387,1,2,0:0:0:0:
443,209,114462,1,0,0:0:0:0:
442,192,114537,1,0,0:0:0:0:
441,175,114612,1,2,0:0:0:0:
442,158,114687,2,0,L|408:152,3,34,6|0|0|0,0:0|0:0|0:0|0:0,0:0:0:0:
331,75,114987,2,0,L|297:80,3,34,2|0|0|0,0:0|0:0|0:0|0:0,0:0:0:0:
203,251,115287,5,4,0:0:0:0:
329,314,115437,1,2,0:0:0:0:
332,291,115512,1,2,0:0:0:0:
336,269,115587,1,2,0:0:0:0:
285,167,115737,2,0,L|251:161,1,34,2|0,0:0|0:0,0:0:0:0:
108,209,115887,6,0,L|74:215,3,34,4|0|0|0,0:0|0:0|0:0|0:0,0:0:0:0:
203,251,116187,1,2,0:0:0:0:
206,224,116262,1,2,0:0:0:0:
209,197,116337,1,2,0:0:0:0:
213,170,116412,1,0,0:0:0:0:
216,143,116487,6,0,L|209:92,2,50.9999984436036
47,128,116787,2,0,L|40:76,2,50.9999984436036,0|0|0,0:0|0:0|0:0,0:0:0:0:
133,30,117087,5,4,0:0:0:0:
317,88,117237,1,8,0:0:0:0:
258,272,117387,1,0,0:0:0:0:
74,214,117537,1,0,0:0:0:0:
372,178,117687,5,8,0:0:0:0:
352,294,117837,1,2,0:0:0:0:
308,269,117912,1,2,0:0:0:0:
257,271,117987,1,10,0:0:0:0:
287,366,118137,1,0,0:0:0:0:
257,271,118287,5,2,0:0:0:0:
308,269,118362,1,2,0:0:0:0:
352,294,118437,1,2,0:0:0:0:
372,178,118587,1,2,0:0:0:0:
425,51,118737,6,0,P|459:47|492:51,1,68,0|4,0:0|0:0,0:0:0:0:
458,154,119037,1,0,0:0:0:0:
310,99,119187,2,0,P|276:97|242:100,1,68,2|0,0:0|0:0,0:0:0:0:
372,178,119487,2,0,P|437:188|463:248,1,136,4|8,0:0|0:0,0:0:0:0:
464,247,119937,1,8,0:3:0:0:
308,333,120087,5,4,0:0:0:0:
234,259,120237,1,2,0:0:0:0:
190,284,120312,1,2,0:0:0:0:
139,282,120387,1,2,0:0:0:0:
167,188,120537,1,0,0:0:0:0:
117,375,120687,5,4,0:0:0:0:
139,282,120837,1,2,0:0:0:0:
91,280,120912,1,2,0:0:0:0:
49,303,120987,1,2,0:0:0:0:
167,188,121137,6,0,L|169:154,2,34,0|0|4,0:0|0:0|0:0,0:0:0:0:
297,167,121437,1,0,0:0:0:0:
297,167,121587,2,0,P|331:165|365:168,1,68,8|0,0:0|0:0,0:0:0:0:
457,118,121887,5,4,0:0:0:0:
348,49,122037,1,0,0:0:0:0:
297,167,122187,2,0,P|297:200|300:239,1,68,2|0,0:0|0:0,0:0:0:0:
399,355,122487,5,4,0:0:0:0:
399,355,122637,1,8,0:3:0:0:
467,206,122787,2,0,P|468:172|469:138,1,68,0|0,0:0|0:0,0:0:0:0:
297,167,123087,2,0,P|331:168|365:169,1,68,4|8,0:0|0:3,0:0:0:0:
194,129,123387,2,0,P|193:163|192:197,1,68,0|0,0:0|0:0,0:0:0:0:
153,337,123687,5,4,0:0:0:0:
153,337,123837,1,0,0:0:0:0:
27,221,123987,2,0,P|29:197|27:167,2,45.3333333333333,8|0|0,0:3|0:0|0:0,0:0:0:0:
192,196,124287,2,0,P|158:197|124:198,1,68,4|0,0:0|0:0,0:0:0:0:
295,158,124587,2,0,P|296:192|297:226,1,68,2|0,0:0|0:0,0:0:0:0:
416,317,124887,6,0,P|415:283|414:249,1,68,4|0,0:0|0:0,0:0:0:0:
457,95,125187,1,2,0:3:0:0:
457,95,125337,1,0,0:0:0:0:
328,162,125487,2,0,L|294:157,2,34,8|0|0,0:3|0:0|0:0,0:0:0:0:
328,253,125787,1,0,0:0:0:0:
240,80,125937,1,0,0:0:0:0:
119,170,126087,6,0,P|110:202|109:236,1,68,4|0,0:0|0:0,0:0:0:0:
245,318,126387,2,0,P|244:284|235:251,1,68,8|0,0:0|0:0,0:0:0:0:
124,339,126687,5,4,0:0:0:0:
4,252,126837,1,2,0:0:0:0:
211,219,126987,1,2,0:0:0:0:
91,132,127137,1,0,0:0:0:0:
229,66,127287,5,4,0:0:0:0:
211,219,127437,2,0,L|281:208,1,68,0|2,0:0|0:0,0:0:0:0:
344,130,127737,2,0,L|412:120,1,68,8|4,0:0|0:0,0:0:0:0:
495,276,128037,2,0,P|443:238|386:268,1,136,0|2,0:0|0:0,0:0:0:0:
380,299,128412,1,2,0:0:0:0:
379,330,128487,6,0,B|343:330|313:316|313:316|279:318|245:332,1,136,4|2,0:0|0:0,0:0:0:0:
191,259,128937,1,0,0:0:0:0:
240,135,129087,1,4,0:0:0:0:
378,151,129237,2,0,P|376:185|372:219,2,68,8|8|2,0:0|0:3|0:0,0:0:0:0:
385,31,129687,6,0,L|317:38,1,68,4|2,0:0|0:0,0:0:0:0:
379,151,130137,1,2,0:0:0:0:
351,148,130212,1,2,0:0:0:0:
323,145,130287,1,2,0:0:0:0:
288,34,130437,1,2,0:0:0:0:
216,109,130587,2,0,L|222:177,1,68,8|0,0:3|0:0,0:0:0:0:
46,120,130887,6,0,L|114:114,1,68,8|0,0:3|0:0,0:0:0:0:
222,177,131187,2,0,L|290:171,1,68,4|0,0:0|0:0,0:0:0:0:
494,266,131487,6,0,L|460:270,1,34,0|0,0:0|0:0,0:0:0:0:
437,368,131637,2,0,L|403:361,1,34,0|0,0:0|0:0,0:0:0:0:
345,280,131787,2,0,P|319:284|296:294,2,50.9999984436036,0|0|0,0:0|0:0|0:0,0:0:0:0:
146,359,132087,6,0,P|122:348|97:344,2,50.9999984436036,4|0|0,0:0|0:0|0:0,0:0:0:0:
31,265,132387,2,0,B|21:227|21:227|30:190,1,76.4999976654053,2|2,0:0|0:0,0:0:0:0:
255,202,132687,5,4,0:0:0:0:
234,77,132837,1,0,0:0:0:0:
110,97,132987,1,2,0:0:0:0:
129,221,133137,1,0,0:0:0:0:
218,268,133287,6,0,L|284:253,1,68,4|0,0:0|0:0,0:0:0:0:
353,146,133587,2,0,L|419:131,1,68,8|0,0:0|0:0,0:0:0:0:
443,232,133887,1,4,0:0:0:0:
258,171,134037,1,2,0:0:0:0:
351,41,134337,5,0,0:0:0:0:
352,146,134487,2,0,P|319:140|285:138,1,68,4|0,0:0|0:0,0:0:0:0:
176,143,134787,1,2,0:0:0:0:
176,143,134937,1,2,0:0:0:0:
147,272,135087,6,0,P|178:259|211:252,1,68,4|0,0:0|0:0,0:0:0:0:
291,324,135387,2,0,P|324:323|358:327,1,68,2|0,0:0|0:0,0:0:0:0:
486,177,135687,5,4,0:0:0:0:
486,177,135837,1,0,0:0:0:0:
479,278,135987,2,0,L|476:329,1,50.9999984436036,0|0,0:0|0:0,0:0:0:0:
496,26,136287,2,0,L|493:77,1,50.9999984436036
385,170,136587,2,0,L|334:167,1,50.9999984436036,0|0,0:0|0:0,0:0:0:0:
233,160,136887,5,2,0:0:0:0:
200,230,146487,6,0,P|224:179|205:114,1,119.849998171234,0|0,0:0|0:0,0:0:0:0:
49,150,147087,2,0,P|89:152|124:170,1,79.8999987808228,0|0,0:0|0:0,0:0:0:0:
25,283,147538,2,0,P|61:264|100:263,1,79.8999987808228,0|0,0:0|0:0,0:0:0:0:
82,362,147987,5,0,0:0:0:0:
174,345,148287,1,0,0:0:0:0:
265,329,148587,1,0,0:0:0:0:
346,159,148887,6,0,P|331:215|356:269,1,119.849998171234,0|0,0:0|0:0,0:0:0:0:
509,212,149487,2,0,P|472:200|432:206,1,79.8999987808228,0|0,0:0|0:0,0:0:0:0:
315,65,149937,2,0,P|355:59|392:71,1,79.8999987808228,0|0,0:0|0:0,0:0:0:0:
346,159,150387,5,0,0:0:0:0:
254,149,150687,1,0,0:0:0:0:
162,139,150987,1,0,0:0:0:0:
70,129,151287,5,0,0:0:0:0:
70,129,151587,1,0,0:0:0:0:
168,161,151887,2,0,L|172:181,2,19.9749996952057,0|0|0,0:0|0:0|0:0,0:0:0:0:
70,129,152337,5,0,0:0:0:0:
86,228,152637,1,0,0:0:0:0:
70,129,152937,1,0,0:0:0:0:
86,228,153087,1,0,0:0:0:0:
70,129,153387,2,0,L|76:89,1,39.9499993904114,0|0,0:0|0:0,0:0:0:0:
163,12,153687,5,0,0:0:0:0:
163,12,153987,1,0,0:0:0:0:
163,12,154287,1,0,0:0:0:0:
217,104,154437,2,0,L|264:98,1,46.7500014266968,0|2,0:0|0:0,0:0:0:0:
393,9,154737,6,0,P|421:11|449:17,1,56.0999998287964,0|0,0:0|0:0,0:0:0:0:
463,35,154962,1,2,0:0:0:0:
473,55,155037,2,0,P|475:82|477:111,1,56.0999998287964,2|0,0:0|0:0,0:0:0:0:
423,269,155337,1,2,0:0:0:0:
330,195,155487,1,2,0:0:0:0:
431,300,155637,5,2,0:0:0:0:
380,104,155787,2,0,L|357:100,4,23.3750007133484,0|0|0|0|0,0:0|0:0|0:0|0:0|0:0,0:0:0:0:
113,47,156087,6,0,P|133:131|219:125,1,187.000005706787,4|2,0:0|0:0,0:0:0:0:
239,24,156537,1,8,0:3:0:0:
148,249,156687,2,0,B|108:234|108:234|57:238,1,93.5000028533936,8|0,0:3|0:0,0:0:0:0:
196,344,156987,1,2,0:0:0:0:
196,344,157137,2,0,B|235:329|235:329|286:333,1,93.5000028533936,2|4,0:0|0:0,0:0:0:0:
473,285,157437,6,0,L|367:274,1,93.5000028533936,2|2,0:0|0:0,0:0:0:0:
261,230,157737,1,2,0:0:0:0:
262,205,157812,1,2,0:0:0:0:
268,184,157887,1,2,0:0:0:0:
426,139,158037,1,2,0:0:0:0:
360,38,158187,2,0,L|266:30,1,93.5000028533936,2|0,0:0|0:0,0:0:0:0:
102,50,158487,6,0,P|76:53|47:61,3,46.7500014266968
198,121,158787,1,2,0:0:0:0:
173,240,158937,1,8,0:3:0:0:
81,168,159087,2,0,P|56:168|33:170,3,46.7500014266968,0|0|8|0,0:0|0:0|0:3|0:0,0:0:0:0:
188,148,159387,1,2,0:0:0:0:
79,261,159537,6,0,P|76:306|77:362,1,93.5000028533936,0|4,0:0|0:0,0:0:0:0:
187,369,159837,1,2,0:0:0:0:
191,339,159912,1,2,0:0:0:0:
184,310,159987,1,2,0:0:0:0:
274,236,160137,1,2,0:0:0:0:
271,18,160287,6,0,L|261:64,3,46.7500014266968,2|0|2|0,0:0|0:0|0:0|0:0,0:0:0:0:
169,126,160587,2,0,L|179:172,3,46.7500014266968,2|0|0|0,0:0|0:0|0:0|0:0,0:0:0:0:
343,333,160887,5,4,0:0:0:0:
386,141,161037,1,2,0:0:0:0:
373,96,161112,1,2,0:0:0:0:
383,50,161187,1,2,0:0:0:0:
483,19,161337,5,8,0:3:0:0:
421,179,161487,1,2,0:0:0:0:
433,224,161562,1,2,0:0:0:0:
425,269,161637,1,2,0:0:0:0:
281,221,161787,2,0,L|327:230,3,46.7500014266968,0|0|0|0,0:0|0:0|0:0|0:0,0:0:0:0:
144,43,162087,5,6,0:0:0:0:
170,83,162162,1,0,0:0:0:0:
172,130,162237,1,2,0:0:0:0:
151,172,162312,1,2,0:0:0:0:
110,196,162387,1,2,0:0:0:0:
83,234,162462,1,2,0:0:0:0:
80,280,162537,1,2,0:0:0:0:
100,321,162612,1,2,0:0:0:0:
139,345,162687,6,0,L|184:335,3,46.7500014266968,4|0|0|0,0:0|0:0|0:0|0:0,0:0:0:0:
281,221,162987,2,0,L|235:220,1,46.7500014266968,10|0,0:0|0:0,0:0:0:0:
89,139,163137,2,0,L|134:129,1,46.7500014266968,2|0,0:0|0:0,0:0:0:0:
295,116,163287,5,6,0:0:0:0:
332,95,163362,1,2,0:0:0:0:
373,99,163437,1,2,0:0:0:0:
406,125,163512,1,2,0:0:0:0:
418,166,163587,1,2,0:0:0:0:
275,311,163737,1,8,0:3:0:0:
382,273,163887,5,0,0:0:0:0:
155,350,164037,2,2,L|148:256,1,93.5000028533936
167,138,164337,1,2,0:0:0:0:
302,74,164487,6,0,L|255:71,1,46.7500014266968,2|0,0:0|0:0,0:0:0:0:
103,3,164637,2,0,L|100:49,1,46.7500014266968,2|0,0:0|0:0,0:0:0:0:
32,202,164787,2,0,L|78:204,1,46.7500014266968,2|0,0:0|0:0,0:0:0:0:
231,273,164937,2,0,L|233:226,1,46.7500014266968,2|0,0:0|0:0,0:0:0:0:
456,233,165087,6,0,P|406:155|327:203,1,204,14|0,0:0|0:0,0:0:0:0:
26,379,165387,2,0,P|75:301|154:349,1,204,14|0,0:0|0:0,0:0:0:0:
484,338,165687,6,0,B|436:333|391:328|391:328|342:324|304:365,1,187.000005706787,4|2,0:0|0:0,0:0:0:0:
307,361,166137,1,8,0:3:0:0:
336,237,166287,2,0,P|335:187|332:140,1,93.5000028533936
253,65,166587,1,2,0:0:0:0:
200,173,166737,1,8,0:3:0:0:
226,299,166887,5,6,0:0:0:0:
184,277,166962,1,2,0:0:0:0:
138,273,167037,1,2,0:0:0:0:
98,296,167112,1,2,0:0:0:0:
76,337,167187,2,0,L|70:290,3,46.7500014266968,2|0|2|0,0:0|0:0|0:0|0:0,0:0:0:0:
158,235,167487,5,2,0:0:0:0:
136,194,167562,1,2,0:0:0:0:
96,171,167637,1,2,0:0:0:0:
50,175,167712,1,2,0:0:0:0:
8,197,167787,2,0,L|10:150,1,46.7500014266968,10|0,0:0|0:0,0:0:0:0:
175,46,167937,2,0,L|178:0,1,46.7500014266968,8|0,0:0|0:0,0:0:0:0:
77,76,168087,5,4,0:0:0:0:
168,161,168237,1,2,0:0:0:0:
136,194,168312,1,2,0:0:0:0:
129,238,168387,2,0,L|138:283,1,46.7500014266968,10|0,0:0|0:0,0:0:0:0:
1,243,168537,2,0,L|8:197,1,46.7500014266968,4|0,0:0|0:0,0:0:0:0:
247,327,168687,6,0,L|341:333,1,93.5000028533936,2|4,0:0|0:0,0:0:0:0:
463,269,168987,1,2,0:0:0:0:
305,131,169137,1,0,0:0:0:0:
421,47,169287,6,0,L|415:141,1,93.5000028533936,6|0,0:0|0:0,0:0:0:0:
247,327,169587,2,0,L|241:233,1,93.5000028533936,2|8,0:0|0:3,0:0:0:0:
463,269,169887,2,0,L|456:362,1,93.5000028533936,2|8,0:0|0:0,0:0:0:0:
305,131,170187,2,0,L|302:76,3,46.7500014266968,2|0|0|0,0:0|0:0|0:0|0:0,0:0:0:0:
146,102,170487,5,6,0:0:0:0:
94,85,170562,1,2,0:0:0:0:
41,66,170637,2,0,L|47:112,1,46.7500014266968,2|0,0:0|0:0,0:0:0:0:
89,274,170787,5,10,0:0:0:0:
117,241,170862,2,0,L|110:194,2,46.7500014266968,2|4|0,0:0|0:0|0:0,0:0:0:0:
290,232,171087,5,2,0:0:0:0:
342,215,171162,1,2,0:0:0:0:
395,196,171237,2,0,L|389:242,1,46.7500014266968,10|0,0:3|0:0,0:0:0:0:
294,330,171387,5,10,0:0:0:0:
247,334,171462,1,2,0:0:0:0:
201,318,171537,2,0,P|200:295|202:272,1,46.7500014266968,10|0,0:0|0:0,0:0:0:0:
233,139,171687,5,6,0:0:0:0:
192,118,171762,1,2,0:0:0:0:
164,82,171837,1,10,0:0:0:0:
118,78,171912,1,2,0:0:0:0:
78,101,171987,1,10,0:0:0:0:
56,142,172062,1,2,0:0:0:0:
56,188,172138,2,0,P|79:194|102:193,1,46.7500014266968,2|0,0:0|0:0,0:0:0:0:
202,271,172287,6,0,L|252:293,3,46.7500014266968,6|2|4|0,0:0|0:0|0:0|0:0,0:0:0:0:
343,214,172587,5,10,0:0:0:0:
377,202,172662,1,2,0:0:0:0:
410,189,172737,2,0,L|363:184,1,46.7500014266968,2|0,0:0|0:0,0:0:0:0:
101,287,172887,6,0,L|103:194,1,93.5000028533936,6|0,0:0|0:0,0:0:0:0:
365,36,173187,1,10,0:0:0:0:
323,316,173337,1,10,0:0:0:0:
85,168,173487,5,2,0:0:0:0:
379,60,173637,1,10,0:0:0:0:
311,344,173787,1,6,0:0:0:0:
252,178,173937,1,10,0:0:0:0:
200,30,174237,5,10,0:0:0:0:
151,315,174387,1,10,0:0:0:0:
419,225,174537,5,10,0:0:0:0:
85,168,174687,1,10,0:0:0:0:
