osu file format v14

[General]
AudioFilename: audio.mp3
AudioLeadIn: 0
PreviewTime: 79175
Countdown: 0
SampleSet: Soft
StackLeniency: 0.7
Mode: 1
LetterboxInBreaks: 0
WidescreenStoryboard: 0

[Editor]
Bookmarks: 40850
DistanceSpacing: 0.8
BeatDivisor: 4
GridSize: 32
TimelineZoom: 0.9000001

[Metadata]
Title:Nyanya no Uta
TitleUnicode:Nyanya no Uta
Artist:NICODE
ArtistUnicode:NICODE
Creator:Faputa
Version:Kantan
Source:Deemo
Tags:JarvisGaming Cat Neko M2U x Collection Vol.2 Volume 2 Narae Video Rhythm Game DnB Piano Japanese
BeatmapID:1925749
BeatmapSetID:918651

[Difficulty]
HPDrainRate:8
CircleSize:2
OverallDifficulty:2.5
ApproachRate:10
SliderMultiplier:1.4
SliderTickRate:1

[Events]
//Background and Video events
0,0,"0ten.png",0,-100
//Break Periods
2,98350,106400
//Storyboard Layer 0 (Background)
//Storyboard Layer 1 (Fail)
//Storyboard Layer 2 (Pass)
//Storyboard Layer 3 (Foreground)
//Storyboard Layer 4 (Overlay)
//Storyboard Sound Samples

[TimingPoints]
50,300,4,2,0,50,1,0
50,-117.647058823529,4,2,0,50,0,0
20750,-117.647058823529,4,1,0,60,0,0
21050,-117.647058823529,4,1,0,68,0,0
21650,-117.647058823529,4,1,0,80,0,0
40850,-117.647058823529,4,1,0,50,0,0
49250,-117.647058823529,4,1,0,55,0,0
49550,-117.647058823529,4,1,0,57,0,0
49850,-117.647058823529,4,1,0,59,0,0
50350,-117.647058823529,4,1,0,62,0,0
58850,-117.647058823529,4,1,0,65,0,0
59150,-117.647058823529,4,1,0,67,0,0
59450,-117.647058823529,4,1,0,69,0,0
60050,-117.647058823529,4,1,0,75,0,0
79250,-117.647058823529,4,1,0,85,0,1
98450,-117.647058823529,4,2,0,50,0,0
106850,-117.647058823529,4,1,0,50,0,0
107150,-117.647058823529,4,1,0,52,0,0
107450,-117.647058823529,4,1,0,55,0,0
108050,-117.647058823529,4,1,0,62,0,0
116450,-117.647058823529,4,1,0,64,0,0
116750,-117.647058823529,4,1,0,68,0,0
117050,-117.647058823529,4,1,0,71,0,0
117650,-117.647058823529,4,1,0,75,0,0
137450,-117.647058823529,4,1,0,50,0,0
154850,-117.647058823529,4,1,0,55,0,0
155150,-117.647058823529,4,1,0,60,0,0
155450,-117.647058823529,4,1,0,67,0,0
156050,-117.647058823529,4,1,0,85,0,1
174650,-117.647058823529,4,1,0,95,0,0
174950,-117.647058823529,4,1,0,30,0,0
175250,-117.647058823529,4,1,0,20,0,0
175850,-117.647058823529,4,1,0,10,0,0

[HitObjects]
256,192,2450,5,0,0:0:0:0:
256,192,3050,1,8,0:0:0:0:
256,192,3650,1,8,0:0:0:0:
256,192,4850,1,0,0:0:0:0:
256,192,5450,1,8,0:0:0:0:
256,192,6050,1,0,0:0:0:0:
256,192,7250,1,0,0:0:0:0:
256,192,7850,1,8,0:0:0:0:
256,192,8150,1,8,0:0:0:0:
256,192,9650,1,0,0:0:0:0:
256,192,10250,1,8,0:0:0:0:
256,192,10850,1,8,0:0:0:0:
256,192,12050,1,0,0:0:0:0:
256,192,13250,1,8,0:0:0:0:
256,192,13850,1,8,0:0:0:0:
256,192,14450,1,0,0:0:0:0:
256,192,15650,1,0,0:0:0:0:
256,192,16850,1,8,0:0:0:0:
256,192,17450,1,0,0:0:0:0:
256,192,18050,1,8,0:0:0:0:
256,192,19250,1,0,0:0:0:0:
256,192,20450,1,8,0:0:0:0:
256,192,20750,1,8,0:0:0:0:
256,192,21050,1,8,0:0:0:0:
256,192,21650,1,4,0:0:0:0:
256,192,22850,1,0,0:0:0:0:
256,192,23450,1,0,0:0:0:0:
256,192,23750,1,8,0:0:0:0:
256,192,24050,1,0,0:0:0:0:
256,192,24650,1,8,0:0:0:0:
256,192,25250,1,0,0:0:0:0:
256,192,25850,1,8,0:0:0:0:
256,192,26150,1,8,0:0:0:0:
256,192,26450,1,4,0:0:0:0:
256,192,27650,1,8,0:0:0:0:
256,192,28250,1,0,0:0:0:0:
256,192,28850,1,12,0:0:0:0:
256,192,29300,1,4,0:0:0:0:
256,192,30050,1,0,0:0:0:0:
256,192,31250,1,4,0:0:0:0:
256,192,31850,1,8,0:0:0:0:
256,192,32150,1,8,0:0:0:0:
256,192,32450,1,0,0:0:0:0:
256,192,33200,1,12,0:0:0:0:
256,192,33650,1,4,0:0:0:0:
256,192,34250,1,8,0:0:0:0:
256,192,34850,1,0,0:0:0:0:
256,192,36050,1,8,0:0:0:0:
256,192,36800,1,4,0:0:0:0:
256,192,37250,1,0,0:0:0:0:
256,192,38000,1,12,0:0:0:0:
256,192,38450,1,0,0:0:0:0:
256,192,39050,1,8,0:0:0:0:
256,192,39350,1,0,0:0:0:0:
256,192,39650,1,12,0:0:0:0:
256,192,40850,1,0,0:0:0:0:
288,192,43250,1,8,0:0:0:0:
288,192,45650,1,0,0:0:0:0:
288,192,46250,1,8,0:0:0:0:
288,192,46850,1,8,0:0:0:0:
288,192,47450,1,0,0:0:0:0:
288,192,48050,1,8,0:0:0:0:
256,192,49250,1,8,0:0:0:0:
256,192,49550,1,8,0:0:0:0:
256,192,49850,1,8,0:0:0:0:
256,192,50350,1,4,0:0:0:0:
256,192,51650,1,0,0:0:0:0:
256,192,52850,1,8,0:0:0:0:
256,192,53450,1,8,0:0:0:0:
256,192,54050,1,0,0:0:0:0:
256,192,54350,1,0,0:0:0:0:
256,192,54650,1,8,0:0:0:0:
256,192,55250,1,8,0:0:0:0:
256,192,56450,1,0,0:0:0:0:
256,192,57350,1,4,0:0:0:0:
256,192,58850,1,8,0:0:0:0:
256,192,59150,1,8,0:0:0:0:
256,192,59450,1,0,0:0:0:0:
256,192,60050,1,12,0:0:0:0:
256,192,60650,1,0,0:0:0:0:
256,192,61250,1,8,0:0:0:0:
256,192,61850,1,0,0:0:0:0:
256,192,62150,1,8,0:0:0:0:
256,192,62450,1,8,0:0:0:0:
256,192,63050,1,0,0:0:0:0:
256,192,63650,1,8,0:0:0:0:
256,192,64750,1,12,0:0:0:0:
256,192,66050,1,8,0:0:0:0:
256,192,66650,1,0,0:0:0:0:
256,192,67250,1,8,0:0:0:0:
256,192,68150,1,0,0:0:0:0:
256,192,68450,1,8,0:0:0:0:
256,192,69050,1,0,0:0:0:0:
256,192,69550,1,12,0:0:0:0:
256,192,70750,1,4,0:0:0:0:
256,192,71450,1,8,0:0:0:0:
256,192,72050,1,0,0:0:0:0:
256,192,72650,1,8,0:0:0:0:
256,192,72950,1,0,0:0:0:0:
256,192,73250,1,8,0:0:0:0:
256,192,73850,1,0,0:0:0:0:
256,192,74450,1,4,0:0:0:0:
256,192,74750,1,4,0:0:0:0:
256,192,75950,1,12,0:0:0:0:
256,192,76400,1,12,0:0:0:0:
256,192,76850,1,4,0:0:0:0:
256,192,78650,1,8,0:0:0:0:
256,192,79250,1,4,0:0:0:0:
256,192,79850,1,8,0:0:0:0:
256,192,80450,1,0,0:0:0:0:
256,192,80750,1,0,0:0:0:0:
256,192,81050,1,8,0:0:0:0:
256,192,81350,1,8,0:0:0:0:
256,192,81650,1,0,0:0:0:0:
256,192,82250,1,8,0:0:0:0:
256,192,82850,1,0,0:0:0:0:
256,192,83450,1,8,0:0:0:0:
256,192,83750,1,8,0:0:0:0:
256,192,84050,1,0,0:0:0:0:
256,192,85250,1,8,0:0:0:0:
256,192,85550,1,0,0:0:0:0:
256,192,85850,1,8,0:0:0:0:
256,192,86450,1,8,0:0:0:0:
256,192,87050,1,0,0:0:0:0:
256,192,87650,1,8,0:0:0:0:
256,192,88250,1,12,0:0:0:0:
256,192,88550,1,12,0:0:0:0:
256,192,88850,1,4,0:0:0:0:
256,192,89450,1,8,0:0:0:0:
256,192,90050,1,0,0:0:0:0:
256,192,90650,1,8,0:0:0:0:
256,192,90950,1,0,0:0:0:0:
256,192,91250,1,8,0:0:0:0:
256,192,91850,1,8,0:0:0:0:
256,192,92450,1,0,0:0:0:0:
256,192,93650,1,8,0:0:0:0:
256,192,94250,1,0,0:0:0:0:
256,192,94550,1,8,0:0:0:0:
256,192,94850,1,8,0:0:0:0:
256,192,95450,1,0,0:0:0:0:
256,192,96050,1,8,0:0:0:0:
256,192,97100,1,4,0:0:0:0:
256,192,97850,1,0,0:0:0:0:
256,192,98150,1,12,0:0:0:0:
256,192,106850,5,8,0:0:0:0:
256,192,107150,1,8,0:0:0:0:
256,192,107450,1,8,0:0:0:0:
256,192,108050,1,4,0:0:0:0:
256,192,108650,1,8,0:0:0:0:
256,192,109250,1,0,0:0:0:0:
256,192,110450,1,8,0:0:0:0:
256,192,111050,1,8,0:0:0:0:
256,192,111650,1,0,0:0:0:0:
256,192,111950,1,0,0:0:0:0:
256,192,112250,1,8,0:0:0:0:
256,192,113450,1,8,0:0:0:0:
256,192,114050,1,0,0:0:0:0:
256,192,114650,1,8,0:0:0:0:
256,192,114950,1,8,0:0:0:0:
256,192,115250,1,0,0:0:0:0:
256,192,115850,1,8,0:0:0:0:
256,192,116450,1,0,0:0:0:0:
256,192,116750,1,0,0:0:0:0:
256,192,117050,1,8,0:0:0:0:
256,192,117650,1,12,0:0:0:0:
256,192,118250,1,0,0:0:0:0:
256,192,118850,1,8,0:0:0:0:
256,192,120050,1,0,0:0:0:0:
256,192,120650,1,0,0:0:0:0:
256,192,121250,1,8,0:0:0:0:
256,192,121550,1,8,0:0:0:0:
256,192,121850,1,0,0:0:0:0:
256,192,123050,1,0,0:0:0:0:
256,192,123650,1,8,0:0:0:0:
256,192,124250,1,0,0:0:0:0:
256,192,124550,1,0,0:0:0:0:
256,192,124850,1,8,0:0:0:0:
256,192,125450,1,0,0:0:0:0:
256,192,126050,1,8,0:0:0:0:
256,192,126650,1,0,0:0:0:0:
256,192,126950,1,8,0:0:0:0:
256,192,127250,1,8,0:0:0:0:
256,192,128450,1,0,0:0:0:0:
256,192,129050,1,8,0:0:0:0:
256,192,129650,1,8,0:0:0:0:
256,192,130250,1,0,0:0:0:0:
256,192,130550,1,0,0:0:0:0:
256,192,130850,1,8,0:0:0:0:
256,192,132050,1,8,0:0:0:0:
256,192,132650,1,8,0:0:0:0:
256,192,132950,1,0,0:0:0:0:
256,192,133250,1,0,0:0:0:0:
256,192,133850,1,8,0:0:0:0:
256,192,134450,1,0,0:0:0:0:
256,192,135650,1,8,0:0:0:0:
256,192,136250,1,8,0:0:0:0:
256,192,136850,1,4,0:0:0:0:
256,192,138050,1,8,0:0:0:0:
256,192,139250,1,0,0:0:0:0:
256,192,140450,1,0,0:0:0:0:
256,192,141650,1,8,0:0:0:0:
256,192,142850,1,8,0:0:0:0:
256,192,143450,1,0,0:0:0:0:
256,192,144050,1,8,0:0:0:0:
256,192,145250,1,0,0:0:0:0:
256,192,146450,1,8,0:0:0:0:
256,192,147650,1,0,0:0:0:0:
256,192,148250,1,8,0:0:0:0:
256,192,148850,1,8,0:0:0:0:
256,192,150050,1,0,0:0:0:0:
256,192,151250,1,8,0:0:0:0:
256,192,151850,1,0,0:0:0:0:
256,192,152450,1,8,0:0:0:0:
256,192,153050,1,8,0:0:0:0:
256,192,153650,1,0,0:0:0:0:
256,192,154850,1,8,0:0:0:0:
256,192,155150,1,8,0:0:0:0:
256,192,155450,1,8,0:0:0:0:
256,192,156050,1,4,0:0:0:0:
256,192,156650,1,8,0:0:0:0:
256,192,157250,1,0,0:0:0:0:
256,192,157850,1,8,0:0:0:0:
256,192,158150,1,8,0:0:0:0:
256,192,158450,1,0,0:0:0:0:
256,192,159050,1,8,0:0:0:0:
256,192,159650,1,0,0:0:0:0:
256,192,160250,1,8,0:0:0:0:
256,192,160550,1,0,0:0:0:0:
256,192,160850,1,8,0:0:0:0:
256,192,162050,1,0,0:0:0:0:
256,192,162350,1,8,0:0:0:0:
256,192,162650,1,0,0:0:0:0:
256,192,163250,1,8,0:0:0:0:
256,192,163850,1,0,0:0:0:0:
256,192,164450,1,8,0:0:0:0:
256,192,165050,1,12,0:0:0:0:
256,192,165350,1,12,0:0:0:0:
256,192,165650,1,4,0:0:0:0:
256,192,166250,1,8,0:0:0:0:
256,192,166850,1,0,0:0:0:0:
256,192,167150,1,0,0:0:0:0:
256,192,167450,1,8,0:0:0:0:
256,192,167750,1,0,0:0:0:0:
256,192,168050,1,8,0:0:0:0:
256,192,168650,1,8,0:0:0:0:
256,192,169250,1,0,0:0:0:0:
256,192,170450,1,12,0:0:0:0:
256,192,171050,1,0,0:0:0:0:
256,192,171350,1,8,0:0:0:0:
256,192,171650,1,8,0:0:0:0:
256,192,172250,1,0,0:0:0:0:
256,192,172850,1,8,0:0:0:0:
256,192,173900,1,4,0:0:0:0:
256,192,174650,1,12,0:0:0:0:
