osu file format v14

[General]
AudioFilename: audio.mp3
AudioLeadIn: 0
PreviewTime: 79175
Countdown: 0
SampleSet: Soft
StackLeniency: 0.7
Mode: 1
LetterboxInBreaks: 0
WidescreenStoryboard: 0

[Editor]
Bookmarks: 40850
DistanceSpacing: 0.8
BeatDivisor: 4
GridSize: 32
TimelineZoom: 1.9

[Metadata]
Title:Nyanya no Uta
TitleUnicode:Nyanya no Uta
Artist:NICODE
ArtistUnicode:NICODE
Creator:Faputa
Version:Inner Oni
Source:Deemo
Tags:JarvisGaming Cat Neko M2U x Collection Vol.2 Volume 2 Narae Video Rhythm Game DnB Piano Japanese
BeatmapID:1918273
BeatmapSetID:918651

[Difficulty]
HPDrainRate:6
CircleSize:2
OverallDifficulty:6
ApproachRate:10
SliderMultiplier:1.4
SliderTickRate:1

[Events]
//Background and Video events
0,0,"0ten.png",0,-100
//Break Periods
//Storyboard Layer 0 (Background)
//Storyboard Layer 1 (Fail)
//Storyboard Layer 2 (Pass)
//Storyboard Layer 3 (Foreground)
//Storyboard Layer 4 (Overlay)
//Storyboard Sound Samples

[TimingPoints]
50,300,4,2,0,50,1,0
50,-133.333333333333,4,2,0,50,0,0
20750,-125,4,1,0,60,0,0
20825,-121.951219512195,4,1,0,62,0,0
20900,-119.047619047619,4,1,0,64,0,0
20975,-116.279069767442,4,1,0,66,0,0
21050,-113.636363636364,4,1,0,68,0,0
21200,-111.111111111111,4,1,0,70,0,0
21275,-108.695652173913,4,1,0,72,0,0
21350,-106.382978723404,4,1,0,74,0,0
21500,-104.166666666667,4,1,0,76,0,0
21575,-102.040816326531,4,1,0,78,0,0
21650,-100,4,1,0,80,0,0
40850,-133.333333333333,4,1,0,50,0,0
48350,-131.578947368421,4,1,0,51,0,0
48650,-129.87012987013,4,1,0,52,0,0
48950,-128.205128205128,4,1,0,53,0,0
49150,-126.582278481013,4,1,0,54,0,0
49250,-125,4,1,0,55,0,0
49450,-123.456790123457,4,1,0,56,0,0
49550,-121.951219512195,4,1,0,57,0,0
49750,-120.481927710843,4,1,0,58,0,0
49850,-119.047619047619,4,1,0,59,0,0
50050,-117.647058823529,4,1,0,60,0,0
50150,-116.279069767442,4,1,0,61,0,0
50350,-114.942528735632,4,1,0,62,0,0
58650,-113.636363636364,4,1,0,63,0,0
58750,-112.359550561798,4,1,0,64,0,0
58850,-111.111111111111,4,1,0,65,0,0
59050,-109.89010989011,4,1,0,66,0,0
59150,-108.695652173913,4,1,0,67,0,0
59350,-107.52688172043,4,1,0,68,0,0
59450,-106.382978723404,4,1,0,69,0,0
59525,-105.263157894737,4,1,0,70,0,0
59600,-104.166666666667,4,1,0,71,0,0
59675,-103.092783505155,4,1,0,72,0,0
59750,-102.040816326531,4,1,0,73,0,0
59975,-101.010101010101,4,1,0,74,0,0
60050,-100,4,1,0,75,0,0
74450,-83.3333333333333,4,1,0,75,0,0
75050,-100,4,1,0,75,0,0
75950,-83.3333333333333,4,1,0,75,0,0
76400,-90.9090909090909,4,1,0,75,0,0
76850,-100,4,1,0,75,0,0
79250,-95.2380952380952,4,1,0,85,0,1
88250,-74.0740740740741,4,1,0,85,0,1
88550,-81.9672131147541,4,1,0,85,0,1
88850,-95.2380952380952,4,1,0,85,0,1
97100,-74.0740740740741,4,1,0,85,0,1
97400,-81.9672131147541,4,1,0,85,0,1
97550,-88.4955752212389,4,1,0,85,0,1
97700,-95.2380952380952,4,1,0,85,0,1
97850,-100,4,1,0,85,0,1
98150,-66.6666666666667,4,1,0,85,0,1
98450,-133.333333333333,4,2,0,50,0,0
106850,-133.333333333333,4,1,0,50,0,0
107000,-131.578947368421,4,1,0,51,0,0
107150,-129.87012987013,4,1,0,52,0,0
107300,-128.205128205128,4,1,0,53,0,0
107375,-126.582278481013,4,1,0,54,0,0
107450,-125,4,1,0,55,0,0
107600,-123.456790123457,4,1,0,56,0,0
107675,-121.951219512195,4,1,0,57,0,0
107750,-120.481927710843,4,1,0,58,0,0
107800,-119.047619047619,4,1,0,59,0,0
107850,-117.647058823529,4,1,0,60,0,0
107900,-116.279069767442,4,1,0,61,0,0
108050,-114.942528735632,4,1,0,62,0,0
116300,-113.636363636364,4,1,0,63,0,0
116375,-112.359550561798,4,1,0,64,0,0
116450,-111.111111111111,4,1,0,65,0,0
116550,-109.89010989011,4,1,0,66,0,0
116650,-108.695652173913,4,1,0,67,0,0
116750,-107.52688172043,4,1,0,68,0,0
116850,-106.382978723404,4,1,0,69,0,0
116950,-105.263157894737,4,1,0,70,0,0
117050,-104.166666666667,4,1,0,71,0,0
117200,-103.092783505155,4,1,0,72,0,0
117350,-102.040816326531,4,1,0,73,0,0
117500,-101.010101010101,4,1,0,74,0,0
117650,-100,4,1,0,75,0,0
132650,-92.5925925925926,4,1,0,75,0,0
132800,-94.3396226415094,4,1,0,75,0,0
132950,-96.1538461538461,4,1,0,75,0,0
133100,-98.0392156862745,4,1,0,75,0,0
133250,-100,4,1,0,75,0,0
137300,-133.333333333333,4,1,0,50,0,0
153950,-131.578947368421,4,1,0,50,0,0
154250,-129.87012987013,4,1,0,50,0,0
154400,-128.205128205128,4,1,0,50,0,0
154700,-126.582278481013,4,1,0,50,0,0
154850,-125,4,1,0,55,0,0
154925,-123.456790123457,4,1,0,56,0,0
155000,-121.951219512195,4,1,0,57,0,0
155150,-117.647058823529,4,1,0,60,0,0
155300,-111.111111111111,4,1,0,65,0,0
155375,-109.89010989011,4,1,0,66,0,0
155450,-108.695652173913,4,1,0,67,0,0
155600,-105.263157894737,4,1,0,70,0,0
155675,-103.092783505155,4,1,0,71,0,0
155750,-102.040816326531,4,1,0,72,0,0
155900,-100,4,1,0,75,0,0
155975,-96.1538461538461,4,1,0,80,0,0
156050,-92.5925925925926,4,1,0,85,0,1
165050,-68.9655172413793,4,1,0,85,0,1
165350,-76.9230769230769,4,1,0,85,0,1
165500,-84.0336134453781,4,1,0,85,0,1
165575,-85.4700854700855,4,1,0,85,0,1
165650,-86.9565217391304,4,1,0,85,0,1
165800,-88.4955752212389,4,1,0,85,0,1
165875,-90.0900900900901,4,1,0,85,0,1
165950,-91.743119266055,4,1,0,85,0,1
166100,-92.5925925925926,4,1,0,85,0,1
173900,-68.9655172413793,4,1,0,85,0,1
174050,-75.187969924812,4,1,0,85,0,1
174200,-83.3333333333333,4,1,0,85,0,1
174350,-86.9565217391304,4,1,0,85,0,1
174500,-90.9090909090909,4,1,0,85,0,1
174650,-95.2380952380952,4,1,0,95,0,0
174800,-100,4,1,0,50,0,0
174950,-100,4,1,0,30,0,0
175250,-100,4,1,0,20,0,0
175850,-100,4,1,0,10,0,0

[HitObjects]
256,192,2450,5,0,0:0:0:0:
256,192,3050,1,8,0:0:0:0:
256,192,3350,1,0,0:0:0:0:
256,192,3650,1,8,0:0:0:0:
256,192,3687,1,8,0:0:0:0:
256,192,3950,1,0,0:0:0:0:
256,192,4250,1,8,0:0:0:0:
256,192,4850,1,8,0:0:0:0:
256,192,5150,1,0,0:0:0:0:
256,192,5412,1,0,0:0:0:0:
256,192,5487,1,8,0:0:0:0:
256,192,5750,1,0,0:0:0:0:
256,192,6050,1,8,0:0:0:0:
256,192,6087,1,8,0:0:0:0:
256,192,6650,1,8,0:0:0:0:
256,192,7250,1,8,0:0:0:0:
256,192,7550,1,0,0:0:0:0:
256,192,7850,1,8,0:0:0:0:
256,192,8112,1,0,0:0:0:0:
256,192,8187,1,8,0:0:0:0:
256,192,8750,1,8,0:0:0:0:
256,192,9050,1,8,0:0:0:0:
256,192,9350,1,0,0:0:0:0:
256,192,9650,1,8,0:0:0:0:
256,192,9687,1,8,0:0:0:0:
256,192,9950,1,0,0:0:0:0:
256,192,10250,1,8,0:0:0:0:
256,192,10850,1,0,0:0:0:0:
256,192,11450,1,8,0:0:0:0:
256,192,11750,1,0,0:0:0:0:
256,192,12050,1,8,0:0:0:0:
256,192,12650,1,8,0:0:0:0:
256,192,12950,1,8,0:0:0:0:
256,192,13250,1,0,0:0:0:0:
256,192,13850,1,8,0:0:0:0:
256,192,13887,1,8,0:0:0:0:
256,192,14450,1,8,0:0:0:0:
256,192,14750,1,0,0:0:0:0:
256,192,15012,1,0,0:0:0:0:
256,192,15087,1,8,0:0:0:0:
256,192,15350,1,0,0:0:0:0:
256,192,15650,1,8,0:0:0:0:
256,192,15687,1,8,0:0:0:0:
256,192,16250,1,0,0:0:0:0:
256,192,16850,1,8,0:0:0:0:
256,192,17150,1,0,0:0:0:0:
256,192,17450,1,8,0:0:0:0:
256,192,17750,1,8,0:0:0:0:
256,192,18050,1,0,0:0:0:0:
256,192,18087,1,0,0:0:0:0:
256,192,18350,1,8,0:0:0:0:
256,192,18650,1,0,0:0:0:0:
256,192,18950,1,0,0:0:0:0:
256,192,19250,1,8,0:0:0:0:
256,192,19550,1,8,0:0:0:0:
256,192,19850,1,8,0:0:0:0:
256,192,20150,1,8,0:0:0:0:
256,192,20450,1,0,0:0:0:0:
256,192,20750,1,8,0:0:0:0:
256,192,20825,1,0,0:0:0:0:
256,192,20900,1,8,0:0:0:0:
256,192,20975,1,8,0:0:0:0:
256,192,21050,1,8,0:0:0:0:
256,192,21200,1,8,0:0:0:0:
256,192,21275,1,0,0:0:0:0:
256,192,21350,1,8,0:0:0:0:
256,192,21500,1,0,0:0:0:0:
256,192,21575,1,8,0:0:0:0:
256,192,21650,1,4,0:0:0:0:
256,192,21800,1,8,0:0:0:0:
256,192,21950,1,0,0:0:0:0:
256,192,22100,1,8,0:0:0:0:
256,192,22250,1,0,0:0:0:0:
256,192,22400,1,8,0:0:0:0:
256,192,22437,1,8,0:0:0:0:
256,192,22550,1,0,0:0:0:0:
256,192,22700,1,8,0:0:0:0:
256,192,22850,1,0,0:0:0:0:
256,192,23000,1,8,0:0:0:0:
256,192,23150,1,8,0:0:0:0:
256,192,23300,1,0,0:0:0:0:
256,192,23375,1,0,0:0:0:0:
256,192,23450,1,0,0:0:0:0:
256,192,23600,1,8,0:0:0:0:
256,192,23675,1,8,0:0:0:0:
256,192,23750,1,0,0:0:0:0:
256,192,23787,1,0,0:0:0:0:
256,192,23900,1,8,0:0:0:0:
256,192,24050,1,8,0:0:0:0:
256,192,24200,1,0,0:0:0:0:
256,192,24350,1,8,0:0:0:0:
256,192,24500,1,0,0:0:0:0:
256,192,24575,1,8,0:0:0:0:
256,192,24650,1,0,0:0:0:0:
256,192,24800,1,8,0:0:0:0:
256,192,24950,1,0,0:0:0:0:
256,192,25100,1,8,0:0:0:0:
256,192,25175,1,8,0:0:0:0:
256,192,25250,1,8,0:0:0:0:
256,192,25400,1,0,0:0:0:0:
256,192,25475,1,0,0:0:0:0:
256,192,25550,1,8,0:0:0:0:
256,192,25700,1,0,0:0:0:0:
256,192,25850,1,8,0:0:0:0:
256,192,25887,1,8,0:0:0:0:
256,192,26000,1,0,0:0:0:0:
256,192,26075,1,8,0:0:0:0:
256,192,26150,1,0,0:0:0:0:
256,192,26450,1,4,0:0:0:0:
256,192,26600,1,8,0:0:0:0:
256,192,26750,1,0,0:0:0:0:
256,192,26900,1,8,0:0:0:0:
256,192,27050,1,0,0:0:0:0:
256,192,27200,1,8,0:0:0:0:
256,192,27237,1,8,0:0:0:0:
256,192,27350,1,0,0:0:0:0:
256,192,27500,1,0,0:0:0:0:
256,192,27650,1,8,0:0:0:0:
256,192,27875,1,0,0:0:0:0:
256,192,27950,1,8,0:0:0:0:
256,192,28025,1,8,0:0:0:0:
256,192,28100,1,8,0:0:0:0:
256,192,28175,1,8,0:0:0:0:
256,192,28250,1,0,0:0:0:0:
256,192,28400,1,8,0:0:0:0:
256,192,28475,1,0,0:0:0:0:
256,192,28550,1,0,0:0:0:0:
256,192,28700,1,8,0:0:0:0:
256,192,28850,1,4,0:0:0:0:
256,192,29000,1,8,0:0:0:0:
256,192,29075,1,8,0:0:0:0:
256,192,29150,1,8,0:0:0:0:
256,192,29300,1,4,0:0:0:0:
256,192,29450,1,8,0:0:0:0:
256,192,29525,1,0,0:0:0:0:
256,192,29600,1,8,0:0:0:0:
256,192,29900,1,0,0:0:0:0:
256,192,30050,1,8,0:0:0:0:
256,192,30200,1,0,0:0:0:0:
256,192,30350,1,0,0:0:0:0:
256,192,30500,1,8,0:0:0:0:
256,192,30575,1,0,0:0:0:0:
256,192,30650,1,8,0:0:0:0:
256,192,30725,1,8,0:0:0:0:
256,192,30800,1,0,0:0:0:0:
256,192,30875,1,0,0:0:0:0:
256,192,30950,1,8,0:0:0:0:
256,192,31025,1,8,0:0:0:0:
256,192,31100,1,0,0:0:0:0:
256,192,31175,1,8,0:0:0:0:
256,192,31250,1,4,0:0:0:0:
256,192,31400,1,8,0:0:0:0:
256,192,31700,1,8,0:0:0:0:
256,192,32000,1,0,0:0:0:0:
256,192,32150,1,8,0:0:0:0:
256,192,32300,1,8,0:0:0:0:
256,192,32450,1,0,0:0:0:0:
256,192,32525,1,0,0:0:0:0:
256,192,32600,1,8,0:0:0:0:
256,192,32675,1,0,0:0:0:0:
256,192,32750,1,8,0:0:0:0:
256,192,32900,1,8,0:0:0:0:
256,192,32975,1,0,0:0:0:0:
256,192,33050,1,0,0:0:0:0:
256,192,33200,1,8,0:0:0:0:
256,192,33275,1,8,0:0:0:0:
256,192,33350,1,0,0:0:0:0:
256,192,33500,1,0,0:0:0:0:
256,192,33650,1,12,0:0:0:0:
256,192,33950,1,0,0:0:0:0:
256,192,34100,1,8,0:0:0:0:
256,192,34175,1,0,0:0:0:0:
256,192,34250,1,8,0:0:0:0:
256,192,34400,1,8,0:0:0:0:
256,192,34550,1,0,0:0:0:0:
256,192,34700,1,8,0:0:0:0:
256,192,34775,1,0,0:0:0:0:
256,192,34850,1,0,0:0:0:0:
256,192,35075,1,8,0:0:0:0:
256,192,35150,1,8,0:0:0:0:
256,192,35375,1,0,0:0:0:0:
256,192,35450,1,8,0:0:0:0:
256,192,35675,1,8,0:0:0:0:
256,192,35750,1,0,0:0:0:0:
256,192,35975,1,0,0:0:0:0:
256,192,36050,1,12,0:0:0:0:
256,192,36200,1,0,0:0:0:0:
256,192,36275,1,0,0:0:0:0:
256,192,36350,1,8,0:0:0:0:
256,192,36425,1,0,0:0:0:0:
256,192,36500,1,8,0:0:0:0:
256,192,36575,1,8,0:0:0:0:
256,192,36650,1,0,0:0:0:0:
256,192,36800,1,12,0:0:0:0:
256,192,36950,1,0,0:0:0:0:
256,192,37025,1,0,0:0:0:0:
256,192,37100,1,0,0:0:0:0:
256,192,37250,1,12,0:0:0:0:
256,192,37400,1,0,0:0:0:0:
256,192,37475,1,8,0:0:0:0:
256,192,37550,1,8,0:0:0:0:
256,192,37625,1,0,0:0:0:0:
256,192,37700,1,8,0:0:0:0:
256,192,37775,1,8,0:0:0:0:
256,192,37850,1,0,0:0:0:0:
256,192,38000,1,12,0:0:0:0:
256,192,38300,1,0,0:0:0:0:
256,192,38450,1,0,0:0:0:0:
256,192,38600,1,8,0:0:0:0:
256,192,38675,1,8,0:0:0:0:
256,192,38750,1,0,0:0:0:0:
256,192,38900,1,8,0:0:0:0:
256,192,39050,1,0,0:0:0:0:
256,192,39125,1,8,0:0:0:0:
256,192,39200,1,0,0:0:0:0:
256,192,39350,1,8,0:0:0:0:
256,192,39500,1,8,0:0:0:0:
256,192,39650,1,4,0:0:0:0:
256,192,39800,1,8,0:0:0:0:
256,192,39950,1,8,0:0:0:0:
256,192,40100,1,8,0:0:0:0:
256,192,40250,1,0,0:0:0:0:
256,192,40550,1,8,0:0:0:0:
256,192,40587,1,8,0:0:0:0:
32,128,40850,1,0,0:0:0:0:
256,192,41150,1,8,0:0:0:0:
256,192,41450,1,8,0:0:0:0:
256,192,41750,1,8,0:0:0:0:
256,192,41900,1,8,0:0:0:0:
256,192,42350,1,8,0:0:0:0:
256,192,42650,1,8,0:0:0:0:
256,192,42950,1,8,0:0:0:0:
256,192,43250,1,8,0:0:0:0:
256,192,43850,1,8,0:0:0:0:
256,192,44150,1,8,0:0:0:0:
256,192,44450,1,0,0:0:0:0:
256,192,44900,1,0,0:0:0:0:
256,192,45200,1,8,0:0:0:0:
256,192,45500,1,8,0:0:0:0:
256,192,45950,1,0,0:0:0:0:
256,192,46250,1,0,0:0:0:0:
256,192,46550,1,0,0:0:0:0:
256,192,46850,1,8,0:0:0:0:
256,192,47150,1,0,0:0:0:0:
256,192,47300,1,8,0:0:0:0:
256,192,47600,1,8,0:0:0:0:
256,192,47900,1,0,0:0:0:0:
256,192,48350,1,8,0:0:0:0:
256,192,48650,1,8,0:0:0:0:
256,192,48950,1,0,0:0:0:0:
256,192,49150,1,8,0:0:0:0:
256,192,49250,1,8,0:0:0:0:
256,192,49450,1,8,0:0:0:0:
256,192,49550,1,0,0:0:0:0:
256,192,49750,1,0,0:0:0:0:
256,192,49850,1,0,0:0:0:0:
256,192,50050,1,8,0:0:0:0:
256,192,50150,1,8,0:0:0:0:
256,192,50350,1,12,0:0:0:0:
256,192,50750,1,8,0:0:0:0:
256,192,51050,1,8,0:0:0:0:
256,192,51150,1,0,0:0:0:0:
256,192,51250,1,0,0:0:0:0:
256,192,51350,1,8,0:0:0:0:
256,192,51550,1,8,0:0:0:0:
256,192,51650,1,8,0:0:0:0:
256,192,51850,1,0,0:0:0:0:
256,192,51950,1,8,0:0:0:0:
256,192,52150,1,8,0:0:0:0:
256,192,52250,1,0,0:0:0:0:
256,192,52450,1,8,0:0:0:0:
256,192,52550,1,8,0:0:0:0:
256,192,52850,1,8,0:0:0:0:
256,192,53050,1,0,0:0:0:0:
256,192,53150,1,8,0:0:0:0:
256,192,53250,1,8,0:0:0:0:
256,192,53350,1,0,0:0:0:0:
256,192,53450,1,0,0:0:0:0:
256,192,53650,1,8,0:0:0:0:
256,192,53750,1,0,0:0:0:0:
256,192,53950,1,8,0:0:0:0:
256,192,54350,1,0,0:0:0:0:
256,192,54450,1,0,0:0:0:0:
256,192,54550,1,0,0:0:0:0:
256,192,54650,1,8,0:0:0:0:
256,192,54850,1,0,0:0:0:0:
256,192,54950,1,8,0:0:0:0:
256,192,55150,1,0,0:0:0:0:
256,192,55250,1,8,0:0:0:0:
256,192,55550,1,8,0:0:0:0:
256,192,55750,1,8,0:0:0:0:
256,192,55850,1,0,0:0:0:0:
256,192,56050,1,0,0:0:0:0:
256,192,56150,1,8,0:0:0:0:
256,192,56450,1,8,0:0:0:0:
256,192,56750,1,0,0:0:0:0:
256,192,56950,1,8,0:0:0:0:
256,192,57350,1,12,0:0:0:0:
256,192,57650,1,0,0:0:0:0:
256,192,57950,1,0,0:0:0:0:
256,192,58150,1,0,0:0:0:0:
256,192,58250,1,8,0:0:0:0:
256,192,58550,1,8,0:0:0:0:
256,192,58650,1,8,0:0:0:0:
256,192,58750,1,8,0:0:0:0:
256,192,58850,1,0,0:0:0:0:
256,192,59050,1,0,0:0:0:0:
256,192,59150,1,8,0:0:0:0:
256,192,59350,1,8,0:0:0:0:
256,192,59450,1,0,0:0:0:0:
256,192,59525,1,8,0:0:0:0:
256,192,59600,1,8,0:0:0:0:
256,192,59675,1,8,0:0:0:0:
256,192,59750,1,8,0:0:0:0:
256,192,59975,1,8,0:0:0:0:
256,192,60050,1,4,0:0:0:0:
256,192,60250,1,8,0:0:0:0:
256,192,60350,1,8,0:0:0:0:
256,192,60550,1,0,0:0:0:0:
256,192,60650,1,8,0:0:0:0:
256,192,60850,1,0,0:0:0:0:
256,192,60950,1,8,0:0:0:0:
256,192,61150,1,8,0:0:0:0:
256,192,61250,1,0,0:0:0:0:
256,192,61450,1,0,0:0:0:0:
256,192,61550,1,8,0:0:0:0:
256,192,61650,1,0,0:0:0:0:
256,192,61750,1,0,0:0:0:0:
256,192,61850,1,8,0:0:0:0:
256,192,62050,1,0,0:0:0:0:
256,192,62150,1,8,0:0:0:0:
256,192,62250,1,8,0:0:0:0:
256,192,62350,1,0,0:0:0:0:
256,192,62450,1,8,0:0:0:0:
256,192,62650,1,0,0:0:0:0:
256,192,62750,1,0,0:0:0:0:
256,192,62950,1,0,0:0:0:0:
256,192,63050,1,8,0:0:0:0:
256,192,63250,1,0,0:0:0:0:
256,192,63350,1,8,0:0:0:0:
256,192,63550,1,8,0:0:0:0:
256,192,63650,1,0,0:0:0:0:
256,192,63750,1,0,0:0:0:0:
256,192,63850,1,0,0:0:0:0:
256,192,63950,1,8,0:0:0:0:
256,192,64150,1,8,0:0:0:0:
256,192,64450,1,0,0:0:0:0:
256,192,64550,1,0,0:0:0:0:
256,192,64750,1,8,0:0:0:0:
256,192,64850,1,0,0:0:0:0:
256,192,65050,1,0,0:0:0:0:
256,192,65150,1,8,0:0:0:0:
256,192,65350,1,0,0:0:0:0:
256,192,65450,1,8,0:0:0:0:
256,192,65650,1,8,0:0:0:0:
256,192,65750,1,0,0:0:0:0:
256,192,65950,1,8,0:0:0:0:
256,192,66050,1,4,0:0:0:0:
256,192,66200,1,0,0:0:0:0:
256,192,66275,1,0,0:0:0:0:
256,192,66350,1,8,0:0:0:0:
256,192,66425,1,8,0:0:0:0:
256,192,66500,1,8,0:0:0:0:
256,192,66575,1,8,0:0:0:0:
256,192,66650,1,0,0:0:0:0:
256,192,66725,1,8,0:0:0:0:
256,192,66800,1,0,0:0:0:0:
256,192,66950,1,8,0:0:0:0:
256,192,67050,1,0,0:0:0:0:
256,192,67150,1,0,0:0:0:0:
256,192,67250,1,8,0:0:0:0:
256,192,67350,1,0,0:0:0:0:
256,192,67450,1,8,0:0:0:0:
256,192,67550,1,8,0:0:0:0:
256,192,67650,1,0,0:0:0:0:
256,192,67750,1,8,0:0:0:0:
256,192,67850,1,0,0:0:0:0:
256,192,68050,1,12,0:0:0:0:
256,192,68300,1,0,0:0:0:0:
256,192,68375,1,0,0:0:0:0:
256,192,68450,1,12,0:0:0:0:
256,192,68650,1,8,0:0:0:0:
256,192,68750,1,0,0:0:0:0:
256,192,68950,1,0,0:0:0:0:
256,192,69050,1,8,0:0:0:0:
256,192,69150,1,8,0:0:0:0:
256,192,69250,1,0,0:0:0:0:
256,192,69350,1,8,0:0:0:0:
256,192,69550,1,0,0:0:0:0:
256,192,69950,1,8,0:0:0:0:
256,192,70050,1,0,0:0:0:0:
256,192,70150,1,0,0:0:0:0:
256,192,70250,1,8,0:0:0:0:
256,192,70350,1,0,0:0:0:0:
256,192,70450,1,8,0:0:0:0:
256,192,70550,1,8,0:0:0:0:
256,192,70750,1,0,0:0:0:0:
256,192,71050,1,0,0:0:0:0:
256,192,71150,1,8,0:0:0:0:
256,192,71350,1,8,0:0:0:0:
256,192,71450,1,0,0:0:0:0:
256,192,71650,1,0,0:0:0:0:
256,192,71750,1,8,0:0:0:0:
256,192,71950,1,0,0:0:0:0:
256,192,72050,1,8,0:0:0:0:
256,192,72350,1,8,0:0:0:0:
256,192,72450,1,8,0:0:0:0:
256,192,72550,1,0,0:0:0:0:
256,192,72650,1,0,0:0:0:0:
256,192,72750,1,8,0:0:0:0:
256,192,72850,1,0,0:0:0:0:
256,192,72950,1,8,0:0:0:0:
256,192,73050,1,8,0:0:0:0:
256,192,73150,1,0,0:0:0:0:
256,192,73450,1,0,0:0:0:0:
256,192,73550,1,8,0:0:0:0:
256,192,73750,1,8,0:0:0:0:
256,192,73850,1,0,0:0:0:0:
256,192,73950,1,8,0:0:0:0:
256,192,74050,1,8,0:0:0:0:
256,192,74150,1,0,0:0:0:0:
256,192,74350,1,0,0:0:0:0:
256,192,74450,1,12,0:0:0:0:
256,192,74750,1,12,0:0:0:0:
256,192,75050,1,8,0:0:0:0:
256,192,75150,1,8,0:0:0:0:
256,192,75250,1,0,0:0:0:0:
256,192,75350,1,8,0:0:0:0:
256,192,75450,1,8,0:0:0:0:
256,192,75550,1,0,0:0:0:0:
256,192,75650,1,0,0:0:0:0:
256,192,75950,1,12,0:0:0:0:
256,192,76400,1,12,0:0:0:0:
256,192,76850,1,4,0:0:0:0:
256,192,77150,1,0,0:0:0:0:
256,192,77300,1,8,0:0:0:0:
256,192,77450,1,0,0:0:0:0:
256,192,77600,1,8,0:0:0:0:
256,192,77650,1,8,0:0:0:0:
256,192,77700,1,8,0:0:0:0:
256,192,77750,1,0,0:0:0:0:
256,192,77900,1,12,0:0:0:0:
256,192,78200,1,12,0:0:0:0:
256,192,78350,1,12,0:0:0:0:
256,192,78650,1,4,0:0:0:0:
256,192,79250,1,0,0:0:0:0:
256,192,79400,1,8,0:0:0:0:
256,192,79550,1,0,0:0:0:0:
256,192,79700,1,0,0:0:0:0:
256,192,79850,1,8,0:0:0:0:
256,192,80000,1,0,0:0:0:0:
256,192,80075,1,0,0:0:0:0:
256,192,80150,1,8,0:0:0:0:
256,192,80300,1,8,0:0:0:0:
256,192,80450,1,0,0:0:0:0:
256,192,80600,1,8,0:0:0:0:
256,192,80750,1,0,0:0:0:0:
256,192,80900,1,8,0:0:0:0:
256,192,80975,1,8,0:0:0:0:
256,192,81050,1,0,0:0:0:0:
256,192,81125,1,0,0:0:0:0:
256,192,81200,1,0,0:0:0:0:
256,192,81350,1,8,0:0:0:0:
256,192,81500,1,0,0:0:0:0:
256,192,81575,1,0,0:0:0:0:
256,192,81650,1,8,0:0:0:0:
256,192,81687,1,8,0:0:0:0:
256,192,81800,1,0,0:0:0:0:
256,192,81950,1,8,0:0:0:0:
256,192,82100,1,0,0:0:0:0:
256,192,82175,1,0,0:0:0:0:
224,192,82250,1,8,0:0:0:0:
256,192,82400,1,0,0:0:0:0:
256,192,82550,1,8,0:0:0:0:
256,192,82700,1,8,0:0:0:0:
256,192,82775,1,0,0:0:0:0:
256,192,82850,1,0,0:0:0:0:
256,192,83000,1,8,0:0:0:0:
256,192,83075,1,8,0:0:0:0:
256,192,83150,1,8,0:0:0:0:
256,192,83300,1,0,0:0:0:0:
256,192,83450,1,8,0:0:0:0:
256,192,83487,1,8,0:0:0:0:
256,192,83600,1,0,0:0:0:0:
256,192,83675,1,0,0:0:0:0:
256,192,83750,1,8,0:0:0:0:
256,192,83825,1,0,0:0:0:0:
256,192,83900,1,0,0:0:0:0:
256,192,83975,1,0,0:0:0:0:
256,192,84050,1,8,0:0:0:0:
256,192,84200,1,8,0:0:0:0:
256,192,84275,1,8,0:0:0:0:
256,192,84350,1,0,0:0:0:0:
256,192,84500,1,8,0:0:0:0:
256,192,84650,1,8,0:0:0:0:
256,192,84725,1,0,0:0:0:0:
256,192,84800,1,0,0:0:0:0:
256,192,84950,1,8,0:0:0:0:
256,192,85100,1,8,0:0:0:0:
256,192,85175,1,0,0:0:0:0:
256,192,85250,1,8,0:0:0:0:
256,192,85325,1,0,0:0:0:0:
256,192,85400,1,0,0:0:0:0:
256,192,85475,1,8,0:0:0:0:
256,192,85550,1,8,0:0:0:0:
256,192,85700,1,8,0:0:0:0:
256,192,85775,1,0,0:0:0:0:
256,192,85850,1,8,0:0:0:0:
256,192,86000,1,0,0:0:0:0:
256,192,86075,1,8,0:0:0:0:
256,192,86150,1,8,0:0:0:0:
256,192,86300,1,0,0:0:0:0:
256,192,86375,1,0,0:0:0:0:
256,192,86450,1,8,0:0:0:0:
256,192,86600,1,0,0:0:0:0:
256,192,86750,1,8,0:0:0:0:
256,192,86825,1,8,0:0:0:0:
256,192,86900,1,8,0:0:0:0:
256,192,86975,1,8,0:0:0:0:
256,192,87050,1,0,0:0:0:0:
256,192,87200,1,8,0:0:0:0:
256,192,87350,1,0,0:0:0:0:
256,192,87500,1,8,0:0:0:0:
256,192,87575,1,8,0:0:0:0:
256,192,87650,1,0,0:0:0:0:
256,192,87800,1,8,0:0:0:0:
256,192,87875,1,0,0:0:0:0:
256,192,87950,1,8,0:0:0:0:
256,192,88100,1,0,0:0:0:0:
256,192,88250,1,12,0:0:0:0:
256,192,88550,1,12,0:0:0:0:
256,192,88850,1,4,0:0:0:0:
256,192,89000,1,0,0:0:0:0:
256,192,89150,1,8,0:0:0:0:
256,192,89300,1,8,0:0:0:0:
256,192,89375,1,0,0:0:0:0:
256,192,89450,1,8,0:0:0:0:
256,192,89600,1,0,0:0:0:0:
256,192,89675,1,8,0:0:0:0:
256,192,89750,1,8,0:0:0:0:
256,192,89900,1,8,0:0:0:0:
256,192,90050,1,0,0:0:0:0:
256,192,90200,1,8,0:0:0:0:
256,192,90350,1,0,0:0:0:0:
256,192,90500,1,8,0:0:0:0:
256,192,90575,1,8,0:0:0:0:
256,192,90650,1,0,0:0:0:0:
256,192,90750,1,8,0:0:0:0:
256,192,90850,1,8,0:0:0:0:
256,192,90950,1,0,0:0:0:0:
256,192,91050,1,0,0:0:0:0:
256,192,91150,1,8,0:0:0:0:
256,192,91250,1,0,0:0:0:0:
256,192,91325,1,8,0:0:0:0:
256,192,91400,1,0,0:0:0:0:
256,192,91550,1,8,0:0:0:0:
256,192,91625,1,8,0:0:0:0:
256,192,91700,1,0,0:0:0:0:
256,192,91850,1,8,0:0:0:0:
256,192,92000,1,0,0:0:0:0:
256,192,92150,1,8,0:0:0:0:
256,192,92300,1,0,0:0:0:0:
256,192,92450,1,8,0:0:0:0:
256,192,92600,1,8,0:0:0:0:
256,192,92675,1,8,0:0:0:0:
256,192,92750,1,0,0:0:0:0:
256,192,92900,1,8,0:0:0:0:
256,192,93050,1,8,0:0:0:0:
256,192,93200,1,0,0:0:0:0:
256,192,93275,1,0,0:0:0:0:
256,192,93350,1,8,0:0:0:0:
256,192,93425,1,0,0:0:0:0:
256,192,93500,1,8,0:0:0:0:
256,192,93650,1,4,0:0:0:0:
256,192,93800,1,8,0:0:0:0:
256,192,93950,1,0,0:0:0:0:
256,192,94025,1,0,0:0:0:0:
256,192,94100,1,0,0:0:0:0:
256,192,94250,1,8,0:0:0:0:
256,192,94400,1,8,0:0:0:0:
256,192,94550,1,0,0:0:0:0:
256,192,94700,1,8,0:0:0:0:
256,192,95000,1,8,0:0:0:0:
256,192,95075,1,8,0:0:0:0:
256,192,95150,1,0,0:0:0:0:
256,192,95225,1,0,0:0:0:0:
256,192,95300,1,8,0:0:0:0:
256,192,95375,1,8,0:0:0:0:
256,192,95450,1,0,0:0:0:0:
256,192,95525,1,8,0:0:0:0:
256,192,95600,1,0,0:0:0:0:
256,192,95750,1,8,0:0:0:0:
256,192,95900,1,0,0:0:0:0:
256,192,95975,1,0,0:0:0:0:
256,192,96050,1,12,0:0:0:0:
256,192,96200,1,0,0:0:0:0:
256,192,96350,1,8,0:0:0:0:
256,192,96500,1,8,0:0:0:0:
256,192,96650,1,0,0:0:0:0:
256,192,96800,1,8,0:0:0:0:
256,192,96850,1,8,0:0:0:0:
256,192,96900,1,8,0:0:0:0:
256,192,96950,1,0,0:0:0:0:
256,192,97100,1,12,0:0:0:0:
256,192,97400,1,12,0:0:0:0:
256,192,97550,1,0,0:0:0:0:
256,192,97700,1,8,0:0:0:0:
256,192,97850,1,4,0:0:0:0:
256,192,98150,1,12,0:0:0:0:
256,192,98750,1,8,0:0:0:0:
256,192,98900,1,8,0:0:0:0:
256,192,99050,1,0,0:0:0:0:
256,192,99200,1,8,0:0:0:0:
256,192,99350,1,8,0:0:0:0:
256,192,99500,1,0,0:0:0:0:
256,192,99950,1,8,0:0:0:0:
256,192,100100,1,8,0:0:0:0:
256,192,100550,1,8,0:0:0:0:
256,192,100812,1,8,0:0:0:0:
256,192,100850,1,8,0:0:0:0:
256,192,101300,1,8,0:0:0:0:
256,192,101450,1,8,0:0:0:0:
256,192,101600,1,0,0:0:0:0:
256,192,102200,1,8,0:0:0:0:
256,192,102350,1,0,0:0:0:0:
256,192,102650,1,8,0:0:0:0:
256,192,102950,1,8,0:0:0:0:
256,192,103250,1,0,0:0:0:0:
256,192,103287,1,0,0:0:0:0:
256,192,103700,1,8,0:0:0:0:
256,192,104600,1,8,0:0:0:0:
256,192,105050,1,0,0:0:0:0:
256,192,105125,1,8,0:0:0:0:
256,192,105200,1,8,0:0:0:0:
256,192,105275,1,0,0:0:0:0:
256,192,105350,1,8,0:0:0:0:
256,192,105500,1,8,0:0:0:0:
256,192,105650,1,8,0:0:0:0:
256,192,105800,1,0,0:0:0:0:
256,192,106100,1,0,0:0:0:0:
256,192,106400,1,8,0:0:0:0:
256,192,106700,1,8,0:0:0:0:
256,192,106850,1,0,0:0:0:0:
256,192,107000,1,0,0:0:0:0:
256,192,107150,1,8,0:0:0:0:
192,192,107300,1,0,0:0:0:0:
256,192,107375,1,8,0:0:0:0:
256,192,107450,1,0,0:0:0:0:
256,192,107600,1,8,0:0:0:0:
256,192,107675,1,8,0:0:0:0:
256,192,107750,1,0,0:0:0:0:
256,192,107800,1,0,0:0:0:0:
256,192,107850,1,0,0:0:0:0:
256,192,107900,1,8,0:0:0:0:
256,192,108050,1,8,0:0:0:0:
256,192,108087,1,8,0:0:0:0:
256,192,108200,1,0,0:0:0:0:
256,192,108350,1,8,0:0:0:0:
256,192,108500,1,8,0:0:0:0:
256,192,108650,1,0,0:0:0:0:
256,192,108800,1,0,0:0:0:0:
256,192,108950,1,8,0:0:0:0:
256,192,109100,1,8,0:0:0:0:
256,192,109250,1,0,0:0:0:0:
256,192,109400,1,8,0:0:0:0:
256,192,109475,1,8,0:0:0:0:
256,192,109550,1,0,0:0:0:0:
256,192,109700,1,0,0:0:0:0:
256,192,109850,1,8,0:0:0:0:
256,192,110000,1,0,0:0:0:0:
256,192,110150,1,8,0:0:0:0:
256,192,110300,1,8,0:0:0:0:
256,192,110450,1,0,0:0:0:0:
256,192,110600,1,8,0:0:0:0:
256,192,110900,1,8,0:0:0:0:
256,192,111050,1,0,0:0:0:0:
256,192,111200,1,8,0:0:0:0:
256,192,111500,1,0,0:0:0:0:
256,192,111800,1,8,0:0:0:0:
256,192,111950,1,0,0:0:0:0:
256,192,112025,1,0,0:0:0:0:
256,192,112100,1,8,0:0:0:0:
256,192,112400,1,8,0:0:0:0:
256,192,112550,1,0,0:0:0:0:
256,192,112775,1,0,0:0:0:0:
256,192,112850,1,8,0:0:0:0:
256,192,113000,1,0,0:0:0:0:
256,192,113150,1,8,0:0:0:0:
256,192,113250,1,8,0:0:0:0:
256,192,113350,1,8,0:0:0:0:
256,192,113450,1,0,0:0:0:0:
320,192,113600,1,0,0:0:0:0:
256,192,113750,1,8,0:0:0:0:
256,192,113900,1,0,0:0:0:0:
256,192,114050,1,8,0:0:0:0:
256,192,114200,1,0,0:0:0:0:
256,192,114350,1,8,0:0:0:0:
256,192,114425,1,8,0:0:0:0:
256,192,114500,1,0,0:0:0:0:
256,192,114575,1,0,0:0:0:0:
256,192,114650,1,8,0:0:0:0:
256,192,114725,1,0,0:0:0:0:
256,192,114800,1,0,0:0:0:0:
256,192,114875,1,0,0:0:0:0:
256,192,114950,1,8,0:0:0:0:
256,192,115025,1,8,0:0:0:0:
256,192,115100,1,0,0:0:0:0:
256,192,115175,1,0,0:0:0:0:
256,192,115250,1,8,0:0:0:0:
256,192,115400,1,0,0:0:0:0:
256,192,115475,1,8,0:0:0:0:
256,192,115550,1,8,0:0:0:0:
256,192,115700,1,0,0:0:0:0:
256,192,115775,1,0,0:0:0:0:
256,192,115850,1,8,0:0:0:0:
256,192,115925,1,8,0:0:0:0:
256,192,116000,1,0,0:0:0:0:
256,192,116075,1,0,0:0:0:0:
256,192,116150,1,8,0:0:0:0:
256,192,116225,1,8,0:0:0:0:
256,192,116300,1,8,0:0:0:0:
256,192,116375,1,8,0:0:0:0:
256,192,116450,1,0,0:0:0:0:
256,192,116550,1,8,0:0:0:0:
256,192,116650,1,8,0:0:0:0:
256,192,116750,1,0,0:0:0:0:
256,192,116850,1,0,0:0:0:0:
256,192,116950,1,8,0:0:0:0:
256,192,117050,1,8,0:0:0:0:
256,192,117200,1,8,0:0:0:0:
256,192,117350,1,8,0:0:0:0:
256,192,117500,1,0,0:0:0:0:
256,192,117650,1,12,0:0:0:0:
256,192,117800,1,0,0:0:0:0:
256,192,117875,1,0,0:0:0:0:
256,192,117950,1,8,0:0:0:0:
256,192,118100,1,0,0:0:0:0:
256,192,118250,1,0,0:0:0:0:
256,192,118325,1,8,0:0:0:0:
256,192,118400,1,8,0:0:0:0:
256,192,118550,1,8,0:0:0:0:
256,192,118700,1,8,0:0:0:0:
256,192,118775,1,0,0:0:0:0:
256,192,118850,1,8,0:0:0:0:
256,192,119000,1,0,0:0:0:0:
256,192,119150,1,8,0:0:0:0:
256,192,119300,1,0,0:0:0:0:
256,192,119450,1,0,0:0:0:0:
256,192,119600,1,8,0:0:0:0:
256,192,119750,1,8,0:0:0:0:
256,192,119900,1,0,0:0:0:0:
256,192,120050,1,8,0:0:0:0:
256,192,120200,1,0,0:0:0:0:
256,192,120275,1,0,0:0:0:0:
256,192,120350,1,8,0:0:0:0:
256,192,120500,1,0,0:0:0:0:
256,192,120650,1,0,0:0:0:0:
256,192,120800,1,8,0:0:0:0:
256,192,120875,1,8,0:0:0:0:
256,192,120950,1,0,0:0:0:0:
256,192,121100,1,8,0:0:0:0:
256,192,121175,1,0,0:0:0:0:
256,192,121250,1,8,0:0:0:0:
256,192,121400,1,0,0:0:0:0:
256,192,121550,1,8,0:0:0:0:
256,192,121700,1,8,0:0:0:0:
256,192,121850,1,0,0:0:0:0:
256,192,122000,1,0,0:0:0:0:
256,192,122075,1,8,0:0:0:0:
256,192,122150,1,0,0:0:0:0:
256,192,122300,1,0,0:0:0:0:
256,192,122450,1,8,0:0:0:0:
256,192,122600,1,0,0:0:0:0:
256,192,122750,1,8,0:0:0:0:
256,192,122900,1,8,0:0:0:0:
256,192,123050,1,0,0:0:0:0:
256,192,123200,1,0,0:0:0:0:
256,192,123275,1,0,0:0:0:0:
256,192,123350,1,8,0:0:0:0:
256,192,123500,1,0,0:0:0:0:
256,192,123650,1,8,0:0:0:0:
256,192,123800,1,0,0:0:0:0:
256,192,123950,1,8,0:0:0:0:
256,192,124050,1,8,0:0:0:0:
256,192,124150,1,8,0:0:0:0:
256,192,124250,1,8,0:0:0:0:
256,192,124400,1,0,0:0:0:0:
256,192,124550,1,8,0:0:0:0:
256,192,124700,1,8,0:0:0:0:
256,192,124850,1,0,0:0:0:0:
256,192,124887,1,0,0:0:0:0:
256,192,125150,1,8,0:0:0:0:
256,192,125300,1,8,0:0:0:0:
256,192,125450,1,0,0:0:0:0:
256,192,125525,1,0,0:0:0:0:
256,192,125600,1,8,0:0:0:0:
256,192,125750,1,8,0:0:0:0:
256,192,125900,1,0,0:0:0:0:
256,192,126050,1,8,0:0:0:0:
256,192,126200,1,0,0:0:0:0:
256,192,126350,1,8,0:0:0:0:
256,192,126500,1,0,0:0:0:0:
256,192,126650,1,8,0:0:0:0:
256,192,126800,1,8,0:0:0:0:
256,192,126950,1,0,0:0:0:0:
256,192,127100,1,8,0:0:0:0:
256,192,127250,1,0,0:0:0:0:
256,192,127400,1,0,0:0:0:0:
256,192,127550,1,8,0:0:0:0:
256,192,127700,1,8,0:0:0:0:
256,192,127850,1,0,0:0:0:0:
256,192,127925,1,0,0:0:0:0:
256,192,128000,1,8,0:0:0:0:
256,192,128075,1,0,0:0:0:0:
256,192,128150,1,0,0:0:0:0:
256,192,128300,1,8,0:0:0:0:
256,192,128375,1,8,0:0:0:0:
256,192,128450,1,8,0:0:0:0:
256,192,128600,1,0,0:0:0:0:
256,192,128750,1,8,0:0:0:0:
256,192,128900,1,8,0:0:0:0:
256,192,129050,1,0,0:0:0:0:
256,192,129200,1,0,0:0:0:0:
256,192,129350,1,8,0:0:0:0:
256,192,129500,1,8,0:0:0:0:
256,192,129650,1,0,0:0:0:0:
256,192,129800,1,8,0:0:0:0:
256,192,129875,1,0,0:0:0:0:
256,192,129950,1,8,0:0:0:0:
256,192,130100,1,8,0:0:0:0:
256,192,130250,1,0,0:0:0:0:
256,192,130400,1,8,0:0:0:0:
256,192,130550,1,8,0:0:0:0:
256,192,130700,1,0,0:0:0:0:
256,192,130850,1,0,0:0:0:0:
256,192,131000,1,8,0:0:0:0:
256,192,131150,1,0,0:0:0:0:
256,192,131300,1,8,0:0:0:0:
256,192,131450,1,0,0:0:0:0:
256,192,131525,1,8,0:0:0:0:
256,192,131600,1,8,0:0:0:0:
256,192,131675,1,0,0:0:0:0:
256,192,131750,1,8,0:0:0:0:
256,192,131850,1,8,0:0:0:0:
256,192,131950,1,0,0:0:0:0:
256,192,132050,1,8,0:0:0:0:
256,192,132150,1,8,0:0:0:0:
256,192,132250,1,8,0:0:0:0:
256,192,132350,1,0,0:0:0:0:
256,192,132500,1,0,0:0:0:0:
256,192,132650,1,8,0:0:0:0:
256,192,132687,1,8,0:0:0:0:
256,192,132800,1,8,0:0:0:0:
256,192,132837,1,8,0:0:0:0:
256,192,132950,1,8,0:0:0:0:
256,192,132987,1,8,0:0:0:0:
256,192,133100,1,8,0:0:0:0:
256,192,133137,1,8,0:0:0:0:
256,192,133250,1,0,0:0:0:0:
256,192,133287,1,0,0:0:0:0:
256,192,133400,1,8,0:0:0:0:
256,192,133550,1,0,0:0:0:0:
256,192,133700,1,8,0:0:0:0:
256,192,133850,1,8,0:0:0:0:
256,192,134000,1,0,0:0:0:0:
256,192,134150,1,8,0:0:0:0:
256,192,134300,1,8,0:0:0:0:
256,192,134450,1,0,0:0:0:0:
256,192,134600,1,0,0:0:0:0:
256,192,134675,1,0,0:0:0:0:
256,192,134750,1,0,0:0:0:0:
256,192,134900,1,8,0:0:0:0:
256,192,135050,1,0,0:0:0:0:
256,192,135200,1,8,0:0:0:0:
256,192,135350,1,8,0:0:0:0:
256,192,135500,1,8,0:0:0:0:
256,192,135650,1,0,0:0:0:0:
256,192,135687,1,0,0:0:0:0:
256,192,135800,1,8,0:0:0:0:
256,192,135950,1,8,0:0:0:0:
256,192,136100,1,0,0:0:0:0:
256,192,136250,1,8,0:0:0:0:
256,192,136400,1,8,0:0:0:0:
256,192,136550,1,0,0:0:0:0:
256,192,136700,1,0,0:0:0:0:
256,192,136850,1,12,0:0:0:0:
256,192,137450,1,8,0:0:0:0:
256,192,137900,1,0,0:0:0:0:
256,192,138350,1,0,0:0:0:0:
256,192,138650,1,8,0:0:0:0:
256,192,138950,1,8,0:0:0:0:
256,192,139250,1,8,0:0:0:0:
256,192,139850,1,8,0:0:0:0:
256,192,140300,1,0,0:0:0:0:
256,192,141050,1,0,0:0:0:0:
256,192,141350,1,8,0:0:0:0:
256,192,141650,1,8,0:0:0:0:
256,192,142550,1,0,0:0:0:0:
256,192,142850,1,8,0:0:0:0:
256,192,143150,1,0,0:0:0:0:
256,192,143450,1,8,0:0:0:0:
256,192,143750,1,0,0:0:0:0:
256,192,144050,1,8,0:0:0:0:
256,192,144650,1,8,0:0:0:0:
256,192,145100,1,0,0:0:0:0:
256,192,145850,1,0,0:0:0:0:
256,192,146150,1,0,0:0:0:0:
256,192,146450,1,8,0:0:0:0:
256,192,147050,1,8,0:0:0:0:
256,192,147500,1,0,0:0:0:0:
256,192,147950,1,8,0:0:0:0:
256,192,148250,1,0,0:0:0:0:
256,192,148550,1,0,0:0:0:0:
256,192,148850,1,8,0:0:0:0:
256,192,149450,1,8,0:0:0:0:
256,192,149900,1,8,0:0:0:0:
256,192,150350,1,8,0:0:0:0:
256,192,150650,1,8,0:0:0:0:
256,192,150950,1,0,0:0:0:0:
256,192,151250,1,0,0:0:0:0:
256,192,151550,1,0,0:0:0:0:
256,192,151850,1,8,0:0:0:0:
256,192,152000,1,0,0:0:0:0:
256,192,152300,1,8,0:0:0:0:
256,192,152600,1,8,0:0:0:0:
256,192,152900,1,0,0:0:0:0:
256,192,153050,1,8,0:0:0:0:
256,192,153350,1,8,0:0:0:0:
256,192,153650,1,0,0:0:0:0:
256,192,153950,1,0,0:0:0:0:
256,192,154250,1,8,0:0:0:0:
256,192,154400,1,0,0:0:0:0:
256,192,154700,1,0,0:0:0:0:
256,192,154850,1,8,0:0:0:0:
256,192,154925,1,8,0:0:0:0:
256,192,155000,1,8,0:0:0:0:
256,192,155150,1,8,0:0:0:0:
256,192,155300,1,0,0:0:0:0:
256,192,155375,1,0,0:0:0:0:
256,192,155450,1,8,0:0:0:0:
256,192,155600,1,8,0:0:0:0:
256,192,155675,1,8,0:0:0:0:
256,192,155750,1,8,0:0:0:0:
256,192,155900,1,0,0:0:0:0:
256,192,155975,1,0,0:0:0:0:
256,192,156050,1,8,0:0:0:0:
256,192,156200,1,0,0:0:0:0:
256,192,156312,1,8,0:0:0:0:
256,192,156350,1,8,0:0:0:0:
256,192,156500,1,0,0:0:0:0:
256,192,156575,1,0,0:0:0:0:
256,192,156650,1,8,0:0:0:0:
256,192,156725,1,0,0:0:0:0:
256,192,156800,1,8,0:0:0:0:
256,192,156875,1,8,0:0:0:0:
256,192,156950,1,8,0:0:0:0:
256,192,157100,1,0,0:0:0:0:
256,192,157250,1,8,0:0:0:0:
256,192,157400,1,0,0:0:0:0:
256,192,157550,1,8,0:0:0:0:
256,192,157700,1,8,0:0:0:0:
256,192,157775,1,0,0:0:0:0:
256,192,157850,1,0,0:0:0:0:
256,192,157925,1,8,0:0:0:0:
256,192,158000,1,0,0:0:0:0:
256,192,158150,1,8,0:0:0:0:
256,192,158300,1,0,0:0:0:0:
256,192,158375,1,0,0:0:0:0:
256,192,158450,1,8,0:0:0:0:
256,192,158600,1,8,0:0:0:0:
256,192,158675,1,8,0:0:0:0:
256,192,158750,1,0,0:0:0:0:
256,192,158825,1,0,0:0:0:0:
256,192,158900,1,8,0:0:0:0:
256,192,158975,1,0,0:0:0:0:
256,192,159050,1,8,0:0:0:0:
256,192,159200,1,0,0:0:0:0:
256,192,159350,1,8,0:0:0:0:
256,192,159500,1,8,0:0:0:0:
256,192,159575,1,0,0:0:0:0:
256,192,159650,1,0,0:0:0:0:
256,192,159725,1,8,0:0:0:0:
256,192,159800,1,8,0:0:0:0:
256,192,159875,1,8,0:0:0:0:
256,192,159950,1,0,0:0:0:0:
256,192,160100,1,0,0:0:0:0:
256,192,160212,1,8,0:0:0:0:
256,192,160250,1,8,0:0:0:0:
256,192,160400,1,0,0:0:0:0:
256,192,160475,1,0,0:0:0:0:
256,192,160550,1,8,0:0:0:0:
256,192,160625,1,0,0:0:0:0:
256,192,160700,1,0,0:0:0:0:
256,192,160775,1,0,0:0:0:0:
256,192,160850,1,8,0:0:0:0:
256,192,161000,1,8,0:0:0:0:
256,192,161075,1,0,0:0:0:0:
256,192,161150,1,0,0:0:0:0:
256,192,161300,1,8,0:0:0:0:
256,192,161450,1,8,0:0:0:0:
256,192,161525,1,8,0:0:0:0:
256,192,161600,1,0,0:0:0:0:
256,192,161750,1,0,0:0:0:0:
256,192,161900,1,8,0:0:0:0:
256,192,161975,1,0,0:0:0:0:
256,192,162050,1,0,0:0:0:0:
256,192,162125,1,0,0:0:0:0:
256,192,162200,1,8,0:0:0:0:
256,192,162275,1,8,0:0:0:0:
256,192,162350,1,8,0:0:0:0:
256,192,162425,1,8,0:0:0:0:
256,192,162500,1,0,0:0:0:0:
256,192,162575,1,0,0:0:0:0:
256,192,162650,1,8,0:0:0:0:
256,192,162800,1,0,0:0:0:0:
256,192,162950,1,8,0:0:0:0:
256,192,163100,1,0,0:0:0:0:
256,192,163175,1,0,0:0:0:0:
256,192,163250,1,8,0:0:0:0:
256,192,163400,1,0,0:0:0:0:
256,192,163475,1,8,0:0:0:0:
256,192,163550,1,0,0:0:0:0:
256,192,163700,1,8,0:0:0:0:
256,192,163850,1,0,0:0:0:0:
256,192,164000,1,8,0:0:0:0:
256,192,164150,1,8,0:0:0:0:
256,192,164300,1,0,0:0:0:0:
256,192,164375,1,8,0:0:0:0:
256,192,164450,1,0,0:0:0:0:
256,192,164525,1,8,0:0:0:0:
256,192,164600,1,0,0:0:0:0:
256,192,164675,1,8,0:0:0:0:
256,192,164750,1,8,0:0:0:0:
256,192,164900,1,0,0:0:0:0:
256,192,164975,1,0,0:0:0:0:
256,192,165050,1,12,0:0:0:0:
256,192,165350,1,12,0:0:0:0:
256,192,165500,1,8,0:0:0:0:
256,192,165575,1,8,0:0:0:0:
256,192,165650,1,4,0:0:0:0:
256,192,165800,1,0,0:0:0:0:
256,192,165875,1,0,0:0:0:0:
256,192,165950,1,8,0:0:0:0:
256,192,166100,1,0,0:0:0:0:
256,192,166250,1,8,0:0:0:0:
256,192,166400,1,8,0:0:0:0:
256,192,166475,1,0,0:0:0:0:
256,192,166550,1,8,0:0:0:0:
256,192,166700,1,0,0:0:0:0:
256,192,166850,1,8,0:0:0:0:
256,192,167000,1,8,0:0:0:0:
256,192,167075,1,0,0:0:0:0:
256,192,167150,1,0,0:0:0:0:
256,192,167225,1,0,0:0:0:0:
256,192,167300,1,8,0:0:0:0:
256,192,167375,1,0,0:0:0:0:
256,192,167450,1,8,0:0:0:0:
256,192,167525,1,8,0:0:0:0:
256,192,167600,1,0,0:0:0:0:
256,192,167675,1,8,0:0:0:0:
256,192,167750,1,8,0:0:0:0:
256,192,167825,1,0,0:0:0:0:
256,192,167900,1,0,0:0:0:0:
256,192,167975,1,8,0:0:0:0:
256,192,168050,1,8,0:0:0:0:
256,192,168200,1,0,0:0:0:0:
256,192,168275,1,0,0:0:0:0:
256,192,168350,1,8,0:0:0:0:
256,192,168425,1,0,0:0:0:0:
256,192,168500,1,8,0:0:0:0:
256,192,168575,1,8,0:0:0:0:
256,192,168650,1,0,0:0:0:0:
256,192,168687,1,0,0:0:0:0:
256,192,168800,1,8,0:0:0:0:
256,192,168950,1,0,0:0:0:0:
256,192,169100,1,8,0:0:0:0:
256,192,169175,1,0,0:0:0:0:
256,192,169250,1,8,0:0:0:0:
256,192,169400,1,8,0:0:0:0:
256,192,169475,1,8,0:0:0:0:
256,192,169550,1,0,0:0:0:0:
256,192,169700,1,0,0:0:0:0:
256,192,169850,1,8,0:0:0:0:
256,192,170000,1,8,0:0:0:0:
256,192,170075,1,8,0:0:0:0:
256,192,170150,1,0,0:0:0:0:
256,192,170300,1,0,0:0:0:0:
256,192,170375,1,0,0:0:0:0:
256,192,170450,1,12,0:0:0:0:
256,192,170600,1,8,0:0:0:0:
256,192,170675,1,0,0:0:0:0:
256,192,170750,1,0,0:0:0:0:
256,192,170825,1,8,0:0:0:0:
256,192,170900,1,8,0:0:0:0:
256,192,170975,1,8,0:0:0:0:
256,192,171050,1,0,0:0:0:0:
256,192,171125,1,8,0:0:0:0:
256,192,171200,1,0,0:0:0:0:
256,192,171275,1,8,0:0:0:0:
256,192,171350,1,8,0:0:0:0:
256,192,171425,1,8,0:0:0:0:
256,192,171500,1,0,0:0:0:0:
256,192,171650,1,8,0:0:0:0:
256,192,171725,1,0,0:0:0:0:
256,192,171800,1,8,0:0:0:0:
256,192,171875,1,8,0:0:0:0:
256,192,171950,1,8,0:0:0:0:
256,192,172025,1,8,0:0:0:0:
256,192,172100,1,0,0:0:0:0:
256,192,172175,1,0,0:0:0:0:
256,192,172250,1,8,0:0:0:0:
256,192,172325,1,8,0:0:0:0:
256,192,172400,1,0,0:0:0:0:
256,192,172550,1,8,0:0:0:0:
256,192,172700,1,0,0:0:0:0:
256,192,172775,1,0,0:0:0:0:
256,192,172850,1,12,0:0:0:0:
256,192,173000,1,0,0:0:0:0:
256,192,173150,1,8,0:0:0:0:
256,192,173300,1,8,0:0:0:0:
256,192,173450,1,0,0:0:0:0:
256,192,173600,1,8,0:0:0:0:
256,192,173750,1,0,0:0:0:0:
256,192,173825,1,0,0:0:0:0:
256,192,173900,1,12,0:0:0:0:
256,192,174200,1,12,0:0:0:0:
256,192,174350,1,4,0:0:0:0:
256,192,174500,1,4,0:0:0:0:
256,192,174650,1,12,0:0:0:0:
256,192,174800,12,0,176450,0:0:0:0:
