osu file format v14

[General]
AudioFilename: audio.mp3
AudioLeadIn: 0
PreviewTime: 79175
Countdown: 1
SampleSet: Soft
StackLeniency: 0.4
Mode: 0
LetterboxInBreaks: 0
WidescreenStoryboard: 0

[Editor]
Bookmarks: 107150
DistanceSpacing: 1.6
BeatDivisor: 4
GridSize: 32
TimelineZoom: 1.7

[Metadata]
Title:Nyanya no Uta
TitleUnicode:Nyanya no Uta
Artist:NICODE
ArtistUnicode:NICODE
Creator:Elcheer
Version:Extra
Source:
Tags:M2U x NICODE Collection Vol.2 Narae
BeatmapID:2138975
BeatmapSetID:1022371

[Difficulty]
HPDrainRate:4
CircleSize:4.2
OverallDifficulty:8.5
ApproachRate:9
SliderMultiplier:1.4
SliderTickRate:1

[Events]
//Background and Video events
0,0,"0ten.png",0,0
//Break Periods
2,41050,49750
2,98650,106550
2,137050,155450
//Storyboard Layer 0 (Background)
//Storyboard Layer 1 (Fail)
//Storyboard Layer 2 (Pass)
//Storyboard Layer 3 (Foreground)
//Storyboard Layer 4 (Overlay)
//Storyboard Sound Samples

[TimingPoints]
50,300,4,2,0,100,1,0
2450,-166.666666666667,4,2,0,100,0,0
20900,-100,4,2,0,100,0,0
25250,-83.3333333333333,4,2,0,100,0,0
26150,-166.666666666667,4,2,0,100,0,0
26450,-100,4,2,0,100,0,0
40850,-125,4,2,0,100,0,0
79250,-100,4,2,0,100,0,1
98450,-100,4,2,0,100,0,0
108050,-125,4,2,0,100,0,0
136850,-166.666666666667,4,2,0,100,0,0
156050,-100,4,2,0,100,0,1
174650,-100,4,2,0,100,0,0

[HitObjects]
3,12,20450,5,0,0:0:0:0:
3,12,20750,5,0,0:0:0:0:
42,121,20900,5,0,0:0:0:0:
42,121,20975,1,0,0:0:0:0:
42,121,21050,2,0,L|51:159,1,35
76,235,21200,1,0,0:0:0:0:
170,114,21350,2,0,P|225:106|254:112,1,70
263,117,21575,1,0,0:0:0:0:
263,117,21650,5,0,0:0:0:0:
216,252,21800,1,0,0:0:0:0:
293,129,21950,1,0,0:0:0:0:
185,248,22100,5,0,0:0:0:0:
319,325,22250,1,0,0:0:0:0:
154,245,22400,1,0,0:0:0:0:
306,165,22550,2,0,P|325:209|324:243,1,70
241,341,22850,5,0,0:0:0:0:
170,174,23000,1,0,0:0:0:0:
325,230,23150,1,0,0:0:0:0:
157,334,23300,1,0,0:0:0:0:
157,334,23375,1,0,0:0:0:0:
157,334,23450,1,0,0:0:0:0:
265,159,23600,1,0,0:0:0:0:
265,159,23675,1,0,0:0:0:0:
265,159,23750,2,0,P|268:115|261:90,1,70
172,19,24050,5,0,0:0:0:0:
125,178,24200,1,0,0:0:0:0:
203,31,24350,1,0,0:0:0:0:
87,162,24500,5,0,0:0:0:0:
87,162,24575,1,0,0:0:0:0:
87,162,24650,1,0,0:0:0:0:
220,268,24800,1,0,0:0:0:0:
111,131,24950,1,0,0:0:0:0:
45,318,25100,1,0,0:0:0:0:
45,318,25175,1,0,0:0:0:0:
45,318,25250,6,0,B|72:305|108:317|96:326|140:339|174:319,1,125.999996154785
220,268,25550,1,0,0:0:0:0:
40,173,25700,1,0,0:0:0:0:
167,322,25850,1,0,0:0:0:0:
203,128,26000,1,0,0:0:0:0:
203,128,26075,1,0,0:0:0:0:
203,128,26150,6,0,L|283:115,1,62.9999980773926
301,106,26450,5,0,0:0:0:0:
160,51,26600,1,0,0:0:0:0:
287,193,26750,1,0,0:0:0:0:
178,29,26900,5,0,0:0:0:0:
208,226,27050,1,0,0:0:0:0:
304,83,27200,1,0,0:0:0:0:
386,247,27350,2,0,P|346:260|303:256,1,70
416,167,27650,6,0,P|459:200|461:274,1,105
462,276,27950,2,0,L|449:320,1,35
336,384,28100,2,0,L|326:350,1,35
223,278,28250,1,0,0:0:0:0:
324,204,28400,1,0,0:0:0:0:
324,204,28475,1,0,0:0:0:0:
324,204,28550,1,0,0:0:0:0:
247,348,28700,1,0,0:0:0:0:
140,199,28850,6,0,P|129:146|138:115,1,70
146,103,29075,1,0,0:0:0:0:
146,103,29150,1,0,0:0:0:0:
275,43,29300,2,0,P|286:96|277:127,1,70
269,139,29525,1,0,0:0:0:0:
269,139,29600,1,0,0:0:0:0:
124,16,29750,1,0,0:0:0:0:
57,175,29900,1,0,0:0:0:0:
95,4,30050,5,0,0:0:0:0:
131,131,30200,1,0,0:0:0:0:
19,29,30350,1,0,0:0:0:0:
204,100,30500,1,0,0:0:0:0:
211,123,30575,1,0,0:0:0:0:
211,147,30650,1,0,0:0:0:0:
204,170,30725,1,0,0:0:0:0:
190,190,30800,1,0,0:0:0:0:
56,272,30950,1,0,0:0:0:0:
78,262,31025,1,0,0:0:0:0:
102,258,31100,1,0,0:0:0:0:
126,261,31175,1,0,0:0:0:0:
149,271,31250,5,0,0:0:0:0:
252,348,31400,2,0,P|306:363|331:363,1,70
396,227,31700,2,0,P|321:236|312:307,1,140
398,364,32150,1,0,0:0:0:0:
450,161,32300,1,0,0:0:0:0:
305,289,32450,5,0,0:0:0:0:
236,179,32600,2,0,P|228:127|234:102,1,70
287,26,32900,1,0,0:0:0:0:
287,26,33200,5,0,0:0:0:0:
287,26,33275,1,0,0:0:0:0:
287,26,33350,1,0,0:0:0:0:
354,179,33500,1,0,0:0:0:0:
231,110,33650,6,0,B|198:99|165:106|175:118|130:128|93:109,1,140
17,38,34100,1,0,0:0:0:0:
17,38,34175,1,0,0:0:0:0:
17,38,34250,1,0,0:0:0:0:
83,193,34400,1,0,0:0:0:0:
133,45,34550,1,0,0:0:0:0:
133,45,34850,6,0,P|152:93|132:152,1,105
83,193,35150,6,0,B|67:224|67:224|81:292,1,93.3333333333333
141,324,35450,6,0,L|237:305,1,93.3333333333333
277,247,35750,6,0,P|325:244|375:260,1,93.3333333333333
431,297,36050,5,0,0:0:0:0:
409,101,36200,1,0,0:0:0:0:
387,88,36275,1,0,0:0:0:0:
363,85,36350,1,0,0:0:0:0:
340,91,36425,1,0,0:0:0:0:
320,106,36500,1,0,0:0:0:0:
308,126,36575,1,0,0:0:0:0:
304,151,36650,1,0,0:0:0:0:
448,170,36800,2,0,P|481:132|466:39,1,140
377,9,37250,5,0,0:0:0:0:
346,219,37400,1,0,0:0:0:0:
323,228,37475,1,0,0:0:0:0:
299,229,37550,1,0,0:0:0:0:
275,224,37625,1,0,0:0:0:0:
254,211,37700,1,0,0:0:0:0:
238,192,37775,1,0,0:0:0:0:
229,170,37850,1,0,0:0:0:0:
387,151,38000,2,0,P|421:190|405:271,1,140
334,325,38450,5,0,0:0:0:0:
305,149,38600,1,0,0:0:0:0:
404,271,38750,1,0,0:0:0:0:
238,192,38900,2,0,B|205:184|165:197|180:207|139:220|88:194,1,140
30,135,39350,1,0,0:0:0:0:
82,285,39500,1,0,0:0:0:0:
139,138,39650,5,0,0:0:0:0:
4,227,39800,1,0,0:0:0:0:
200,220,39950,5,0,0:0:0:0:
113,114,40100,1,0,0:0:0:0:
75,311,40250,5,0,0:0:0:0:
335,184,40550,5,0,0:0:0:0:
43,85,40850,5,0,0:0:0:0:
493,372,50350,6,0,B|510:326|510:326|496:243,1,112
461,202,50750,2,0,P|394:202|331:227,1,112
315,277,51150,1,0,0:0:0:0:
246,259,51250,1,0,0:0:0:0:
276,194,51350,2,0,P|275:153|261:114,1,74.6666666666667
214,70,51650,6,0,B|188:64|165:66|175:78|145:85|102:73,1,112
104,73,52150,6,0,P|131:115|125:197,1,112
79,222,52550,1,0,0:0:0:0:
224,172,52750,1,0,0:0:0:0:
182,232,52850,6,0,P|161:285|192:361,1,112
345,307,53350,2,0,L|231:291,1,112
172,337,53750,1,0,0:0:0:0:
224,172,53950,1,0,0:0:0:0:
287,221,54050,2,0,L|397:205,1,112
397,204,54650,6,0,P|411:152|399:115,1,74.6666666666667
356,79,54950,2,0,P|397:95|442:86,1,74.6666666666667
491,36,55250,6,0,L|506:150,1,112
438,244,55750,2,0,P|430:197|531:157,1,149.333333333333
438,244,56450,6,0,B|406:260|378:244|390:238|353:225|310:246,1,112
235,283,56950,2,0,P|179:294|132:270,1,112
104,205,57350,2,0,B|91:166|91:166|112:79,1,112
133,2,57950,5,0,0:0:0:0:
231,189,58150,1,0,0:0:0:0:
273,123,58250,2,0,P|301:152|285:242,1,112
106,340,58850,6,0,P|156:323|190:326,1,74.6666666666667
248,362,59150,2,0,P|298:379|332:376,1,74.6666666666667
386,333,59450,5,0,0:0:0:0:
390,305,59525,1,0,0:0:0:0:
394,277,59600,1,0,0:0:0:0:
398,249,59675,1,0,0:0:0:0:
402,222,59750,2,0,L|442:207,3,28
498,194,60050,6,0,P|507:138|493:94,1,74.6666666666667
448,70,60350,2,0,L|373:91,1,74.6666666666667
313,52,60650,2,0,P|340:93|332:147,1,74.6666666666667
296,181,60950,1,0,0:0:0:0:
146,58,61150,5,0,0:0:0:0:
98,116,61250,2,0,P|84:160|91:218,1,74.6666666666667
151,222,61550,2,0,P|165:266|158:324,1,74.6666666666667
110,340,61850,2,0,L|195:328,1,74.6666666666667
235,274,62150,2,0,L|320:286,1,74.6666666666667
367,330,62450,6,0,P|325:288|355:218,1,112
480,119,62950,1,0,0:0:0:0:
427,165,63050,2,0,P|382:170|343:164,1,74.6666666666667
300,114,63350,2,0,P|255:109|216:115,1,74.6666666666667
166,157,63650,6,0,L|153:219,1,37.3333333333333
141,264,63850,1,0,0:0:0:0:
88,213,63950,1,0,0:0:0:0:
194,315,64150,5,0,0:0:0:0:
263,294,64250,2,0,P|310:286|347:298,1,74.6666666666667
376,351,64550,1,0,0:0:0:0:
400,211,64750,6,0,B|413:127|413:127|364:139,1,112
324,167,65150,2,0,P|266:176|231:162,1,74.6666666666667
214,111,65450,2,0,P|156:102|121:116,1,74.6666666666667
84,61,65750,2,0,L|97:152,1,74.6666666666667
107,206,66050,6,0,L|120:297,1,74.6666666666667
133,350,66350,1,0,0:0:0:0:
296,236,66550,1,0,0:0:0:0:
288,306,66650,2,0,L|278:385,1,74.6666666666667
350,380,66950,2,0,L|359:305,1,74.6666666666667
427,240,67250,6,0,B|438:274|438:274|431:340,1,74.6666666666667
431,384,67550,1,0,0:0:0:0:
296,236,67750,1,0,0:0:0:0:
352,193,67850,1,0,0:0:0:0:
218,87,68050,6,0,B|193:77|159:87|175:96|139:107|110:92,1,112
61,40,68450,2,0,P|80:89|64:152,1,112
26,269,68950,1,0,0:0:0:0:
2,202,69050,1,0,0:0:0:0:
180,251,69250,1,0,0:0:0:0:
156,318,69350,1,0,0:0:0:0:
67,145,69550,6,0,B|92:135|126:145|110:154|146:165|175:150,1,112
222,97,69950,2,0,L|235:49,2,37.3333333333333
262,159,70250,2,0,L|271:195,2,37.3333333333333
303,93,70550,1,0,0:0:0:0:
449,200,70750,6,0,L|435:318,1,112
477,369,71150,2,0,P|432:339|384:338,1,74.6666666666667
348,368,71450,2,0,L|332:288,1,74.6666666666667
270,259,71750,2,0,L|255:332,1,74.6666666666667
196,373,72050,6,0,P|148:379|129:375,1,37.3333333333333
97,345,72250,1,0,0:0:0:0:
129,282,72350,1,0,0:0:0:0:
12,156,72550,2,0,B|-6:196|-6:196|10:285,1,112
17,333,72950,1,0,0:0:0:0:
154,184,73150,1,0,0:0:0:0:
205,232,73250,6,0,P|246:246|287:245,1,74.6666666666667
324,193,73550,2,0,L|342:111,1,74.6666666666667
354,49,73850,2,0,L|397:69,2,37.3333333333333
287,22,74150,2,0,P|237:14|198:33,1,74.6666666666667
169,79,74450,6,0,L|189:168,1,74.6666666666667
209,218,74750,1,0,0:0:0:0:
88,127,74950,1,0,0:0:0:0:
66,194,75050,2,0,L|50:254,1,37.3333333333333
36,298,75250,1,0,0:0:0:0:
127,278,75350,2,0,P|160:282|174:293,1,37.3333333333333
215,337,75550,1,0,0:0:0:0:
460,82,75950,6,0,P|416:100|343:93,1,112
274,24,76400,2,0,P|230:6|157:13,1,112
196,159,76850,6,0,L|216:81,1,56
166,9,77150,1,0,0:0:0:0:
106,143,77300,1,0,0:0:0:0:
85,0,77450,1,0,0:0:0:0:
209,104,77600,1,0,0:0:0:0:
35,85,77750,1,0,0:0:0:0:
178,186,77900,6,0,P|196:234|197:262,1,56
113,353,78200,1,0,0:0:0:0:
43,307,78350,2,0,P|25:259|24:231,1,56
209,104,78650,6,0,P|243:143|276:253,1,168
216,336,79250,6,0,P|270:321|359:334,1,140
455,376,79700,1,0,0:0:0:0:
359,208,79850,1,0,0:0:0:0:
456,298,80000,1,0,0:0:0:0:
456,298,80075,1,0,0:0:0:0:
456,298,80150,1,0,0:0:0:0:
275,252,80300,1,0,0:0:0:0:
414,113,80450,6,0,P|430:156|433:184,1,70
378,278,80750,1,0,0:0:0:0:
288,171,80900,1,0,0:0:0:0:
263,146,80975,1,0,0:0:0:0:
231,131,81050,1,0,0:0:0:0:
197,127,81125,1,0,0:0:0:0:
163,135,81200,1,0,0:0:0:0:
123,262,81350,2,0,P|78:278|43:276,1,70
6,230,81575,1,0,0:0:0:0:
6,230,81650,6,0,L|4:142,1,70
3,47,81950,1,0,0:0:0:0:
131,162,82100,1,0,0:0:0:0:
131,162,82175,1,0,0:0:0:0:
131,162,82250,1,0,0:0:0:0:
4,160,82400,1,0,0:0:0:0:
139,77,82550,1,0,0:0:0:0:
123,262,82700,1,0,0:0:0:0:
123,262,82775,1,0,0:0:0:0:
123,262,82850,6,0,L|113:340,1,70
111,363,83075,1,0,0:0:0:0:
111,363,83150,1,0,0:0:0:0:
6,230,83300,1,0,0:0:0:0:
188,186,83450,2,0,P|231:175|271:181,1,70
316,223,83675,1,0,0:0:0:0:
316,223,83750,2,0,L|307:299,1,70
464,322,84050,6,0,L|455:252,1,70
449,217,84275,1,0,0:0:0:0:
449,217,84350,1,0,0:0:0:0:
307,292,84500,1,0,0:0:0:0:
264,133,84650,2,0,L|255:91,2,35
202,258,84950,1,0,0:0:0:0:
172,276,85025,1,0,0:0:0:0:
137,280,85100,1,0,0:0:0:0:
104,270,85175,1,0,0:0:0:0:
78,247,85250,6,0,L|90:172,1,70
109,67,85550,2,0,L|115:31,2,35
176,156,85850,2,0,L|170:190,2,35
237,62,86150,1,0,0:0:0:0:
330,148,86300,1,0,0:0:0:0:
330,148,86375,1,0,0:0:0:0:
330,148,86450,6,0,L|319:221,1,70
297,327,86750,1,0,0:0:0:0:
185,183,86900,1,0,0:0:0:0:
221,345,87050,1,0,0:0:0:0:
319,217,87200,1,0,0:0:0:0:
149,278,87350,1,0,0:0:0:0:
179,95,87500,1,0,0:0:0:0:
179,95,87575,1,0,0:0:0:0:
179,95,87650,6,0,P|242:118|256:143,1,70
263,143,87875,1,0,0:0:0:0:
263,143,87950,1,0,0:0:0:0:
126,209,88100,1,0,0:0:0:0:
286,282,88250,6,0,P|327:297|385:293,1,70
506,100,88550,2,0,P|462:79|383:93,1,105
356,129,88850,6,0,B|322:148|286:129|300:122|256:111|209:130,1,140
135,201,89300,1,0,0:0:0:0:
301,232,89450,1,0,0:0:0:0:
220,126,89600,1,0,0:0:0:0:
220,126,89675,1,0,0:0:0:0:
220,126,89750,1,0,0:0:0:0:
253,305,89900,1,0,0:0:0:0:
63,199,90050,5,0,0:0:0:0:
239,111,90200,1,0,0:0:0:0:
151,313,90350,1,0,0:0:0:0:
301,232,90500,2,0,L|296:179,1,35
150,116,90650,2,0,L|147:151,1,35
142,231,90800,1,0,0:0:0:0:
326,112,90950,2,0,L|387:104,2,46.6666666666667
301,232,91250,6,0,P|347:218|418:273,1,140
397,378,91700,1,0,0:0:0:0:
489,225,91850,1,0,0:0:0:0:
346,300,92000,1,0,0:0:0:0:
402,149,92150,1,0,0:0:0:0:
218,89,92300,6,0,L|226:166,1,70
243,278,92600,1,0,0:0:0:0:
243,278,92675,1,0,0:0:0:0:
243,278,92750,1,0,0:0:0:0:
140,157,92900,1,0,0:0:0:0:
308,212,93050,1,0,0:0:0:0:
126,266,93200,1,0,0:0:0:0:
126,266,93275,1,0,0:0:0:0:
126,266,93350,1,0,0:0:0:0:
297,361,93500,1,0,0:0:0:0:
297,361,93575,1,0,0:0:0:0:
297,361,93650,6,0,P|350:368|384:355,1,70
308,212,93950,2,0,P|275:254|269:290,1,70
437,341,94250,1,0,0:0:0:0:
287,193,94400,2,0,P|254:235|248:271,1,70
414,217,94700,6,0,L|404:127,1,70
256,54,95000,2,0,L|246:144,1,70
417,30,95300,1,0,0:0:0:0:
230,48,95450,2,0,L|220:138,1,70
439,214,95750,2,0,L|429:124,1,70
428,115,95975,1,0,0:0:0:0:
428,115,96050,5,0,0:0:0:0:
281,195,96200,1,0,0:0:0:0:
422,337,96350,1,0,0:0:0:0:
308,165,96500,1,0,0:0:0:0:
350,363,96650,1,0,0:0:0:0:
241,210,96800,1,0,0:0:0:0:
441,264,96950,1,0,0:0:0:0:
256,362,97100,6,0,P|203:376|176:373,1,70
83,280,97400,1,0,0:0:0:0:
83,280,97475,1,0,0:0:0:0:
83,280,97550,1,0,0:0:0:0:
241,210,97700,1,0,0:0:0:0:
133,81,97850,5,0,0:0:0:0:
137,108,97925,1,0,0:0:0:0:
141,136,98000,1,0,0:0:0:0:
145,164,98075,1,0,0:0:0:0:
150,189,98150,2,0,L|166:267,1,70
172,290,98375,1,0,0:0:0:0:
172,290,98450,1,0,0:0:0:0:
10,375,107150,6,0,P|46:329|116:320,1,105
121,326,107450,5,0,0:0:0:0:
60,183,107600,1,0,0:0:0:0:
183,256,107750,5,0,0:0:0:0:
15,263,107900,1,0,0:0:0:0:
154,105,108050,6,0,L|142:176,1,56
60,183,108350,1,0,0:0:0:0:
183,256,108500,1,0,0:0:0:0:
136,80,108650,2,0,L|124:151,1,56
103,251,108950,1,0,0:0:0:0:
252,158,109100,1,0,0:0:0:0:
102,72,109250,5,0,0:0:0:0:
243,22,109400,1,0,0:0:0:0:
264,16,109475,1,0,0:0:0:0:
286,11,109550,1,0,0:0:0:0:
252,158,109700,1,0,0:0:0:0:
410,98,109850,1,0,0:0:0:0:
380,230,110000,1,0,0:0:0:0:
231,140,110150,1,0,0:0:0:0:
175,279,110300,1,0,0:0:0:0:
318,366,110450,5,0,0:0:0:0:
151,266,110600,2,0,P|137:310|140:343,1,56
282,255,110900,1,0,0:0:0:0:
282,255,111200,5,0,0:0:0:0:
141,164,111350,1,0,0:0:0:0:
307,83,111500,2,0,L|300:139,1,56
282,255,111800,1,0,0:0:0:0:
430,100,111950,1,0,0:0:0:0:
434,121,112025,1,0,0:0:0:0:
439,144,112100,2,0,L|463:256,1,112
289,199,112550,2,0,L|279:275,1,56
265,355,112850,5,0,0:0:0:0:
382,277,113000,1,0,0:0:0:0:
204,188,113150,2,0,L|198:240,2,37.3333333333333
216,114,113450,1,0,0:0:0:0:
289,199,113600,1,0,0:0:0:0:
123,152,113750,2,0,L|109:226,1,56
93,314,114050,5,0,0:0:0:0:
0,168,114200,1,0,0:0:0:0:
192,228,114350,1,0,0:0:0:0:
210,241,114425,1,0,0:0:0:0:
223,259,114500,1,0,0:0:0:0:
229,280,114575,1,0,0:0:0:0:
229,302,114650,5,0,0:0:0:0:
93,314,114800,2,0,L|89:271,1,28
84,210,114950,1,0,0:0:0:0:
80,186,115025,1,0,0:0:0:0:
78,164,115100,1,0,0:0:0:0:
76,142,115175,1,0,0:0:0:0:
74,120,115250,5,0,0:0:0:0:
203,43,115400,1,0,0:0:0:0:
199,65,115475,1,0,0:0:0:0:
196,87,115550,1,0,0:0:0:0:
331,30,115700,1,0,0:0:0:0:
327,52,115775,1,0,0:0:0:0:
324,74,115850,5,0,0:0:0:0:
320,96,115925,1,0,0:0:0:0:
317,118,116000,1,0,0:0:0:0:
313,140,116075,1,0,0:0:0:0:
308,164,116150,1,0,0:0:0:0:
330,166,116225,1,0,0:0:0:0:
350,176,116300,1,0,0:0:0:0:
365,192,116375,1,0,0:0:0:0:
374,216,116450,6,0,L|357:270,2,37.3333333333333
431,264,116750,2,0,L|443:229,2,37.3333333333333
405,333,117050,5,0,0:0:0:0:
299,249,117200,1,0,0:0:0:0:
164,257,117350,1,0,0:0:0:0:
80,362,117500,1,0,0:0:0:0:
230,304,117650,5,0,0:0:0:0:
110,162,117800,1,0,0:0:0:0:
91,174,117875,1,0,0:0:0:0:
76,190,117950,1,0,0:0:0:0:
161,338,118100,1,0,0:0:0:0:
250,191,118250,1,0,0:0:0:0:
246,168,118325,1,0,0:0:0:0:
242,146,118400,1,0,0:0:0:0:
238,124,118475,1,0,0:0:0:0:
234,102,118550,1,0,0:0:0:0:
149,243,118700,1,0,0:0:0:0:
149,243,118775,1,0,0:0:0:0:
149,243,118850,5,0,0:0:0:0:
315,276,119000,1,0,0:0:0:0:
164,207,119150,1,0,0:0:0:0:
239,359,119300,1,0,0:0:0:0:
57,309,119450,2,0,P|46:267|49:232,1,56
180,125,119750,2,0,P|169:167|172:202,1,56
249,270,120050,5,0,0:0:0:0:
348,120,120200,1,0,0:0:0:0:
331,104,120275,1,0,0:0:0:0:
310,97,120350,1,0,0:0:0:0:
180,125,120500,1,0,0:0:0:0:
319,209,120650,2,0,P|360:217|391:208,1,56
401,202,120875,1,0,0:0:0:0:
401,202,120950,1,0,0:0:0:0:
237,69,121100,1,0,0:0:0:0:
237,69,121175,1,0,0:0:0:0:
237,69,121250,5,0,0:0:0:0:
290,282,121400,1,0,0:0:0:0:
310,97,121550,1,0,0:0:0:0:
175,232,121700,1,0,0:0:0:0:
374,185,121850,5,0,0:0:0:0:
175,129,122000,1,0,0:0:0:0:
288,257,122150,1,0,0:0:0:0:
307,121,122300,1,0,0:0:0:0:
196,210,122450,5,0,0:0:0:0:
303,337,122600,2,0,P|349:346|372:344,1,56
454,280,122900,1,0,0:0:0:0:
316,210,123050,1,0,0:0:0:0:
394,348,123200,1,0,0:0:0:0:
439,180,123350,1,0,0:0:0:0:
268,330,123500,1,0,0:0:0:0:
229,126,123650,5,0,0:0:0:0:
369,268,123800,1,0,0:0:0:0:
181,248,123950,2,0,L|234:227,2,37.3333333333333
106,271,124250,1,0,0:0:0:0:
276,348,124400,1,0,0:0:0:0:
179,170,124550,1,0,0:0:0:0:
294,246,124700,1,0,0:0:0:0:
121,343,124850,6,0,P|82:343|32:284,1,112
13,186,125300,1,0,0:0:0:0:
179,170,125450,1,0,0:0:0:0:
179,170,125525,1,0,0:0:0:0:
179,170,125600,2,0,L|187:228,2,56
158,65,126050,5,0,0:0:0:0:
109,223,126200,1,0,0:0:0:0:
252,132,126350,1,0,0:0:0:0:
89,204,126500,1,0,0:0:0:0:
241,269,126650,1,0,0:0:0:0:
340,161,126800,1,0,0:0:0:0:
216,264,126950,1,0,0:0:0:0:
367,316,127100,1,0,0:0:0:0:
464,193,127250,5,0,0:0:0:0:
341,309,127400,2,0,P|333:336|331:366,1,56
464,267,127700,1,0,0:0:0:0:
260,286,127850,1,0,0:0:0:0:
359,150,128000,2,0,P|376:189|375:225,1,56
181,235,128300,1,0,0:0:0:0:
176,213,128375,1,0,0:0:0:0:
178,188,128450,6,0,B|206:175|235:190|223:198|250:212|298:198,1,112
359,150,128900,1,0,0:0:0:0:
280,59,129050,2,0,L|269:125,1,56
375,239,129350,2,0,L|366:184,1,56
245,274,129650,5,0,0:0:0:0:
245,274,129950,5,0,0:0:0:0:
364,331,130100,1,0,0:0:0:0:
391,327,130175,1,0,0:0:0:0:
419,323,130250,1,0,0:0:0:0:
269,197,130400,1,0,0:0:0:0:
409,135,130550,2,0,L|423:198,1,56
457,317,130850,5,0,0:0:0:0:
342,232,131000,1,0,0:0:0:0:
490,142,131150,1,0,0:0:0:0:
341,268,131300,1,0,0:0:0:0:
222,139,131450,1,0,0:0:0:0:
201,130,131525,1,0,0:0:0:0:
179,126,131600,1,0,0:0:0:0:
156,125,131675,1,0,0:0:0:0:
129,129,131750,2,0,L|117:185,2,37.3333333333333
69,85,132050,6,0,L|61:48,2,37.3333333333333
29,153,132350,1,0,0:0:0:0:
191,211,132500,1,0,0:0:0:0:
39,261,132650,6,0,L|16:267,1,18.6666666666667
102,357,132800,2,0,L|79:351,1,18.6666666666667
202,291,132950,2,0,L|179:297,1,18.6666666666667
266,383,133100,2,0,L|243:377,1,18.6666666666667
357,283,133250,6,0,L|366:318,1,18.6666666666667
381,381,133400,1,0,0:0:0:0:
427,230,133550,1,0,0:0:0:0:
278,305,133700,1,0,0:0:0:0:
461,244,133850,5,0,0:0:0:0:
351,163,134000,1,0,0:0:0:0:
226,199,134150,1,0,0:0:0:0:
345,267,134300,1,0,0:0:0:0:
255,126,134450,6,0,B|227:112|194:119|206:128|173:136|133:120,1,112
76,67,134900,1,0,0:0:0:0:
39,209,135050,1,0,0:0:0:0:
145,124,135200,1,0,0:0:0:0:
135,287,135350,1,0,0:0:0:0:
5,191,135500,1,0,0:0:0:0:
194,210,135650,6,0,L|219:214,1,18.6666666666667
291,225,135800,1,0,0:0:0:0:
117,201,135950,1,0,0:0:0:0:
328,228,136100,1,0,0:0:0:0:
220,130,136250,5,0,0:0:0:0:
278,307,136400,1,0,0:0:0:0:
368,152,136550,1,0,0:0:0:0:
241,310,136700,1,0,0:0:0:0:
417,375,136850,5,0,0:0:0:0:
505,319,156050,6,0,B|472:307|434:319|448:328|411:340|367:321,1,140
274,256,156500,1,0,0:0:0:0:
433,205,156650,1,0,0:0:0:0:
277,124,156800,1,0,0:0:0:0:
277,124,156875,1,0,0:0:0:0:
277,124,156950,1,0,0:0:0:0:
405,231,157100,1,0,0:0:0:0:
430,77,157250,6,0,P|389:91|364:121,1,70
311,216,157550,1,0,0:0:0:0:
213,76,157700,1,0,0:0:0:0:
186,53,157775,1,0,0:0:0:0:
153,42,157850,1,0,0:0:0:0:
118,44,157925,1,0,0:0:0:0:
86,57,158000,1,0,0:0:0:0:
127,222,158150,2,0,L|144:143,1,70
215,161,158375,1,0,0:0:0:0:
215,161,158450,6,0,L|200:229,1,70
175,339,158750,1,0,0:0:0:0:
306,256,158900,1,0,0:0:0:0:
340,256,158975,1,0,0:0:0:0:
372,271,159050,1,0,0:0:0:0:
395,297,159125,1,0,0:0:0:0:
405,330,159200,1,0,0:0:0:0:
174,338,159350,6,0,L|189:270,1,70
215,161,159650,1,0,0:0:0:0:
98,275,159800,1,0,0:0:0:0:
275,259,159950,1,0,0:0:0:0:
137,145,160100,1,0,0:0:0:0:
137,145,160175,1,0,0:0:0:0:
137,145,160250,2,0,P|130:91|139:69,1,70
301,11,160550,2,0,P|308:65|299:87,1,70
212,180,160850,6,0,B|249:167|286:182|271:193|316:206|349:186,1,140
435,118,161300,1,0,0:0:0:0:
479,256,161450,2,0,L|512:247,2,35
377,350,161750,1,0,0:0:0:0:
344,363,161825,1,0,0:0:0:0:
310,364,161900,1,0,0:0:0:0:
277,353,161975,1,0,0:0:0:0:
252,331,162050,6,0,L|239:251,1,70
220,151,162350,2,0,L|210:101,2,35
315,210,162650,2,0,L|321:244,2,35
389,126,162950,1,0,0:0:0:0:
495,189,163100,1,0,0:0:0:0:
495,189,163175,1,0,0:0:0:0:
495,189,163250,6,0,L|501:103,1,70
510,7,163550,1,0,0:0:0:0:
383,153,163700,1,0,0:0:0:0:
353,16,163850,1,0,0:0:0:0:
499,119,164000,1,0,0:0:0:0:
309,92,164150,1,0,0:0:0:0:
491,202,164300,6,0,B|504:240|504:240|484:347,1,140
479,366,164675,1,0,0:0:0:0:
479,366,164750,1,0,0:0:0:0:
402,196,164900,1,0,0:0:0:0:
269,311,165050,2,0,L|345:333,1,70
255,228,165350,2,0,P|212:242|184:316,1,105
187,331,165650,6,0,B|152:318|111:326|125:337|80:349|41:328,1,140
4,228,166100,1,0,0:0:0:0:
172,183,166250,1,0,0:0:0:0:
11,132,166400,1,0,0:0:0:0:
11,132,166475,1,0,0:0:0:0:
11,132,166550,1,0,0:0:0:0:
91,273,166700,1,0,0:0:0:0:
177,103,166850,5,0,0:0:0:0:
250,265,167000,1,0,0:0:0:0:
148,116,167150,1,0,0:0:0:0:
360,139,167300,2,0,L|354:182,1,35
249,264,167450,2,0,L|245:230,1,35
236,150,167600,1,0,0:0:0:0:
427,211,167750,2,0,P|397:244|366:254,1,70
236,150,168050,6,0,P|194:128|105:152,1,140
56,249,168500,1,0,0:0:0:0:
30,84,168650,1,0,0:0:0:0:
173,213,168800,1,0,0:0:0:0:
184,50,168950,2,0,P|150:46|116:53,1,70
236,150,169250,6,0,B|286:165|316:150|296:144|341:127|379:148,1,140
464,211,169700,1,0,0:0:0:0:
370,319,169850,2,0,L|295:310,1,70
177,242,170150,2,0,L|252:233,1,70
155,380,170450,6,0,P|141:334|148:304,1,70
305,184,170750,2,0,P|319:230|312:260,1,70
121,178,171050,2,0,B|106:77|106:77|169:107,1,140
239,169,171500,6,0,P|297:185|317:179,1,70
433,54,171800,2,0,P|375:38|355:44,1,70
283,112,172100,1,0,0:0:0:0:
448,28,172250,2,0,P|390:12|370:18,1,70
425,229,172550,2,0,L|439:148,1,70
444,126,172775,1,0,0:0:0:0:
444,126,172850,5,0,0:0:0:0:
334,226,173000,1,0,0:0:0:0:
506,196,173150,1,0,0:0:0:0:
337,134,173300,1,0,0:0:0:0:
503,285,173450,1,0,0:0:0:0:
332,338,173600,1,0,0:0:0:0:
433,149,173750,1,0,0:0:0:0:
230,103,173900,6,0,P|199:140|195:244,1,140
255,320,174350,1,0,0:0:0:0:
337,134,174500,1,0,0:0:0:0:
189,228,174650,1,0,0:0:0:0:
