osu file format v14

[General]
AudioFilename: audio.mp3
AudioLeadIn: 0
PreviewTime: 84061
Countdown: 0
SampleSet: Soft
StackLeniency: 1
Mode: 0
LetterboxInBreaks: 0
WidescreenStoryboard: 0

[Editor]
Bookmarks: 15597,29311,43026,56740,70454,84169,97883,111597,125311
DistanceSpacing: 1
BeatDivisor: 2
GridSize: 8
TimelineZoom: 0.4999999

[Metadata]
Title:Predawn
TitleUnicode:Predawn
Artist:NICODE & M2U
ArtistUnicode:NICODE & M2U
Creator:Sulfur
Version:Normal
Source:Cytus
Tags:Su1fu7 Finshie eiri- Ayyri JeirYagtama Deemo Rayark Farewell Knight Rosabell Collection Chapter K
BeatmapID:1583157
BeatmapSetID:748803

[Difficulty]
HPDrainRate:3
CircleSize:3
OverallDifficulty:3
ApproachRate:4.4
SliderMultiplier:1
SliderTickRate:2

[Events]
//Background and Video events
0,0,"66290905_p0.jpg",0,0
//Break Periods
//Storyboard Layer 0 (Background)
//Storyboard Layer 1 (Fail)
//Storyboard Layer 2 (Pass)
//Storyboard Layer 3 (Foreground)
//Storyboard Sound Samples

[TimingPoints]
169,428.571428571429,4,2,1,40,1,0
15597,-100,4,2,1,45,0,0
27597,-100,4,2,1,50,0,0
29311,-100,4,2,1,65,0,1
42597,-100,4,2,1,65,0,0
43026,-100,4,2,1,65,0,1
56740,-100,4,2,1,45,0,0
70026,-100,4,2,1,45,0,0
73883,-100,4,2,1,50,0,0
79740,-100,4,2,1,45,0,0
84169,-100,4,2,1,55,0,0
97883,-100,4,2,1,65,0,1
111169,-100,4,2,1,65,0,0
111597,-100,4,2,1,65,0,1
124883,-100,4,2,1,65,0,0
125311,612.244897959184,4,2,1,40,1,0
125923,618.556701030928,4,2,1,40,1,0
126232,800,4,2,1,40,1,0
126632,681.818181818182,4,2,1,40,1,0
127313,705.882352941176,4,2,1,40,1,0
127665,740.740740740741,4,2,1,40,1,0
128035,800,4,2,1,40,1,0
128835,821.917808219178,4,2,1,40,1,0
129245,1071.42857142857,4,2,1,40,1,0

[Colours]
Combo1 : 140,140,255
Combo2 : 255,128,255
Combo3 : 255,255,128
Combo4 : 84,169,169

[HitObjects]
152,32,1883,6,0,P|198:68|186:159,1,150,2|0,0:2|0:2,0:0:0:0:
42,166,3169,1,2,0:2:0:0:
53,265,3597,2,0,B|95:293|95:293|215:282,1,150,2|0,0:2|0:2,0:0:0:0:
276,341,4669,2,0,P|285:300|328:262,1,100,2|0,0:2|0:2,0:0:0:0:
380,261,5311,5,2,0:2:0:0:
484,261,5740,2,0,L|503:189,1,50,0|2,0:2|0:2,0:0:0:0:
412,88,6597,2,0,P|359:125|306:112,1,100,2|2,0:2|0:2,0:0:0:0:
236,77,7454,2,0,L|158:97,1,50,0|2,0:2|0:2,0:0:0:0:
0,24,8526,1,0,0:2:0:0:
0,72,8740,6,0,B|-4:146|41:133|38:213,1,150,2|0,0:2|0:2,0:0:0:0:
40,264,9597,1,2,0:2:0:0:
128,315,10026,1,2,0:2:0:0:
201,247,10454,1,2,0:2:0:0:
161,156,10883,2,0,P|208:148|257:166,1,100,2|2,0:2|0:2,0:0:0:0:
298,253,11740,1,2,0:2:0:0:
339,340,12169,6,0,P|385:357|434:349,1,100,2|2,0:2|0:2,0:0:0:0:
467,151,13454,2,0,P|466:71|459:31,1,100,2|2,0:2|0:2,0:0:0:0:
293,152,14740,1,2,0:2:0:0:
449,278,15597,6,0,B|435:325|435:325|381:339,2,100,2|0|2,1:2|0:2|0:2,0:0:0:0:
480,80,17311,1,2,0:2:0:0:
282,49,18169,1,2,0:2:0:0:
355,236,19026,5,2,0:2:0:0:
280,304,19454,2,0,P|210:285|173:267,1,100,2|2,0:2|0:2,0:0:0:0:
105,213,20311,1,2,0:2:0:0:
48,128,20740,2,0,B|32:80|32:80|64:0,1,100,2|0,0:2|0:2,0:0:0:0:
152,32,21597,2,0,L|264:48,1,100,2|0,0:2|0:2,0:0:0:0:
350,68,22454,6,0,P|334:148|262:116,1,150,2|0,0:2|0:0,0:0:0:0:
232,160,23311,1,2,0:2:0:0:
172,240,23740,2,0,P|172:264|180:304,1,50,0|0,0:2|0:2,0:0:0:0:
210,326,24169,2,0,P|259:318|306:331,1,100,2|0,0:2|0:2,0:0:0:0:
406,321,25026,1,2,0:2:0:0:
492,270,25454,2,0,P|493:235|484:207,1,50,0|0,0:2|0:2,0:0:0:0:
448,191,25883,6,0,P|477:118|460:39,1,150,2|0,0:0|0:2,0:0:0:0:
423,23,26740,1,2,2:2:0:0:
322,21,27169,1,2,0:2:0:0:
253,93,27597,2,0,B|206:104|206:104|141:171|141:171|49:196,1,200,2|2,3:2|3:2,0:0:0:0:
35,180,28669,1,0,1:2:0:0:
35,180,28883,1,8,3:2:0:0:
33,279,29311,6,0,P|47:300|74:324,1,50,6|0,1:2|0:2,0:0:0:0:
110,338,29740,2,0,L|175:337,1,50,2|0,1:2|0:2,0:0:0:0:
209,342,30169,1,2,1:2:0:0:
309,341,30597,2,0,L|357:328,1,50,2|0,1:2|0:2,0:0:0:0:
399,300,31026,1,2,1:2:0:0:
362,207,31454,2,0,B|330:216|330:216|298:215|298:215|259:226,2,100,2|0|0,1:2|1:2|1:2,0:0:0:0:
443,149,32740,6,0,P|453:113|455:84,1,50,2|0,1:2|0:2,0:0:0:0:
447,49,33169,2,0,L|380:30,1,50,2|0,1:2|0:2,0:0:0:0:
351,49,33597,1,2,1:2:0:0:
256,82,34026,1,2,1:2:0:0:
154,41,34454,1,2,1:2:0:0:
113,143,34883,2,0,P|124:198|123:274,1,100,2|2,1:2|1:2,0:0:0:0:
220,274,35740,2,0,P|214:326|217:340,1,50,0|0,1:2|3:2,0:0:0:0:
259,343,36169,6,0,P|327:351|376:341,1,100,6|0,1:2|1:2,0:0:0:0:
457,340,37026,1,2,1:2:0:0:
469,240,37454,1,0,1:2:0:0:
455,140,37883,2,0,P|464:56|487:21,2,100,2|2|2,1:2|1:2|1:2,0:0:0:0:
360,172,39169,2,0,L|301:187,1,50,2|0,1:2|0:2,0:0:0:0:
280,223,39597,6,0,L|170:204,1,100,2|0,1:2|1:2,0:0:0:0:
82,194,40454,1,2,1:2:0:0:
70,293,40883,1,2,1:2:0:0:
169,304,41311,1,2,1:2:0:0:
253,356,41740,2,0,L|335:342,1,50,2|0,1:2|0:2,0:0:0:0:
351,354,42169,2,0,P|392:289|374:244,1,100,2|2,1:2|1:2,0:0:0:0:
320,200,43026,6,0,P|312:176|312:144,1,50,6|0,1:2|0:2,0:0:0:0:
343,113,43454,2,0,B|399:103,1,50,2|0,1:2|0:2,0:0:0:0:
441,113,43883,1,2,1:2:0:0:
456,211,44311,2,0,L|447:277,1,50,2|0,1:2|0:2,0:0:0:0:
410,291,44740,1,2,1:2:0:0:
309,331,45169,2,0,B|245:347|245:347|197:331,2,100,2|0|0,1:2|1:2|1:2,0:0:0:0:
288,231,46454,6,0,P|268:218|239:209,1,50,2|0,1:2|0:2,0:0:0:0:
198,233,46883,2,0,P|174:234|144:227,1,50,2|0,1:2|0:2,0:0:0:0:
107,201,47311,1,2,1:2:0:0:
58,112,47740,1,2,1:2:0:0:
147,63,48169,1,2,1:2:0:0:
236,112,48597,2,0,B|259:105|288:118|300:128|300:128|364:112,1,100,2|2,1:2|1:2,0:0:0:0:
427,144,49454,2,0,L|422:214,1,50,2|0,1:2|3:2,0:0:0:0:
432,240,49883,6,0,L|326:264,1,100,6|0,1:2|1:2,0:0:0:0:
280,344,50740,2,0,P|232:328|171:339,1,100,2|2,1:2|1:2,0:0:0:0:
96,288,51597,1,2,1:2:0:0:
142,200,52026,1,2,1:2:0:0:
96,112,52454,1,2,1:2:0:0:
184,66,52883,2,0,P|211:63|256:72,1,50,2|0,1:2|0:2,0:0:0:0:
280,80,53311,6,0,B|284:127|284:127|304:174|304:174|309:237,1,150,2|0,1:2|0:2,0:0:0:0:
304,272,54169,1,2,1:2:0:0:
208,296,54597,1,2,1:2:0:0:
136,364,55026,2,0,B|88:348|88:348|72:284,1,100,2|2,1:2|1:2,0:0:0:0:
80,248,55669,1,0,0:2:0:0:
80,248,55883,1,6,0:2:0:0:
256,152,56740,5,2,0:2:0:0:
240,248,57169,2,0,P|254:302|290:342,1,100,2|2,0:2|0:2,0:0:0:0:
380,344,58026,2,0,L|495:326,1,100,2|2,0:2|0:2,0:0:0:0:
509,292,58669,2,0,P|497:209|459:146,1,150,0|2,0:2|0:2,0:0:0:0:
368,125,59740,1,2,0:2:0:0:
267,127,60169,5,2,0:2:0:0:
198,260,60811,2,0,P|247:272|296:268,2,100,0|0|0,0:2|0:2|0:2,0:0:0:0:
156,236,61883,2,0,P|84:228|37:283,2,150,2|0|2,0:2|0:2|0:2,0:0:0:0:
125,331,63597,5,2,0:2:0:0:
220,362,64026,2,0,L|347:348,1,100,2|2,0:2|0:2,0:0:0:0:
499,264,65311,1,2,0:2:0:0:
475,166,65740,2,0,L|488:31,2,100,0|2|2,0:2|0:2|0:2,0:0:0:0:
375,172,67026,5,2,0:2:0:0:
288,122,67454,2,0,B|240:114|240:114|190:128,2,100,2|2|2,0:2|0:2|0:0,0:0:0:0:
371,67,68740,1,2,0:2:0:0:
240,238,69597,1,2,0:2:0:0:
173,313,70026,1,0,0:2:0:0:
76,337,70454,5,2,0:0:0:0:
6,264,70883,2,0,L|-2:159,1,100,2|0,0:2|0:2,0:0:0:0:
60,85,71740,1,2,0:2:0:0:
160,88,72169,2,0,B|235:83|219:145|320:139,1,150,2|0,0:2|0:2,0:0:0:0:
344,128,73026,2,0,P|400:168|320:208,1,150,2|2,0:2|0:2,0:0:0:0:
320,248,73883,5,2,0:2:0:0:
224,216,74311,1,2,0:2:0:0:
198,312,74740,2,0,P|245:330|306:340,1,100,2|2,0:2|0:2,0:0:0:0:
393,339,75597,1,2,0:2:0:0:
443,253,76026,2,0,P|460:206|468:157,1,100,2|2,0:2|0:2,0:0:0:0:
437,116,76669,2,0,P|379:114|356:83,1,100,0|0,0:2|0:2,0:0:0:0:
359,33,77311,5,2,0:2:0:0:
256,144,77954,1,0,0:0:0:0:
248,192,78169,2,0,P|216:238|153:166,1,150,2|0,0:2|0:2,0:0:0:0:
147,147,79026,2,0,P|110:113|61:117,1,100,2|2,0:2|0:2,0:0:0:0:
22,210,79883,1,2,0:2:0:0:
57,303,80311,1,2,0:2:0:0:
153,330,80740,5,2,0:2:0:0:
323,225,81597,1,2,0:2:0:0:
235,177,82026,1,2,0:2:0:0:
159,241,82454,2,0,P|122:233|93:237,1,50,2|0,1:2|1:2,0:0:0:0:
63,251,82883,1,0,3:2:0:0:
28,155,83311,2,0,L|8:104,1,50,2|2,1:2|1:2,0:0:0:0:
27,61,83740,1,8,0:2:0:0:
128,64,84169,6,0,B|202:78|174:127|252:140,1,150,6|0,1:2|1:2,0:0:0:0:
303,137,85026,2,0,L|402:124,1,100,2|10,1:2|0:2,0:0:0:0:
408,224,85883,2,0,B|466:217|466:217|500:194,2,100,2|10|0,1:2|2:2|1:2,0:0:0:0:
312,232,87169,1,8,0:2:0:0:
230,286,87597,6,0,P|155:297|81:293,1,150,6|0,1:2|0:2,0:0:0:0:
33,282,88454,2,0,B|21:235|21:235|24:185|24:185|10:135,1,150,2|0,0:2|0:2,0:0:0:0:
33,90,89311,2,0,P|63:50|111:39,1,100,0|8,1:2|0:2,0:0:0:0:
190,99,90169,2,0,P|229:129|278:128,1,100,0|8,1:2|0:2,0:0:0:0:
365,76,91026,5,6,1:2:0:0:
419,162,91454,1,2,0:2:0:0:
333,215,91883,2,0,P|289:238|261:280,1,100,2|10,0:2|0:2,0:0:0:0:
357,313,92740,2,0,B|429:337|429:337|495:303,1,150,2|0,1:2|0:2,0:0:0:0:
500,253,93597,2,0,B|470:185|533:179|502:108,1,150,2|0,1:2|0:2,0:0:0:0:
490,59,94454,5,2,1:2:0:0:
296,104,95311,1,2,1:2:0:0:
256,192,95740,1,10,2:2:0:0:
160,224,96169,2,0,L|185:320,1,100,4|0,1:2|3:2,0:0:0:0:
155,359,96811,2,0,L|58:331,1,100,0|0,3:2|3:2,0:0:0:0:
10,319,97454,1,10,0:2:0:0:
54,232,97883,6,0,P|55:208|51:183,1,50,6|0,1:2|0:2,0:0:0:0:
33,135,98311,2,0,P|67:101|116:95,1,100,10|2,0:2|1:2,0:0:0:0:
216,105,99169,2,0,P|228:145|231:169,1,50,8|0,0:0|0:0,0:0:0:0:
236,202,99597,1,2,1:2:0:0:
270,295,100026,2,0,P|294:339|339:357,1,100,8|0,2:2|1:2,0:0:0:0:
439,344,100883,1,10,0:2:0:0:
426,245,101311,6,0,L|432:195,1,50,2|0,1:2|0:2,0:0:0:0:
467,158,101740,2,0,L|453:77,1,50,10|0,0:2|0:2,0:0:0:0:
451,59,102169,1,2,1:2:0:0:
356,27,102597,1,10,0:2:0:0:
256,56,103026,1,2,1:2:0:0:
295,143,103454,2,0,P|297:193|286:242,1,100,10|2,0:2|1:2,0:0:0:0:
224,320,104311,2,0,L|174:315,1,50,8|0,0:2|3:2,0:0:0:0:
125,306,104740,6,0,B|105:258|105:258|122:213,1,100,2|8,1:2|0:2,0:0:0:0:
193,142,105597,1,2,1:2:0:0:
122,72,106026,1,10,0:2:0:0:
52,143,106454,2,0,P|26:100|25:50,2,100,2|10|2,1:2|0:2|1:2,0:0:0:0:
123,213,107740,2,0,P|137:233|148:255,1,50,10|0,0:2|0:2,0:0:0:0:
144,304,108169,6,0,B|168:310|168:310|204:328|204:328|237:336,1,100,2|8,1:2|0:2,0:0:0:0:
312,272,109026,1,2,1:2:0:0:
320,176,109454,1,8,0:2:0:0:
416,183,109883,2,0,B|427:231|427:231|409:278,1,100,2|10,1:2|0:2,0:0:0:0:
353,362,110740,2,0,L|296:353,1,50,0|0,3:2|1:2,0:0:0:0:
256,336,111169,1,10,0:2:0:0:
158,358,111597,5,4,0:2:0:0:
71,303,112026,2,0,P|47:261|55:213,1,100,10|2,0:2|1:2,0:0:0:0:
155,202,112883,2,0,P|182:207|225:206,1,50,10|0,0:2|0:2,0:0:0:0:
252,194,113311,1,2,1:2:0:0:
342,243,113740,2,0,P|377:209|398:164,1,100,10|2,0:2|1:2,0:0:0:0:
441,137,114383,2,0,P|430:89|402:48,1,100,0|0,0:2|0:2,0:0:0:0:
355,29,115026,5,2,1:2:0:0:
256,48,115454,1,10,0:2:0:0:
184,120,115883,2,0,L|85:100,1,100,2|10,1:2|0:2,0:0:0:0:
0,161,116740,2,0,P|-3:211|8:259,1,100,2|10,1:2|0:2,0:0:0:0:
72,335,117597,2,0,P|115:311|164:302,1,100,2|10,1:2|0:2,0:0:0:0:
256,336,118454,5,6,1:2:0:0:
311,251,118883,2,0,B|337:253|362:247|362:247|381:265|402:272,1,100,10|2,0:2|1:2,0:0:0:0:
502,253,119740,1,10,0:2:0:0:
482,154,120169,1,2,1:2:0:0:
387,123,120597,2,0,L|378:23,1,100,10|2,1:2|1:2,0:0:0:0:
279,29,121454,2,0,L|288:128,1,100,10|2,0:2|1:2,0:0:0:0:
347,210,122311,6,0,L|339:309,1,100,10|2,0:2|1:2,0:0:0:0:
256,360,123169,1,10,0:2:0:0:
184,288,123597,2,0,P|136:276|89:292,1,100,2|8,1:2|0:2,0:0:0:0:
44,312,124240,2,0,L|25:213,1,100,0|0,3:2|3:2,0:0:0:0:
56,173,124883,1,10,3:2:0:0:
90,78,125311,5,2,1:2:0:0:
