osu file format v14

[General]
AudioFilename: audio.mp3
AudioLeadIn: 0
PreviewTime: 84061
Countdown: 0
SampleSet: Soft
StackLeniency: 1
Mode: 0
LetterboxInBreaks: 0
WidescreenStoryboard: 0

[Editor]
Bookmarks: 15597,29311,43026,56740,70454,84169,97883,111597,125311
DistanceSpacing: 1.5
BeatDivisor: 4
GridSize: 8
TimelineZoom: 1.4

[Metadata]
Title:Predawn
TitleUnicode:Predawn
Artist:NICODE & M2U
ArtistUnicode:NICODE & M2U
Creator:Sulfur
Version:Insane
Source:Cytus
Tags:Su1fu7 Finshie eiri- Ayyri JeirYagtama Deemo Rayark Farewell Knight Rosabell Collection Chapter K
BeatmapID:1577393
BeatmapSetID:748803

[Difficulty]
HPDrainRate:5
CircleSize:4
OverallDifficulty:7.5
ApproachRate:8.8
SliderMultiplier:1.6
SliderTickRate:1

[Events]
//Background and Video events
0,0,"66290905_p0.jpg",0,0
//Break Periods
//Storyboard Layer 0 (Background)
//Storyboard Layer 1 (Fail)
//Storyboard Layer 2 (Pass)
//Storyboard Layer 3 (Foreground)
//Storyboard Sound Samples

[TimingPoints]
169,428.571428571429,4,2,1,40,1,0
1883,-142.857142857143,4,2,1,40,0,0
10454,-111.111111111111,4,2,1,40,0,0
14633,-111.111111111111,4,2,1,20,0,0
14740,-142.857142857143,4,2,1,40,0,0
15383,-142.857142857143,4,2,1,20,0,0
15597,-111.111111111111,4,2,1,45,0,0
22454,-142.857142857143,4,2,1,45,0,0
23169,-142.857142857143,4,2,1,20,0,0
23240,-142.857142857143,4,2,1,45,0,0
24883,-142.857142857143,4,2,1,20,0,0
24954,-142.857142857143,4,2,1,45,0,0
26740,-58.8235294117647,4,2,1,45,0,0
26847,-58.8235294117647,4,2,1,5,0,0
27169,-58.8235294117647,4,2,1,45,0,0
27276,-58.8235294117647,4,2,1,5,0,0
27597,-83.3333333333333,4,2,1,50,0,0
28669,-66.6666666666667,4,2,1,50,0,0
28776,-66.6666666666667,4,2,1,20,0,0
28883,-66.6666666666667,4,2,1,45,0,0
29311,-58.8235294117647,4,2,1,65,0,1
40454,-52.6315789473684,4,2,1,65,0,1
42597,-58.8235294117647,4,2,1,65,0,0
43026,-58.8235294117647,4,2,1,65,0,1
54597,-52.6315789473684,4,2,1,65,0,1
55026,-47.6190476190476,4,2,1,65,0,1
56740,-100,4,2,1,45,0,0
68740,-83.3333333333333,4,2,1,45,0,0
69061,-100,4,2,1,45,0,0
69919,-100,4,2,1,20,0,0
70026,-83.3333333333333,4,2,1,45,0,0
70883,-100,4,2,1,45,0,0
73240,-125,4,2,1,45,0,0
73883,-100,4,2,1,50,0,0
79669,-100,4,2,1,20,0,0
79740,-100,4,2,1,45,0,0
82454,-71.4285714285714,4,2,1,45,0,0
83740,-100,4,2,1,45,0,0
84061,-100,4,2,1,20,0,0
84169,-100,4,2,1,55,0,0
86740,-83.3333333333333,4,2,1,55,0,0
90597,-71.4285714285714,4,2,1,55,0,0
91026,-71.4285714285714,4,2,1,55,0,0
91454,-43.4782608695652,4,2,1,55,0,0
91669,-43.4782608695652,4,2,1,20,0,0
91883,-66.6666666666667,4,2,1,55,0,0
95311,-50,4,2,1,55,0,0
97454,-58.8235294117647,4,2,1,55,0,0
97883,-58.8235294117647,4,2,1,65,0,1
111169,-58.8235294117647,4,2,1,65,0,0
111383,-58.8235294117647,4,2,1,65,0,0
111597,-45.4545454545455,4,2,1,65,0,1
111919,-45.4545454545455,4,2,1,20,0,1
112026,-50,4,2,1,65,0,1
123597,-83.3333333333333,4,2,1,65,0,1
124883,-142.857142857143,4,2,1,65,0,0
125311,612.244897959184,4,2,1,40,1,0
125923,618.556701030928,4,2,1,40,1,0
126232,800,4,2,1,40,1,0
126632,681.818181818182,4,2,1,40,1,0
127313,705.882352941176,4,2,1,40,1,0
127665,740.740740740741,4,2,1,40,1,0
128035,800,4,2,1,40,1,0
128835,821.917808219178,4,2,1,40,1,0
129245,1071.42857142857,4,2,1,40,1,0

[Colours]
Combo1 : 140,140,255
Combo2 : 255,128,255
Combo3 : 255,255,128
Combo4 : 84,169,169

[HitObjects]
99,222,1811,5,0,0:2:0:0:
109,230,1883,2,0,P|160:247|188:244,1,55.9999982910157,2|0,0:2|0:2,0:2:0:0:
236,353,2311,2,0,P|245:326|247:298,1,55.9999982910157,2|0,0:2|0:2,0:2:0:0:
222,50,2954,1,0,0:2:0:0:
310,115,3169,1,2,0:2:0:0:
305,131,3526,1,0,0:2:0:0:
304,146,3597,6,0,P|314:198|331:221,1,55.9999982910157,2|0,0:2|0:2,0:2:0:0:
415,178,4026,2,0,P|404:125|387:102,1,55.9999982910157,2|0,0:2|0:2,0:2:0:0:
222,305,4669,1,2,0:2:0:0:
139,331,4883,1,0,0:2:0:0:
88,261,5097,1,0,0:2:0:0:
190,171,5311,6,0,P|159:186|116:189,1,55.9999982910157,2|0,0:2|0:2,0:2:0:0:
52,182,5740,1,0,0:2:0:0:
1,112,5954,1,2,0:2:0:0:
52,182,6597,1,2,0:2:0:0:
138,190,6811,1,0,0:2:0:0:
235,101,7026,6,0,P|220:124|215:152,1,55.9999982910157,2|0,0:2|0:2,0:2:0:0:
209,237,7454,1,0,0:2:0:0:
225,320,7669,1,2,0:2:0:0:
471,214,8526,1,0,0:2:0:0:
427,287,8740,6,0,L|291:279,1,111.999996582031,2|0,0:2|0:2,0:2:0:0:
271,353,9383,1,0,0:2:0:0:
315,259,9597,1,2,0:2:0:0:
168,354,9811,1,2,0:2:0:0:
115,265,10026,1,2,0:2:0:0:
113,161,10240,2,0,P|129:143|140:132,1,27.9999991455078,0|0,0:2|0:2,0:2:0:0:
148,139,10454,6,0,P|106:156|66:162,1,71.9999978027344,2|0,0:2|0:2,0:2:0:0:
153,57,10883,1,2,0:2:0:0:
153,57,11097,1,0,0:2:0:0:
231,121,11311,2,0,P|229:157|219:192,1,71.9999978027344,2|0,0:2|0:2,0:2:0:0:
251,27,11740,1,2,0:2:0:0:
369,56,11954,2,0,P|364:88|360:104,1,35.9999989013672,0|0,0:2|0:2,0:2:0:0:
340,107,12169,6,0,P|351:72|370:42,1,71.9999978027344,2|0,0:2|0:2,0:2:0:0:
464,81,12597,2,0,P|483:50|494:16,2,71.9999978027344,2|0|0,0:2|0:2|0:2,0:2:0:0:
462,204,13240,1,0,0:2:0:0:
404,267,13454,2,0,L|331:271,1,71.9999978027344,2|0,0:2|0:2,0:2:0:0:
216,368,13883,6,0,P|243:297|115:302,1,251.999992309571,2|0,0:2|0:2,0:2:0:0:
109,309,14740,2,0,P|133:203|110:150,1,167.999994873047,2|0,0:2|0:2,0:2:0:0:
216,8,15597,6,0,P|194:64|195:90,1,71.9999978027344,2|0,1:2|0:2,0:2:0:0:
82,88,16026,2,0,P|102:118|111:153,1,71.9999978027344,0|0,0:2|0:2,0:2:0:0:
94,252,16454,1,2,0:2:0:0:
266,276,16883,2,0,L|181:266,1,71.9999978027344,0|0,0:2|0:2,0:2:0:0:
343,208,17311,6,0,P|365:248|369:279,1,71.9999978027344,2|0,0:2|0:2,0:2:0:0:
488,151,17740,2,0,P|466:191|462:222,1,71.9999978027344,0|0,0:2|0:2,0:2:0:0:
483,355,18169,2,0,P|407:315|341:347,1,143.999995605469,2|0,0:2|0:2,0:2:0:0:
262,138,19026,5,2,0:2:0:0:
254,154,19454,2,0,P|209:166|166:162,1,71.9999978027344,2|0,0:2|0:2,0:2:0:0:
109,236,19883,1,2,0:2:0:0:
78,62,20311,2,0,B|90:99|82:134,1,71.9999978027344,2|0,0:2|0:2,0:2:0:0:
8,207,20740,6,0,L|93:221,1,71.9999978027344,2|0,0:2|0:2,0:2:0:0:
201,293,21169,2,0,L|130:305,1,71.9999978027344,0|0,0:2|0:2,0:2:0:0:
302,361,21597,2,0,P|303:316|316:287,1,71.9999978027344,2|0,0:2|0:2,0:2:0:0:
423,174,22026,2,0,P|388:180|358:199,1,71.9999978027344,0|0,0:2|0:2,0:2:0:0:
441,296,22454,6,0,P|437:211|352:210,1,186.666660970052,2|0,0:2|0:2,0:2:0:0:
345,221,23240,2,0,L|314:214,1,18.6666660970052,2|2,0:2|0:2,0:2:0:0:
256,28,23740,1,0,0:2:0:0:
208,106,23954,1,0,0:2:0:0:
77,52,24169,6,0,P|102:85|117:125,1,83.9999974365235,2|0,0:2|0:2,0:2:0:0:
114,140,24597,2,0,P|123:204|132:224,1,74.6666643880209,0|0,0:2|0:2,0:2:0:0:
137,222,24954,2,0,L|168:215,1,18.6666660970052,2|2,0:2|0:2,0:2:0:0:
334,341,25454,1,0,0:2:0:0:
306,260,25669,1,0,0:2:0:0:
428,262,25883,5,2,0:0:0:0:
456,52,26311,1,0,0:2:0:0:
392,132,26526,1,0,0:2:0:0:
392,132,26633,1,0,0:2:0:0:
392,132,26740,6,0,L|312:124,1,68.0000012969971,2|0,2:2|0:2,0:2:0:0:
64,44,27169,6,0,L|144:36,1,68.0000012969971,2|0,0:2|0:2,0:2:0:0:
198,261,27597,6,0,P|154:227|99:236,1,95.9999970703126,2|0,3:2|0:2,0:2:0:0:
90,244,27919,1,0,3:2:0:0:
68,259,28026,2,0,L|20:252,1,47.9999985351563,0|0,3:2|3:2,3:2:0:0:
146,352,28240,2,0,L|98:358,1,47.9999985351563,0|0,3:2|3:2,3:2:0:0:
295,339,28454,2,0,L|247:332,1,47.9999985351563,2|0,3:2|3:2,3:2:0:0:
412,305,28669,2,0,P|423:273|419:231,1,60.0000022888184,0|0,1:2|0:2,3:2:0:0:
348,99,28883,2,2,P|309:173|258:167,1,120.000004577637,8|0,3:2|0:2,3:2:0:0:
181,158,29204,1,2,2:2:0:0:
156,193,29311,6,0,B|51:218|51:218|79:173,1,136.000002593994,6|0,1:2|0:2,0:2:0:0:
205,55,29740,1,2,1:2:0:0:
229,266,29954,1,0,0:2:0:0:
386,73,30169,2,0,P|456:80|507:125,1,136.000002593994,2|0,1:2|0:2,0:2:0:0:
483,342,30597,1,2,1:2:0:0:
416,172,30811,1,0,0:2:0:0:
277,345,31026,6,0,L|141:334,1,136.000002593994,2|0,1:2|0:0,0:0:0:0:
0,208,31454,1,2,1:2:0:0:
19,179,31561,1,0,0:2:0:0:
46,160,31668,1,0,0:2:0:0:
79,152,31775,1,0,0:2:0:0:
112,152,31883,2,0,P|160:108|159:42,2,136.000002593994,0|0|0,1:2|0:2|1:2,0:0:0:0:
42,55,32526,1,0,0:2:0:0:
112,277,32740,5,2,1:2:0:0:
259,143,32954,1,0,0:2:0:0:
90,282,33169,1,2,1:2:0:0:
292,243,33383,1,0,0:2:0:0:
69,288,33597,1,2,1:2:0:0:
270,357,33811,1,0,0:2:0:0:
418,256,34026,1,2,1:2:0:0:
419,222,34133,1,0,0:2:0:0:
410,189,34240,1,0,0:2:0:0:
175,274,34454,6,0,P|109:278|52:242,1,136.000002593994,2|0,1:2|0:2,0:0:0:0:
12,26,34883,2,0,B|64:64|64:64|135:47,1,136.000002593994,2|0,1:2|0:2,0:2:0:0:
372,9,35311,1,2,1:2:0:0:
230,96,35526,1,0,3:2:0:0:
285,189,35740,1,0,1:2:0:0:
256,292,35954,1,0,3:2:0:0:
456,360,36169,5,6,1:2:0:0:
392,216,36383,1,0,0:2:0:0:
389,192,36490,1,0,0:2:0:0:
396,171,36597,1,0,1:2:0:0:
512,272,36811,1,0,0:2:0:0:
284,345,37026,2,0,L|142:330,1,136.000002593994,2|0,1:2|0:2,0:2:0:0:
65,324,37347,1,0,0:2:0:0:
65,324,37454,1,0,1:2:0:0:
110,176,37669,1,0,0:2:0:0:
312,197,37883,6,0,P|365:146|365:57,1,136.000002593994,2|0,1:2|0:2,0:2:0:0:
289,37,38204,1,0,0:2:0:0:
275,42,38311,2,0,P|222:93|222:182,1,136.000002593994,2|0,1:2|0:2,0:2:0:0:
226,255,38633,1,0,0:2:0:0:
227,283,38740,2,0,P|291:318|375:297,1,136.000002593994,2|0,1:2|0:2,0:2:0:0:
424,268,39061,1,0,0:2:0:0:
424,268,39169,1,2,1:2:0:0:
424,116,39383,1,0,0:2:0:0:
497,311,39597,5,2,1:2:0:0:
349,222,39811,1,0,0:2:0:0:
326,228,39918,1,0,0:2:0:0:
303,234,40025,1,0,1:2:0:0:
160,341,40240,1,0,0:2:0:0:
137,321,40347,1,0,0:2:0:0:
112,297,40454,2,0,B|99:250|99:250|110:198|110:198|96:149,1,151.999995941162,2|0,1:2|0:2,0:2:0:0:
82,56,40776,1,0,0:2:0:0:
102,32,40883,2,0,P|158:8|238:56,1,151.999995941162,2|0,1:2|0:2,0:2:0:0:
258,167,41204,1,0,0:2:0:0:
302,169,41311,6,0,B|368:122|383:176|446:134,1,151.999995941162,2|0,1:2|0:2,0:2:0:0:
512,62,41633,1,0,0:2:0:0:
512,62,41740,1,2,1:2:0:0:
460,244,41954,1,0,0:2:0:0:
229,85,42169,2,0,P|178:138|185:212,1,151.999995941162,2|0,1:2|0:2,0:2:0:0:
342,285,42597,1,2,1:2:0:0:
227,328,42811,1,0,0:2:0:0:
377,104,43026,5,6,1:2:0:0:
408,322,43240,1,0,0:2:0:0:
258,167,43454,1,2,1:2:0:0:
470,203,43668,1,0,0:2:0:0:
256,360,43883,2,0,L|81:342,1,136.000002593994,2|0,1:2|0:2,0:2:0:0:
140,150,44311,1,2,1:2:0:0:
2,269,44526,1,0,0:2:0:0:
75,73,44740,6,0,P|150:49|219:86,1,136.000002593994,2|0,1:2|0:2,0:2:0:0:
342,285,45169,1,2,1:2:0:0:
364,259,45276,1,0,0:2:0:0:
378,228,45383,1,0,0:2:0:0:
380,195,45490,1,0,0:2:0:0:
372,162,45597,2,0,B|389:10,2,136.000002593994,0|0|0,1:2|0:2|1:2,0:2:0:0:
278,90,46240,1,0,0:2:0:0:
478,130,46454,5,2,1:2:0:0:
278,204,46669,1,0,0:2:0:0:
478,244,46883,1,2,1:2:0:0:
278,318,47098,1,0,0:2:0:0:
242,86,47311,1,2,1:2:0:0:
353,260,47526,1,0,0:2:0:0:
308,72,47740,1,2,1:2:0:0:
275,82,47847,1,0,0:2:0:0:
242,86,47954,1,0,0:2:0:0:
208,83,48061,1,0,0:2:0:0:
175,72,48169,6,0,P|112:64|40:128,1,136.000002593994,2|0,1:2|0:2,0:2:0:0:
95,280,48597,1,2,1:2:0:0:
239,216,48811,1,0,0:2:0:0:
403,358,49026,1,2,1:2:0:0:
229,342,49240,1,0,3:2:0:0:
216,232,49455,1,2,1:2:0:0:
326,219,49669,1,0,3:2:0:0:
360,0,49883,5,6,1:2:0:0:
209,121,50097,1,0,0:2:0:0:
183,128,50204,1,0,0:2:0:0:
156,124,50311,1,0,1:2:0:0:
8,40,50526,1,0,0:2:0:0:
9,229,50740,2,0,P|92:253|123:300,1,136.000002593994,2|0,1:2|0:2,0:2:0:0:
147,374,51061,1,0,0:2:0:0:
147,374,51169,1,2,1:2:0:0:
326,335,51383,1,0,0:2:0:0:
344,131,51597,6,0,L|204:120,1,136.000002593994,2|0,1:2|0:2,0:2:0:0:
217,34,51919,1,0,0:2:0:0:
242,37,52026,2,0,L|377:47,1,136.000002593994,2|0,1:2|0:2,0:2:0:0:
433,118,52347,1,0,0:2:0:0:
455,150,52454,2,0,P|433:229|377:248,1,136.000002593994,2|0,1:2|0:2,0:2:0:0:
297,230,52776,1,0,0:2:0:0:
297,230,52883,1,2,1:2:0:0:
160,220,53097,1,0,0:2:0:0:
5,355,53311,5,2,1:2:0:0:
0,152,53526,1,0,0:2:0:0:
8,179,53633,1,0,0:2:0:0:
15,209,53740,1,0,1:2:0:0:
150,366,53954,1,0,0:2:0:0:
99,94,54169,2,0,P|158:66|218:95,1,136.000002593994,2|0,1:2|0:2,0:2:0:0:
253,196,54490,1,0,0:2:0:0:
262,216,54597,2,0,L|438:184,1,151.999995941162,2|0,1:2|0:2,0:2:0:0:
485,83,54919,1,0,0:2:0:0:
501,109,55026,6,0,B|488:164|488:164|451:204|451:204|434:274,1,167.999994873047,2|0,1:2|0:2,0:2:0:0:
353,357,55347,1,0,0:2:0:0:
320,360,55454,1,2,1:2:0:0:
135,340,55669,1,0,0:2:0:0:
256,80,55883,1,6,0:2:0:0:
256,96,56669,1,0,0:2:0:0:
249,106,56740,6,0,P|216:120|158:127,1,80,2|0,0:2|0:2,0:2:0:0:
140,160,57061,2,0,P|139:129|131:105,2,40,0|2|0,0:2|0:2|0:2,0:2:0:0:
133,180,57383,1,0,0:2:0:0:
127,197,57490,1,0,0:2:0:0:
119,213,57597,2,0,P|109:268|166:309,1,120,2|0,0:2|0:2,0:2:0:0:
198,296,58026,1,2,0:2:0:0:
217,299,58133,1,0,0:2:0:0:
236,304,58240,1,0,0:2:0:0:
254,312,58347,1,0,0:2:0:0:
270,323,58454,5,2,0:2:0:0:
392,312,58669,1,0,0:2:0:0:
396,303,58776,1,0,0:2:0:0:
401,292,58883,1,2,0:2:0:0:
353,182,59097,1,0,0:2:0:0:
343,183,59204,1,0,0:2:0:0:
331,184,59311,1,2,0:2:0:0:
221,135,59526,1,0,0:2:0:0:
215,127,59633,1,0,0:2:0:0:
208,117,59740,5,2,0:2:0:0:
221,84,59847,1,0,0:2:0:0:
234,69,59954,1,0,0:2:0:0:
250,57,60061,1,0,0:2:0:0:
269,51,60168,1,2,0:2:0:0:
289,49,60275,1,0,0:2:0:0:
308,52,60383,2,0,P|374:71|401:64,1,80,0|0,0:2|0:2,0:2:0:0:
483,34,60811,1,0,0:2:0:0:
483,34,60919,1,0,0:2:0:0:
483,34,61026,1,2,0:2:0:0:
464,138,61239,1,0,0:2:0:0:
464,138,61347,1,0,0:2:0:0:
464,138,61454,1,2,0:2:0:0:
445,242,61668,1,0,0:2:0:0:
445,242,61776,1,0,0:2:0:0:
444,242,61883,6,0,P|416:269|377:278,1,80,2|0,0:2|0:2,0:2:0:0:
280,281,62311,1,2,0:2:0:0:
192,360,62526,1,0,0:2:0:0:
192,360,62633,1,0,0:2:0:0:
192,360,62740,2,0,L|196:308,1,40,2|0,0:2|0:2,0:2:0:0:
155,263,62954,1,0,0:2:0:0:
149,257,63061,1,0,0:2:0:0:
143,250,63168,2,0,L|139:198,1,40,2|0,0:2|0:2,0:2:0:0:
218,134,63383,2,0,L|222:174,1,40,0|0,0:2|0:2,0:2:0:0:
280,73,63597,5,2,0:2:0:0:
165,18,63811,1,0,0:2:0:0:
153,22,63919,1,0,0:2:0:0:
142,26,64026,1,2,0:2:0:0:
131,31,64133,1,0,0:2:0:0:
103,29,64240,1,0,0:2:0:0:
91,39,64347,1,0,0:2:0:0:
82,52,64454,2,0,P|81:100|-17:168,1,160,2|0,0:2|0:2,0:2:0:0:
121,254,65204,1,0,0:2:0:0:
131,237,65311,6,0,P|228:220|272:272,1,160,2|0,0:2|0:2,0:2:0:0:
275,288,65847,1,0,0:2:0:0:
272,303,65954,1,0,0:2:0:0:
274,318,66061,1,0,0:2:0:0:
280,332,66169,2,0,L|373:328,1,80,2|0,0:2|0:2,0:2:0:0:
180,364,66597,2,0,L|100:360,1,80,2|0,0:2|0:2,0:2:0:0:
15,222,67026,6,0,P|66:257|102:248,1,80,2|0,0:2|0:2,0:2:0:0:
110,231,67347,1,0,0:2:0:0:
124,220,67454,1,2,0:2:0:0:
141,212,67561,1,0,0:2:0:0:
177,223,67669,1,0,0:2:0:0:
195,227,67776,1,0,0:2:0:0:
214,230,67883,1,2,0:2:0:0:
208,72,68097,2,0,L|209:32,2,40,0|0|2,0:0|0:0|0:0,0:0:0:0:
186,71,68418,1,0,0:0:0:0:
166,77,68526,1,0,0:2:0:0:
148,87,68633,1,0,0:2:0:0:
130,103,68740,6,0,L|125:201,1,95.9999970703126,2|0,0:2|0:2,0:2:0:0:
208,283,69097,6,0,L|197:258,1,26.6666666666667,2|2,0:2|0:2,0:2:0:0:
359,277,69383,5,0,0:2:0:0:
361,264,69490,1,0,0:2:0:0:
367,249,69597,2,0,B|395:218|451:220|451:220|442:231|419:250,1,120,2|0,0:2|0:2,0:2:0:0:
424,249,70026,2,0,P|430:317|503:378,1,143.999995605469,0|0,0:2|0:2,0:2:0:0:
480,369,70454,5,2,0:0:0:0:
246,281,70883,2,0,P|183:289|145:324,1,80,2|0,0:2|0:2,0:2:0:0:
110,376,71311,1,0,0:2:0:0:
0,231,71740,1,2,0:2:0:0:
6,212,71847,1,0,0:2:0:0:
13,193,71954,1,0,0:2:0:0:
19,174,72061,1,0,0:2:0:0:
26,155,72169,6,0,L|19:64,1,80,2|0,0:2|0:2,0:2:0:0:
124,105,72597,2,0,L|130:25,1,80,2|0,0:2|0:2,0:2:0:0:
191,182,73026,1,2,0:2:0:0:
266,115,73240,2,0,L|312:120,1,32,0|0,0:2|0:2,0:2:0:0:
327,135,73454,2,0,L|368:128,1,32,0|0,0:2|0:2,0:2:0:0:
390,117,73669,1,2,0:2:0:0:
336,253,73883,6,0,P|335:312|367:361,1,120,2|0,0:2|0:2,0:2:0:0:
389,370,74311,1,2,0:2:0:0:
433,282,74526,1,0,0:2:0:0:
306,249,74740,1,2,0:2:0:0:
358,169,74954,1,0,0:2:0:0:
358,169,75061,1,0,0:2:0:0:
358,169,75169,1,2,0:2:0:0:
226,197,75383,2,0,P|185:219|172:241,1,53.3333333333333
167,235,75597,6,0,P|146:157|163:108,1,120,2|0,0:2|0:2,0:2:0:0:
172,103,76026,1,2,0:2:0:0:
262,57,76240,1,0,0:2:0:0:
126,13,76454,1,2,0:2:0:0:
256,157,76669,1,0,0:2:0:0:
275,163,76776,1,0,0:2:0:0:
290,167,76883,1,2,0:0:0:0:
305,172,76990,1,0,0:0:0:0:
313,198,77097,1,0,0:2:0:0:
311,217,77204,1,0,0:2:0:0:
309,236,77311,6,0,B|299:347|299:347|332:304,1,160,2|0,0:2|0:2,0:2:0:0:
156,235,77954,1,0,0:0:0:0:
137,240,78061,1,0,0:0:0:0:
121,249,78169,1,2,0:2:0:0:
18,231,78383,1,0,0:2:0:0:
3,130,78597,1,2,0:2:0:0:
94,84,78811,1,0,0:2:0:0:
241,144,79026,6,0,P|204:157|165:154,1,80,2|0,0:2|0:2,0:2:0:0:
232,43,79454,2,0,P|269:29|308:33,1,80,2|0,0:2|0:2,0:2:0:0:
322,52,79740,2,0,L|357:49,1,26.6666666666667,2|2,0:2|0:2,0:2:0:0:
362,48,79883,1,2,0:2:0:0:
400,353,80311,1,2,0:2:0:0:
398,252,80526,1,0,0:2:0:0:
327,179,80740,6,0,B|244:169|260:230|177:221,1,160,2|0,0:2|0:2,0:2:0:0:
144,209,81276,1,0,0:2:0:0:
130,216,81383,1,0,0:2:0:0:
117,226,81490,1,0,0:2:0:0:
110,240,81597,1,2,0:2:0:0:
23,47,81919,1,0,0:2:0:0:
30,56,82026,2,0,P|50:63|78:72,1,40,2|0,0:2|0:2,0:2:0:0:
152,98,82240,1,0,3:2:0:0:
175,101,82347,1,0,3:2:0:0:
198,105,82454,6,0,L|212:50,1,55.9999982910157,2|0,1:2|0:2,0:2:0:0:
363,67,82669,1,0,1:2:0:0:
363,67,82776,1,0,1:2:0:0:
363,67,82883,2,0,L|324:28,1,55.9999982910157,0|0,3:2|0:2,0:2:0:0:
272,189,83097,2,0,L|327:175,1,55.9999982910157,0|0,1:2|1:2,0:2:0:0:
190,227,83311,1,2,1:2:0:0:
199,254,83419,1,0,1:2:0:0:
171,290,83526,1,2,1:2:0:0:
180,317,83634,1,0,1:2:0:0:
176,352,83740,2,2,B|214:341|214:341|257:346|257:346|303:334,1,120,8|0,0:2|0:2,0:2:0:0:
292,336,84169,5,6,1:2:0:0:
470,222,84383,1,0,0:2:0:0:
456,220,84490,1,0,0:2:0:0:
442,218,84597,1,10,0:2:0:0:
256,112,84811,1,0,1:2:0:0:
403,305,85026,1,2,1:2:0:0:
256,208,85240,1,0,0:2:0:0:
242,210,85347,1,0,0:2:0:0:
228,212,85454,1,10,0:2:0:0:
67,281,85669,1,0,1:2:0:0:
12,81,85883,5,2,1:2:0:0:
126,156,86097,1,0,0:2:0:0:
140,154,86204,1,0,0:2:0:0:
160,136,86312,1,10,2:2:0:0:
172,109,86419,1,0,0:2:0:0:
193,87,86526,1,0,0:2:0:0:
220,73,86633,1,0,0:2:0:0:
249,68,86740,2,0,L|345:52,1,95.9999970703126,0|0,1:2|0:2,0:2:0:0:
388,218,87169,2,0,L|293:202,1,95.9999970703126,8|0,0:2|0:2,0:2:0:0:
480,72,87597,5,6,1:2:0:0:
496,168,87811,1,0,0:2:0:0:
488,176,87919,1,0,0:2:0:0:
480,184,88026,1,2,0:2:0:0:
440,340,88240,1,0,0:2:0:0:
330,342,88454,1,2,0:2:0:0:
222,340,88668,1,0,0:2:0:0:
78,254,88883,1,2,0:2:0:0:
204,232,89097,1,0,0:2:0:0:
376,68,89311,5,0,1:2:0:0:
312,256,89526,1,0,1:2:0:0:
182,106,89740,1,8,0:2:0:0:
400,176,89954,1,0,1:2:0:0:
427,168,90061,1,0,1:2:0:0:
450,162,90169,2,0,L|504:176,1,47.9999985351563,0|0,1:2|0:2,0:2:0:0:
512,296,90383,2,0,L|465:283,1,47.9999985351563,0|0,0:2|0:2,0:2:0:0:
305,340,90597,2,0,L|362:325,1,55.9999982910157,8|0,0:2|0:2,0:2:0:0:
256,241,90811,2,0,L|192:223,1,55.9999982910157,0|0,0:2|0:2,0:2:0:0:
116,40,91026,6,0,P|103:88|107:163,1,111.999996582031,6|0,1:2|0:2,0:2:0:0:
112,175,91347,1,2,0:2:0:0:
116,163,91454,6,0,P|112:112|-13:122,1,184.000003509522,2|0,0:2|0:2,0:2:0:0:
209,320,91883,1,2,0:2:0:0:
363,297,92097,1,0,0:2:0:0:
494,166,92311,1,10,0:2:0:0:
340,143,92526,1,0,0:2:0:0:
209,320,92740,5,2,1:2:0:0:
178,326,92847,1,0,0:2:0:0:
148,333,92954,1,0,0:2:0:0:
111,319,93061,1,0,0:2:0:0:
84,288,93168,1,10,0:2:0:0:
76,250,93275,1,0,0:2:0:0:
88,213,93383,1,0,0:2:0:0:
116,179,93490,1,0,0:2:0:0:
125,139,93597,1,2,1:2:0:0:
112,99,93705,1,0,0:2:0:0:
71,60,93811,2,0,L|58:0,2,40.000001525879,2|2|0,0:2|0:2|0:2,0:2:0:0:
140,28,94026,1,10,0:2:0:0:
168,35,94133,1,0,0:2:0:0:
197,41,94240,1,0,0:2:0:0:
226,36,94347,1,0,0:2:0:0:
255,28,94454,6,0,P|324:54|314:127,1,120.000004577637,2|0,1:2|0:2,0:2:0:0:
216,264,94883,2,0,L|335:249,1,120.000004577637,8|0,0:2|0:2,0:2:0:0:
352,246,95204,1,0,0:2:0:0:
384,272,95311,6,0,L|364:370,1,80,2|0,1:2|0:2,0:2:0:0:
98,193,95740,6,0,L|78:95,1,80,10|0,2:2|0:2,0:2:0:0:
1,354,96169,5,4,1:2:0:0:
101,342,96383,1,0,3:2:0:0:
105,339,96490,1,0,3:2:0:0:
110,336,96597,1,0,3:2:0:0:
242,361,96811,1,0,3:2:0:0:
238,358,96918,1,0,3:2:0:0:
225,347,97025,1,0,3:2:0:0:
228,342,97133,1,0,3:2:0:0:
231,337,97240,1,0,3:2:0:0:
235,332,97347,1,0,3:2:0:0:
250,303,97454,2,2,L|230:226,1,68.0000012969971,10|0,0:2|0:2,0:2:0:0:
327,166,97669,2,2,L|347:89,1,68.0000012969971,2|0,3:2|0:2,0:2:0:0:
512,250,97883,6,0,P|467:285|405:263,1,136.000002593994,6|0,1:2|0:2,0:2:0:0:
204,103,98311,1,10,0:2:0:0:
257,334,98526,1,0,0:2:0:0:
54,173,98740,2,0,P|29:96|68:35,1,136.000002593994,2|0,1:2|0:2,0:2:0:0:
294,97,99169,1,8,0:0:0:0:
153,257,99383,1,0,0:0:0:0:
370,364,99597,6,0,L|568:355,1,136.000002593994,2|0,1:2|0:2,0:2:0:0:
404,155,100026,1,8,2:2:0:0:
378,127,100133,1,0,0:2:0:0:
346,108,100240,1,0,0:2:0:0:
309,101,100347,1,0,0:2:0:0:
272,104,100454,2,0,B|205:82|213:145|126:115,1,136.000002593994,0|0,1:2|0:2,0:2:0:0:
23,269,100883,1,10,0:2:0:0:
48,96,101097,1,0,0:2:0:0:
284,223,101311,5,2,1:2:0:0:
36,183,101526,1,0,0:2:0:0:
315,122,101740,1,10,0:2:0:0:
67,188,101954,1,0,0:2:0:0:
252,334,102169,1,2,1:2:0:0:
98,193,102383,1,0,0:2:0:0:
241,108,102597,1,10,0:2:0:0:
278,115,102704,1,0,0:2:0:0:
315,122,102811,1,0,0:2:0:0:
352,129,102919,1,0,0:2:0:0:
389,134,103026,6,0,P|443:99|441:34,1,136.000002593994,2|0,1:2|0:2,0:2:0:0:
199,33,103454,1,10,0:2:0:0:
95,121,103669,1,0,0:2:0:0:
119,255,103883,1,2,1:2:0:0:
56,336,104097,1,0,3:2:0:0:
152,370,104312,1,8,0:2:0:0:
215,289,104526,1,0,3:2:0:0:
432,304,104740,5,2,1:2:0:0:
285,186,104954,1,0,0:2:0:0:
278,167,105061,1,0,0:2:0:0:
278,147,105168,1,8,0:2:0:0:
414,35,105383,1,0,0:2:0:0:
403,249,105597,2,0,P|317:318|243:306,1,136.000002593994,2|0,1:2|0:2,0:2:0:0:
215,292,105919,1,0,0:2:0:0:
215,292,106026,1,10,0:2:0:0:
16,355,106240,1,0,0:2:0:0:
8,150,106454,6,0,P|44:99|149:99,1,136.000002593994,2|0,1:2|0:2,0:2:0:0:
199,164,106776,1,0,0:2:0:0:
224,182,106883,2,0,P|301:182|351:123,1,136.000002593994,10|0,0:2|0:2,0:2:0:0:
352,4,107204,1,0,0:2:0:0:
361,37,107311,2,0,B|375:137|375:137|431:82,1,136.000002593994,2|0,1:2|0:2,0:2:0:0:
492,24,107633,1,0,0:2:0:0:
492,24,107740,1,10,0:2:0:0:
502,215,107954,1,0,0:2:0:0:
270,196,108169,5,2,1:2:0:0:
397,353,108383,1,0,0:2:0:0:
429,345,108490,1,0,0:2:0:0:
462,336,108597,1,8,0:2:0:0:
387,153,108811,1,0,0:2:0:0:
179,284,109026,2,0,B|8:255,1,136.000002593994,2|2,1:2|0:2,0:2:0:0:
0,162,109347,1,0,0:2:0:0:
3,138,109454,2,0,P|74:77|143:111,1,136.000002593994,8|0,0:2|0:2,0:2:0:0:
192,160,109776,1,0,0:2:0:0:
203,170,109883,6,0,L|301:148,1,68.0000012969971,2|0,1:2|0:2,0:2:0:0:
400,195,110097,1,0,3:2:0:0:
393,208,110204,1,0,3:2:0:0:
386,221,110311,2,0,L|307:238,1,68.0000012969971,10|0,0:2|0:2,0:2:0:0:
190,325,110526,1,0,3:2:0:0:
207,336,110633,1,0,3:2:0:0:
226,348,110740,2,0,L|303:329,1,68.0000012969971,0|0,3:2|0:2,0:2:0:0:
443,367,110954,1,0,1:2:0:0:
458,339,111061,1,0,1:2:0:0:
474,311,111169,2,0,B|479:263|479:263|499:217|499:217|516:138,1,136.000002593994,10|0,0:2|0:2,0:2:0:0:
453,36,111490,1,2,0:2:0:0:
424,48,111597,6,2,B|294:28|322:133|183:133,1,264.000008056641,4|0,0:2|0:2,0:2:0:0:
72,136,112026,1,10,0:2:0:0:
107,120,112133,1,0,0:2:0:0:
145,131,112240,1,0,0:2:0:0:
166,164,112347,1,0,0:2:0:0:
171,203,112454,2,0,P|151:280|51:317,1,160,2|0,1:2|0:2,0:2:0:0:
316,212,112883,1,10,0:2:0:0:
348,206,112990,1,0,0:2:0:0:
381,201,113097,1,0,0:2:0:0:
413,196,113204,1,0,0:2:0:0:
446,192,113311,6,0,B|478:120|478:120|446:8,1,160,2|0,1:2|0:2,0:2:0:0:
232,112,113740,1,10,0:2:0:0:
302,335,113954,1,0,0:2:0:0:
357,108,114169,1,2,1:2:0:0:
152,177,114383,1,0,0:2:0:0:
135,199,114490,1,0,0:2:0:0:
123,222,114597,1,10,0:2:0:0:
117,248,114704,1,0,0:2:0:0:
115,290,114811,1,0,0:2:0:0:
83,269,114918,1,0,0:2:0:0:
49,248,115026,6,0,L|12:90,1,160,2|0,1:2|0:2,0:2:0:0:
56,17,115347,1,0,0:2:0:0:
56,17,115454,1,10,0:2:0:0:
254,16,115669,1,0,0:2:0:0:
214,252,115883,1,2,1:2:0:0:
352,141,116097,1,0,0:2:0:0:
375,134,116204,1,0,0:2:0:0:
398,128,116311,2,0,P|439:128|486:146,1,80,10|0,0:2|0:2,0:2:0:0:
472,272,116526,1,0,0:2:0:0:
464,296,116633,1,0,0:2:0:0:
456,328,116740,5,2,1:2:0:0:
418,315,116848,1,0,0:2:0:0:
378,316,116955,1,0,0:2:0:0:
341,330,117062,1,0,0:2:0:0:
304,360,117169,1,10,0:2:0:0:
266,345,117276,1,0,0:2:0:0:
229,330,117383,2,0,L|148:343,1,80,0|0,0:2|0:2,0:2:0:0:
22,369,117597,1,2,1:2:0:0:
60,373,117704,1,0,0:2:0:0:
94,352,117811,1,0,0:2:0:0:
106,315,117918,1,0,0:2:0:0:
91,279,118026,1,10,0:2:0:0:
68,245,118133,1,0,0:2:0:0:
63,206,118240,1,0,0:2:0:0:
76,169,118347,1,0,0:2:0:0:
104,139,118454,6,0,L|262:114,1,160,6|0,1:2|0:2,0:2:0:0:
468,225,118883,1,10,0:2:0:0:
428,223,118990,1,0,0:2:0:0:
391,237,119097,1,0,0:2:0:0:
364,266,119204,1,0,0:2:0:0:
351,304,119311,2,0,P|276:318|224:262,1,160,2|0,1:2|0:2,0:2:0:0:
453,113,119740,1,10,0:2:0:0:
450,326,119954,1,0,0:2:0:0:
274,139,120169,5,2,1:2:0:0:
512,221,120383,1,0,0:2:0:0:
240,127,120597,1,10,1:2:0:0:
473,93,120811,1,0,0:2:0:0:
261,279,121026,2,0,P|169:239|141:179,1,160,2|0,1:2|0:2,0:2:0:0:
256,16,121454,1,10,0:2:0:0:
75,19,121669,1,0,0:2:0:0:
7,195,121883,6,0,L|30:353,1,160,2|0,1:2|0:2,0:2:0:0:
226,367,122311,1,10,0:2:0:0:
422,353,122526,1,0,0:2:0:0:
512,117,122740,2,0,P|443:80|366:96,1,160,2|0,1:2|0:2,0:2:0:0:
153,252,123169,2,0,L|313:239,1,160,10|0,0:2|0:2,0:2:0:0:
2,59,123597,6,0,L|6:106,1,47.9999985351563,2|0,1:2|0:2,0:2:0:0:
101,131,123811,2,0,L|97:178,1,47.9999985351563,0|0,3:2|0:2,0:2:0:0:
10,227,124026,2,0,L|14:274,1,47.9999985351563,8|0,0:2|0:2,0:2:0:0:
101,343,124240,1,0,3:2:0:0:
117,341,124347,1,0,3:2:0:0:
133,339,124454,1,2,3:2:0:0:
149,337,124561,1,0,3:2:0:0:
165,335,124668,1,0,3:2:0:0:
182,334,124775,1,0,3:2:0:0:
232,312,124883,6,0,P|296:336|304:368,1,83.9999974365235,10|0,3:2|0:2,0:2:0:0:
300,345,125311,5,2,1:2:0:0:
335,175,125617,1,2,0:2:0:0:
427,264,125923,1,2,0:2:0:0:
414,183,126232,1,2,0:2:0:0:
386,21,126632,6,0,P|385:42|381:65,1,26.6666666666667,2|0,0:2|0:2,0:2:0:0:
338,108,126972,1,2,0:2:0:0:
259,76,127313,1,2,0:2:0:0:
188,105,127665,1,2,0:2:0:0:
252,189,128035,6,0,L|248:220,1,26.6666666666667,2|0,0:2|0:2,0:2:0:0:
254,255,128435,1,2,0:2:0:0:
168,256,128835,1,2,0:2:0:0:
165,285,129245,1,2,0:2:0:0:
192,297,129780,1,2,0:2:0:0:
