osu file format v14

[General]
AudioFilename: Cytus_ 07 - Predawn (Farewell) - Nicode [Chapter K_ Knight].mp3
AudioLeadIn: 0
PreviewTime: 84169
Countdown: 0
SampleSet: Normal
StackLeniency: 0.7
Mode: 0
LetterboxInBreaks: 1
WidescreenStoryboard: 1

[Editor]
DistanceSpacing: 1
BeatDivisor: 4
GridSize: 4
TimelineZoom: 2

[Metadata]
Title:Predawn
TitleUnicode:Predawn
Artist:NICODE & M2U
ArtistUnicode:NICODE & M2U
Creator:Lolicore_Komari
Version:Hard
Source:Cytus
Tags:Farewell deemo rayark Iris Rosabell knight piano
BeatmapID:827281
BeatmapSetID:352533

[Difficulty]
HPDrainRate:5
CircleSize:4
OverallDifficulty:6
ApproachRate:7.5
SliderMultiplier:1.6
SliderTickRate:2

[Events]
//Background and Video events
0,0,"K-7.png",0,0
//Break Periods
2,15798,28487
//Storyboard Layer 0 (Background)
//Storyboard Layer 1 (Fail)
//Storyboard Layer 2 (Pass)
//Storyboard Layer 3 (Foreground)
//Storyboard Sound Samples

[TimingPoints]
1884,428.571428571429,4,1,0,18,1,0
29312,-100,4,1,1,50,0,0
56741,-100,4,1,0,50,0,0
82455,-100,4,1,1,50,0,0
87169,-100,4,1,2,50,0,0
87384,-100,4,1,1,50,0,0
89312,-100,4,1,1,65,0,1
89955,-100,4,1,1,50,0,1
90169,-100,4,1,2,50,0,0
90384,-100,4,3,0,65,0,0
90598,-100,4,1,2,50,0,0
90812,-100,4,3,0,65,0,0
91026,-100,4,1,2,50,0,0
91455,-100,4,1,3,65,0,1
91562,-100,4,1,1,65,0,1
94455,-100,4,1,1,50,0,0
106026,-100,4,1,2,50,0,0
106455,-100,4,1,1,50,0,0
107741,-100,4,1,2,50,0,0
107955,-100,4,1,1,50,0,0
109455,-100,4,1,2,50,0,0
109669,-100,4,1,1,50,0,0
121455,-100,4,1,2,50,0,0
121669,-100,4,1,1,50,0,0
125312,615.384615384615,4,1,0,25,1,0
126654,654.307524536532,4,1,0,25,1,0
128044,779.220779220779,4,1,0,25,1,0
128837,845.070422535211,4,1,0,25,1,8
129246,845.070422535211,4,1,0,18,1,0
129787,845.070422535211,4,1,0,15,1,0

[Colours]
Combo1 : 58,9,5
Combo2 : 255,150,0
Combo3 : 255,0,0
Combo4 : 196,119,49

[HitObjects]
144,40,1884,6,0,P|73:67|73:142,1,160,2|0,0:0|0:0,0:0:0:0:
144,192,2526,2,0,P|155:230|152:269,1,80
108,336,2955,2,0,P|69:347|30:344,1,80,0|2,0:0|0:0,0:0:0:0:
100,200,3598,5,2,0:0:0:0:
100,200,3812,2,0,L|212:216,1,80
256,228,4241,2,0,B|268:260|268:260|400:276,1,160,2|0,0:0|0:0,0:0:0:0:
440,208,4884,1,2,0:0:0:0:
512,240,5098,2,0,P|519:278|504:315,1,80,0|2,0:0|0:0,0:0:0:0:
436,352,5526,2,0,P|397:359|360:344,1,80
304,288,5955,2,0,B|288:268|284:248|284:248|312:116,1,160,2|0,0:0|0:0,0:0:0:0:
388,120,6598,2,0,L|404:41,2,80,2|0|4,0:0|0:0|0:0,0:0:0:0:
416,192,7455,5,0,0:0:0:0:
449,265,7884,5,2,0:0:0:0:
476,340,8312,5,2,0:0:0:0:
476,340,8741,2,0,P|398:352|318:346,1,160,2|0,0:0|0:0,0:0:0:0:
240,324,9384,1,0,0:0:0:0:
240,324,9598,2,0,P|160:318|81:330,1,160,2|0,0:0|0:0,0:0:0:0:
56,172,10455,6,0,P|48:80|84:28,1,160,2|0,0:0|0:0,0:0:0:0:
152,72,11098,1,0,0:0:0:0:
152,72,11312,2,0,P|160:164|124:216,1,160,2|0,0:0|0:0,0:0:0:0:
81,330,12169,6,0,P|160:318|240:324,1,160,2|0,0:0|0:0,0:0:0:0:
220,164,13026,1,2,0:0:0:0:
220,164,13455,2,0,P|299:169|378:157,1,160,2|0,0:0|0:0,0:0:0:0:
256,192,13991,12,0,15598,0:0:0:0:
160,224,29312,5,8,0:0:0:0:
188,148,29526,1,0,0:0:0:0:
248,92,29741,1,0,0:0:0:0:
324,68,29955,1,0,0:0:0:0:
400,84,30169,2,0,L|366:240,1,160,8|0,0:0|0:0,0:0:0:0:
412,363,31026,6,0,P|468:309|472:232,1,160,8|0,0:0|0:0,0:0:0:0:
366,240,31669,1,0,0:0:0:0:
284,304,31884,2,0,L|129:346,1,160,8|0,0:0|0:0,0:0:0:0:
48,212,32741,5,8,0:0:0:0:
116,172,32955,1,0,0:0:0:0:
196,168,33169,1,0,0:0:0:0:
268,204,33384,1,0,0:0:0:0:
312,272,33598,2,0,P|376:304|488:292,1,160,8|0,0:0|0:0,0:0:0:0:
384,72,34455,2,0,P|324:111|278:214,2,160,8|0|8,0:0|0:0|0:0,0:0:0:0:
484,196,35741,5,8,0:0:0:0:
484,196,35955,2,0,L|384:212,1,80,0|8,0:0|0:0,0:0:0:0:
328,228,36384,2,0,L|316:184,1,40,0|8,0:0|0:0,0:0:0:0:
284,76,36812,1,0,0:0:0:0:
284,76,37026,5,8,0:0:0:0:
208,104,37241,2,0,L|152:124,1,40,0|8,0:0|0:0,0:0:0:0:
60,160,37669,1,0,0:0:0:0:
60,160,37884,2,0,P|43:237|71:310,1,160,8|0,0:0|0:0,0:0:0:0:
136,356,38526,2,0,P|174:367|213:359,1,80,0|8,0:0|0:0,0:0:0:0:
284,324,38955,2,0,P|295:308|301:289,1,40,0|8,0:0|0:0,0:0:0:0:
272,172,39384,5,0,0:0:0:0:
216,116,39598,1,8,0:0:0:0:
144,152,39812,2,0,L|84:144,1,40,0|8,0:0|0:0,0:0:0:0:
163,229,40134,2,0,L|124:224,1,40,0|8,0:0|0:0,0:0:0:0:
188,304,40455,2,0,L|212:392,2,80,8|0|8,0:0|0:0|0:0,0:0:0:0:
144,152,41312,5,8,0:0:0:0:
296,99,41741,2,0,P|332:84|372:86,1,80,8|0,0:0|0:0,0:0:0:0:
444,120,42169,2,0,P|459:156|457:196,1,80
412,264,42598,2,0,P|375:279|335:277,1,80,8|0,0:0|0:0,0:0:0:0:
328,196,43026,6,0,L|140:220,1,160,12|0,0:0|0:0,0:0:0:0:
88,228,43669,1,0,0:0:0:0:
116,152,43884,1,8,0:0:0:0:
116,152,44098,2,0,L|104:60,1,80
169,216,44741,6,0,L|193:404,1,160,8|0,0:0|0:0,0:0:0:0:
260,340,45384,2,0,L|299:335,2,40,0|0|8,0:0|0:0|0:0,0:0:0:0:
108,340,46026,1,4,0:0:0:0:
100,356,46454,5,8,0:0:0:0:
44,296,46669,1,0,0:0:0:0:
44,216,46883,1,0,0:0:0:0:
84,148,47097,1,0,0:0:0:0:
148,100,47312,2,0,L|328:80,1,160,8|0,0:0|0:0,0:0:0:0:
388,68,47955,2,0,L|467:58,1,80,0|8,0:0|0:0,0:0:0:0:
448,216,48598,2,0,L|457:295,2,80,8|0|8,0:0|0:0|0:0,0:0:0:0:
304,144,49455,5,8,0:0:0:0:
228,120,49669,1,0,0:0:0:0:
155,160,49884,2,0,P|78:165|22:111,1,160,12|0,0:0|0:0,0:0:0:0:
84,60,50526,1,0,0:0:0:0:
84,60,50741,2,0,P|161:54|217:108,1,160,8|0,0:0|0:0,0:0:0:0:
280,256,51598,6,0,L|312:348,1,80,8|0,0:0|0:0,0:0:0:0:
454,307,52026,2,0,L|376:292,2,80,0|0|8,3:0|0:0|0:0,0:0:0:0:
216,264,52884,5,8,0:0:0:0:
56,264,53312,6,0,P|36:172|60:100,1,160,8|0,0:0|0:0,0:0:0:0:
124,72,53955,1,0,0:0:0:0:
124,72,54169,2,0,P|144:164|120:236,1,160,8|0,0:0|0:0,0:0:0:0:
52,256,54812,1,0,0:0:0:0:
44,336,55026,2,0,L|108:312,3,40,8|0|0|0,0:0|0:0|0:0|0:0,0:0:0:0:
120,312,55455,2,0,L|208:340,1,80,8|0,0:0|0:0,0:0:0:0:
272,360,55884,1,4,0:0:0:0:
420,76,56741,6,0,P|456:144|424:215,1,160,2|0,0:0|0:0,0:0:0:0:
384,284,57384,1,0,0:0:0:0:
384,284,57598,2,0,L|300:272,1,80,2|0,0:0|0:0,0:0:0:0:
224,260,58026,1,2,0:0:0:0:
68,232,58455,6,0,L|52:148,1,80,2|0,0:0|0:0,0:0:0:0:
134,186,58884,2,0,L|120:108,1,80
200,124,59312,1,2,0:0:0:0:
260,68,59526,2,0,L|251:28,2,40,0|0|2,0:0|0:0|0:0,0:0:0:0:
336,104,59955,5,0,0:0:0:0:
336,104,60062,1,0,0:0:0:0:
336,104,60169,1,0,0:0:0:0:
336,104,60276,1,0,0:0:0:0:
336,102,60384,2,0,P|411:113|435:185,1,160,2|0,0:0|0:0,0:0:0:0:
460,260,61026,2,0,L|348:244,1,80
400,328,61455,2,0,L|288:312,1,80,8|0,0:0|0:0,0:0:0:0:
240,304,61884,1,4,0:0:0:0:
76,312,62312,6,0,L|59:233,1,80,2|0,0:0|0:0,0:0:0:0:
40,156,62741,1,0,0:0:0:0:
116,180,62955,1,0,0:0:0:0:
116,180,63169,2,0,P|192:176|252:256,1,160,2|0,0:0|0:0,0:0:0:0:
152,364,64026,6,0,L|192:320,3,40,2|0|0|0,0:0|0:0|0:0|0:0,0:0:0:0:
208,308,64455,2,0,L|384:332,1,160,6|0,0:0|0:0,0:0:0:0:
500,240,65312,2,0,L|341:218,1,160,2|0,0:0|0:0,0:0:0:0:
252,84,66169,2,0,L|410:105,1,160,2|0,0:0|0:0,0:0:0:0:
341,218,67026,6,0,L|152:264,1,160,2|0,0:0|0:0,0:0:0:0:
112,288,67669,1,0,0:0:0:0:
112,288,67884,2,0,P|104:326|120:364,1,80,2|0,0:0|0:0,0:0:0:0:
184,316,68312,1,2,0:0:0:0:
184,316,68526,1,0,0:0:0:0:
184,316,68741,2,0,L|208:152,1,160,2|0,0:0|0:0,0:0:0:0:
180,80,69384,1,0,0:0:0:0:
180,80,69491,1,0,0:0:0:0:
180,80,69598,2,0,L|344:64,2,160,2|0|6,0:0|0:0|0:0,0:0:0:0:
256,220,70884,5,4,0:0:0:0:
392,136,71312,2,0,P|424:200|400:300,1,160,2|0,0:0|0:0,0:0:0:0:
260,344,72169,1,2,0:0:0:0:
320,288,72384,1,0,0:0:0:0:
400,280,72598,1,0,0:0:0:0:
472,312,72812,2,0,L|498:387,1,80,0|2,0:0|0:0,0:0:0:0:
444,236,73241,2,0,L|432:196,2,40,0|0|2,0:0|0:0|0:0,0:0:0:0:
400,124,73669,1,2,0:0:0:0:
329,164,73884,6,0,P|321:247|365:315,1,160,2|0,0:0|0:0,0:0:0:0:
408,248,74526,1,0,0:0:0:0:
359,310,74741,2,0,P|282:288|202:289,1,160,2|0,0:0|0:0,0:0:0:0:
127,316,75384,2,0,P|92:333|67:364,1,80,0|6,0:0|0:0,0:0:0:0:
172,243,76026,6,0,P|185:206|187:166,1,80,2|0,0:0|0:0,0:0:0:0:
156,92,76455,1,0,0:0:0:0:
100,36,76669,1,0,0:0:0:0:
100,36,76884,1,2,0:0:0:0:
156,92,77098,2,0,L|200:80,2,40,0|0|2,0:0|0:0|0:0,0:0:0:0:
0,132,77741,5,2,0:0:0:0:
52,192,77955,1,0,0:0:0:0:
52,192,78062,1,0,0:0:0:0:
52,192,78169,2,0,L|152:220,1,80,2|0,0:0|0:0,0:0:0:0:
208,232,78598,2,0,L|236:392,1,160,2|4,0:0|0:0,0:0:0:0:
372,304,79455,5,2,0:0:0:0:
424,244,79669,1,0,0:0:0:0:
424,244,79776,1,0,0:0:0:0:
424,244,79884,2,0,P|440:148|396:60,1,160,2|0,0:0|0:0,0:0:0:0:
359,39,80526,2,0,P|328:16|290:4,1,80,0|6,0:0|0:0,0:0:0:0:
140,64,81169,6,0,L|128:12,4,40,0|0|0|0|2,0:0|0:0|0:0|0:0|0:0,0:0:0:0:
80,116,81812,2,0,L|68:220,1,80,0|2,0:0|0:0,0:0:0:0:
148,180,82241,2,0,L|136:284,1,80,0|8,0:0|0:0,0:0:0:0:
256,152,82884,5,8,0:0:0:0:
372,264,83312,1,8,0:0:0:0:
372,264,83419,1,0,0:0:0:0:
372,264,83526,1,8,0:0:0:0:
372,264,83634,1,0,0:0:0:0:
372,264,83741,1,8,0:0:0:0:
368,104,84169,5,8,0:0:0:0:
416,168,84384,1,0,0:0:0:0:
416,168,84491,1,0,0:0:0:0:
416,168,84598,1,8,0:0:0:0:
376,236,84812,2,0,P|380:288|368:320,1,80,8|8,0:0|0:0,0:0:0:0:
308,364,85241,1,0,0:0:0:0:
308,364,85348,1,0,0:0:0:0:
308,364,85455,1,8,0:0:0:0:
228,360,85669,2,0,P|176:364|144:352,1,80,0|8,0:0|0:0,0:0:0:0:
80,312,86098,5,0,0:0:0:0:
66,289,86205,1,0,0:0:0:0:
58,263,86312,1,8,0:0:0:0:
55,237,86419,1,0,0:0:0:0:
57,210,86526,1,8,0:0:0:0:
96,140,86740,1,8,0:0:0:0:
105,62,86955,5,0,0:0:0:0:
177,102,87169,1,8,0:0:0:0:
237,50,87384,2,0,P|277:38|325:46,1,80,0|12,0:0|0:0,0:0:0:0:
260,288,89312,6,0,L|276:192,2,80,8|8|8,0:0|0:0|0:0,0:0:0:0:
192,332,89955,2,0,L|152:344,1,40
116,356,90169,2,0,L|124:304,1,40,8|0,0:0|0:0,0:0:0:0:
128,276,90384,2,0,L|136:224,1,40,8|0,0:0|0:0,0:0:0:0:
96,168,90598,2,0,L|145:148,1,40,8|0,0:0|0:0,0:0:0:0:
171,138,90813,2,0,L|220:118,1,40,8|0,0:0|0:0,0:0:0:0:
268,76,91026,6,0,L|440:116,1,160,0|4,0:0|0:0,0:0:0:0:
484,260,91884,2,0,P|464:296|408:316,1,80,2|0,0:0|0:0,0:0:0:0:
352,316,92312,2,0,P|315:301|290:271,1,80,8|0,0:0|0:0,0:0:0:0:
272,192,92741,2,0,L|292:28,1,160,0|8,0:0|0:0,0:0:0:0:
156,116,93598,6,0,P|112:96|64:104,1,80,2|0,0:0|0:0,0:0:0:0:
19,148,94026,2,0,P|1:183|1:222,1,80,8|0,0:0|0:0,0:0:0:0:
44,292,94455,1,6,0:0:0:0:
280,336,95098,6,0,L|360:296,1,80,8|0,0:0|0:0,0:0:0:0:
424,271,95526,1,0,0:0:0:0:
424,271,95741,2,0,P|433:194|389:130,1,160,8|0,0:0|0:0,0:0:0:0:
32,240,97241,5,0,0:0:0:0:
108,268,97455,2,0,L|118:347,1,80,8|0,0:0|0:0,0:0:0:0:
176,224,97884,1,4,0:0:0:0:
212,68,98312,5,8,0:0:0:0:
292,84,98526,1,0,0:0:0:0:
344,144,98741,1,0,0:0:0:0:
348,224,98955,1,0,0:0:0:0:
299,288,99169,2,0,P|267:310|228:319,1,80,8|0,0:0|0:0,0:0:0:0:
148,308,99598,2,8,P|104:240|120:136,2,160
132,80,101312,5,4,0:0:0:0:
264,172,101741,1,8,0:0:0:0:
340,200,101955,1,0,0:0:0:0:
408,160,102169,2,0,L|424:72,1,80
436,0,102598,1,8,0:0:0:0:
488,152,103026,2,0,P|496:242|429:320,1,160,0|8,2:0|0:0,2:0:0:0:
304,336,103884,2,0,L|320:232,1,80
332,180,104312,1,8,0:0:0:0:
352,20,104741,6,0,L|188:52,1,160,12|0,0:0|0:0,0:0:0:0:
116,40,105384,2,0,P|80:48|40:80,1,80,0|8,0:0|0:0,0:0:0:0:
24,148,105812,2,0,P|32:184|64:224,1,80,0|8,0:0|0:0,0:0:0:0:
192,308,106455,6,0,L|368:332,1,160,8|0,0:0|0:0,0:0:0:0:
432,332,107098,2,0,P|456:280|448:228,1,80,0|8,0:0|0:0,0:0:0:0:
448,180,107526,2,0,P|414:133|365:114,1,80,0|8,0:0|0:0,0:0:0:0:
320,100,107955,1,0,0:0:0:0:
260,48,108169,5,8,0:0:0:0:
260,48,108384,2,0,L|212:52,1,40,0|8,0:0|0:0,0:0:0:0:
100,72,108812,1,0,0:0:0:0:
100,72,109027,2,0,L|112:168,1,80,8|0,0:0|0:0,0:0:0:0:
124,228,109455,2,0,L|136:324,1,80,8|0,0:0|0:0,0:0:0:0:
200,263,109884,2,0,P|224:189|197:115,1,160,8|0,0:0|0:0,0:0:0:0:
64,24,110741,5,8,0:0:0:0:
71,42,110848,1,0,0:0:0:0:
78,61,110955,1,0,0:0:0:0:
85,80,111062,1,0,0:0:0:0:
92,98,111169,1,4,0:0:0:0:
100,260,111598,6,0,P|168:208|264:248,1,160,2|0,0:0|0:0,0:0:0:0:
308,256,112241,1,0,0:0:0:0:
308,256,112455,2,0,P|384:267|444:217,1,160,8|0,0:0|0:0,0:0:0:0:
328,108,113312,6,0,L|160:140,1,160,8|0,0:0|0:0,0:0:0:0:
96,164,113955,2,0,L|156:200,1,40
168,200,114169,2,0,L|152:296,2,80,8|0|0,0:0|0:0|0:0,0:0:0:0:
184,120,114812,2,0,L|197:41,1,80,0|12,0:0|0:0,0:0:0:0:
296,112,115241,6,0,L|308:160,2,40,0|8|8,0:0|0:0|0:0,0:0:0:0:
392,40,115669,1,0,0:0:0:0:
392,40,115884,2,0,P|464:64|496:160,1,160,8|0,0:0|0:0,0:0:0:0:
488,216,116526,2,0,L|476:296,1,80,0|8,0:0|0:0,0:0:0:0:
324,348,117169,6,0,L|396:304,1,80,8|0,0:0|0:0,0:0:0:0:
460,264,117598,1,0,0:0:0:0:
396,216,117812,1,0,0:0:0:0:
324,248,118026,1,8,0:0:0:0:
324,248,118134,1,0,0:0:0:0:
324,248,118241,1,0,0:0:0:0:
324,248,118348,1,0,0:0:0:0:
324,248,118455,2,0,L|228:236,1,80,12|0,0:0|0:0,0:0:0:0:
164,224,118884,1,0,0:0:0:0:
164,224,119098,2,0,P|152:187|163:149,1,80,0|8,0:0|0:0,0:0:0:0:
260,40,119741,6,0,L|272:140,1,80
284,200,120169,1,8,0:0:0:0:
344,144,120384,1,0,0:0:0:0:
344,144,120598,2,0,P|412:179|430:255,1,160,8|0,0:0|0:0,0:0:0:0:
392,328,121241,1,0,0:0:0:0:
316,352,121455,2,0,L|236:344,1,80,8|0,0:0|0:0,0:0:0:0:
156,332,121884,1,12,0:0:0:0:
132,172,122312,6,0,L|116:84,1,80,8|0,0:0|0:0,0:0:0:0:
104,16,122741,2,0,L|296:60,1,160,8|0,0:0|0:0,0:0:0:0:
340,68,123384,1,0,0:0:0:0:
416,40,123598,2,0,P|448:116|432:200,1,160,8|0,0:0|0:0,0:0:0:0:
396,272,124241,1,0,0:0:0:0:
428,356,124455,1,8,0:0:0:0:
400,343,124562,1,0,0:0:0:0:
371,339,124669,1,0,0:0:0:0:
341,342,124776,1,0,0:0:0:0:
313,354,124884,2,0,P|236:380|148:356,1,160,8|4,0:0|0:0,0:0:0:0:
52,216,125927,5,2,0:0:0:0:
88,204,126654,5,2,0:0:0:0:
124,192,127308,5,2,0:0:0:0:
220,168,128044,5,2,0:0:0:0:
188,160,128837,5,2,0:0:0:0:
156,152,129787,5,6,0:0:0:0:
