osu file format v14

[General]
AudioFilename: Cytus_ 07 - Predawn (Farewell) - Nicode [Chapter K_ Knight].mp3
AudioLeadIn: 0
PreviewTime: 84169
Countdown: 0
SampleSet: Normal
StackLeniency: 0.7
Mode: 0
LetterboxInBreaks: 1
WidescreenStoryboard: 0

[Editor]
DistanceSpacing: 0.9
BeatDivisor: 4
GridSize: 4
TimelineZoom: 2

[Metadata]
Title:Predawn
TitleUnicode:Predawn
Artist:NICODE & M2U
ArtistUnicode:NICODE & M2U
Creator:Lolicore_Komari
Version:Finale
Source:Cytus
Tags:Farewell deemo rayark Iris Rosabell knight piano
BeatmapID:776872
BeatmapSetID:352533

[Difficulty]
HPDrainRate:7
CircleSize:4.5
OverallDifficulty:7
ApproachRate:9.5
SliderMultiplier:1.8
SliderTickRate:1

[Events]
//Background and Video events
0,0,"K-7.png",0,0
//Break Periods
//Storyboard Layer 0 (Background)
//Storyboard Layer 1 (Fail)
//Storyboard Layer 2 (Pass)
//Storyboard Layer 3 (Foreground)
//Storyboard Sound Samples

[TimingPoints]
1884,428.571428571429,4,1,0,18,1,0
7241,-100,4,1,0,10,0,0
8312,-100,4,1,0,18,0,0
13884,-200,4,1,0,18,0,0
27598,-100,4,1,0,30,0,0
28884,-80,4,1,2,50,0,0
29312,-100,4,1,1,50,0,0
30598,-100,4,1,72,50,0,0
30812,-100,4,1,1,50,0,0
34026,-100,4,1,2,50,0,0
34241,-100,4,1,1,50,0,0
35741,-100,4,1,72,50,0,0
35955,-100,4,1,1,50,0,0
54598,-100,4,1,2,50,0,0
55026,-100,4,1,1,50,0,0
56741,-100,4,1,0,30,0,0
60384,-100,4,1,6,30,0,0
61669,-100,4,1,0,30,0,0
70455,-100,4,1,0,65,0,0
70884,-100,4,1,0,30,0,0
82455,-100,4,1,1,45,0,0
82884,-100,4,1,1,50,0,0
83312,-100,4,1,1,55,0,0
83741,-50,4,1,1,60,0,0
84169,-100,4,1,1,50,0,0
84598,-100,4,1,2,50,0,0
85884,-100,4,1,1,50,0,0
86098,-100,4,1,2,50,0,0
87169,-100,4,1,2,50,0,0
87812,-100,4,1,2,30,0,0
88455,-80,4,1,2,30,0,0
88669,-80,4,1,1,40,0,0
88884,-66.6666666666667,4,1,1,45,0,0
89098,-66.6666666666667,4,1,2,50,0,0
89312,-50,4,1,1,50,0,1
89741,-100,4,1,2,50,0,1
90169,-100,4,1,2,50,0,0
90384,-100,4,3,0,60,0,0
90598,-100,4,1,2,50,0,0
90812,-100,4,3,0,60,0,0
91026,-100,4,1,1,75,0,0
91455,-100,4,1,3,75,0,1
91669,-100,4,1,2,50,0,1
92740,-100,4,1,72,50,0,1
92955,-100,4,1,1,50,0,1
94026,-100,4,1,5,50,0,1
94455,-100,4,1,1,50,0,0
100561,-100,4,1,2,50,0,0
101311,-100,4,1,1,50,0,0
104740,-100,4,1,2,50,0,0
107740,-100,4,1,1,50,0,0
107954,-100,4,1,2,50,0,0
110633,-100,4,1,1,50,0,0
111169,-100,4,1,2,70,0,0
111598,-100,4,1,1,50,0,0
112454,-100,4,1,2,50,0,0
115026,-100,4,1,1,50,0,0
118454,-66.6666666666667,4,1,2,50,0,0
118883,-100,4,1,1,50,0,0
122311,-100,4,1,2,50,0,0
122419,-100,4,1,1,50,0,0
122740,-100,4,1,2,50,0,0
122847,-100,4,1,1,50,0,0
124883,-50,4,1,2,75,0,0
125312,615.384615384615,4,1,0,25,1,0
126654,654.307524536532,4,1,0,25,1,0
128044,779.220779220779,4,1,0,25,1,0
128837,845.070422535211,4,1,0,25,1,8
129246,845.070422535211,4,1,0,18,1,0
129787,845.070422535211,4,1,0,15,1,0

[Colours]
Combo1 : 58,9,5
Combo2 : 255,150,0
Combo3 : 255,0,0
Combo4 : 196,119,49

[HitObjects]
352,124,1776,5,0,0:0:0:0:
352,124,1884,2,0,P|388:192|442:136,1,180,2|0,0:0|0:0,0:0:0:0:
416,24,2526,1,2,0:0:0:0:
416,24,2955,5,0,0:0:0:0:
384,200,3169,2,0,L|364:292,1,90,2|0,0:0|0:0,0:0:0:0:
447,131,3598,2,0,P|407:113|362:114,1,90,2|0,0:0|0:0,0:0:0:0:
292,160,4026,1,0,0:0:0:0:
264,240,4241,2,0,L|460:228,1,180,2|0,0:0|0:0,0:0:0:0:
364,144,4884,1,2,0:0:0:0:
220,104,5098,1,0,0:0:0:0:
92,188,5312,6,0,P|80:256|140:368,1,180,2|0,0:0|0:0,0:0:0:0:
343,311,5955,2,0,P|267:265|181:280,1,180,2|0,0:0|0:0,0:0:0:0:
222,364,6598,1,2,0:0:0:0:
216,188,6812,1,0,0:0:0:0:
117,295,7026,1,2,0:0:0:0:
116,192,7241,6,0,L|93:194,3,22.5
136,188,7455,1,2,0:0:0:0:
156,184,7526,1,0,0:0:0:0:
176,184,7598,1,0,0:0:0:0:
196,184,7669,1,0,0:0:0:0:
216,188,7741,1,0,0:0:0:0:
236,196,7812,1,0,0:0:0:0:
256,204,7884,1,2,0:0:0:0:
140,24,8312,1,4,0:0:0:0:
140,24,8741,6,0,P|168:144|292:96,1,270,2|0,0:0|0:0,0:0:0:0:
336,36,9598,2,0,L|324:128,1,90,2|0,0:0|0:0,0:0:0:0:
312,216,10026,2,0,L|300:308,1,90
312,216,10455,5,2,0:0:0:0:
280,112,10669,1,0,0:0:0:0:
476,120,10883,1,0,0:0:0:0:
444,224,11097,1,0,0:0:0:0:
264,268,11312,5,2,0:0:0:0:
232,164,11526,1,0,0:0:0:0:
428,172,11740,1,0,0:0:0:0:
396,276,11954,1,0,0:0:0:0:
147,310,12169,5,2,0:0:0:0:
71,250,12384,1,0,0:0:0:0:
115,248,12598,1,0,0:0:0:0:
160,247,12812,1,0,0:0:0:0:
247,290,13026,5,2,0:0:0:0:
143,154,13241,1,0,0:0:0:0:
232,164,13455,1,0,0:0:0:0:
321,175,13669,1,0,0:0:0:0:
387,294,13884,6,0,P|525:269|408:192,1,360,2|0,0:0|0:0,0:0:0:0:
144,144,16455,6,0,B|112:77|8:101|8:205|44:277|200:277|196:165|320:129|403:249,1,540,2|4,0:0|0:0,0:0:0:0:
401,246,19884,6,0,B|440:96|284:168|308:12|388:-31|468:36|440:92,1,360,0|4,0:0|0:0,0:0:0:0:
244,204,22455,6,0,P|157:191|95:252,1,180,2|4,0:0|0:0,0:0:0:0:
187,316,23741,1,0,0:0:0:0:
80,136,23955,1,0,0:0:0:0:
288,124,24169,2,0,B|316:112|316:112|324:134|324:134|344:128|344:128|388:112|447:137,1,180,2|0,0:0|0:0,0:0:0:0:
60,292,25348,5,0,0:0:0:0:
68,300,25455,1,2,0:0:0:0:
204,268,25669,1,0,0:0:0:0:
133,69,25884,2,0,L|112:248,1,180,2|2,0:0|0:0,0:0:0:0:
100,356,26955,1,0,0:0:0:0:
20,292,27169,1,2,0:0:0:0:
264,36,27598,5,0,0:0:0:0:
348,104,27812,2,0,L|332:176,2,45
448,60,28241,1,0,0:0:0:0:
448,60,28455,1,0,0:0:0:0:
463,101,28562,1,0,0:0:0:0:
465,146,28669,1,0,0:0:0:0:
452,189,28776,1,0,0:0:0:0:
427,225,28884,6,0,L|315:239,1,112.5,8|0,0:0|0:0,0:0:0:0:
356,116,29312,1,12,0:0:0:0:
484,344,29526,1,0,0:0:0:0:
464,212,29741,1,0,0:0:0:0:
484,344,29955,1,0,0:0:0:0:
484,344,30169,2,0,L|376:332,1,90,8|0,0:0|0:0,0:0:0:0:
284,216,30598,2,0,L|373:225,1,90,8|0,0:0|0:0,0:0:0:0:
244,336,31026,2,0,P|181:360|115:352,1,135,8|0,0:0|0:0,0:0:0:0:
136,268,31455,1,0,0:0:0:0:
114,274,31562,1,0,0:0:0:0:
92,281,31669,1,0,0:0:0:0:
71,287,31776,1,0,0:0:0:0:
8,308,31884,5,0,0:0:0:0:
20,304,31991,2,0,L|34:215,1,90,8|0,0:0|0:0,0:0:0:0:
140,136,32312,2,0,L|125:224,1,90,8|0,0:0|0:0,0:0:0:0:
252,56,32741,6,0,L|237:144,1,90,8|0,0:0|0:0,0:0:0:0:
212,296,33169,1,0,0:0:0:0:
136,200,33384,1,0,0:0:0:0:
316,276,33598,2,0,P|360:272|404:261,1,90,8|0,0:0|0:0,0:0:0:0:
464,228,33919,1,0,0:0:0:0:
476,216,34026,2,0,L|468:276,1,45,8|0,0:0|0:0,0:0:0:0:
391,90,34241,2,0,L|383:150,1,45
280,16,34455,6,0,L|300:104,1,90
328,208,34884,1,8,0:0:0:0:
116,252,35098,1,0,0:0:0:0:
116,252,35205,1,0,0:0:0:0:
116,252,35312,2,0,L|88:368,1,90,8|0,0:0|0:0,0:0:0:0:
216,164,35741,1,8,0:0:0:0:
327,272,35955,2,0,P|287:290|242:290,1,90,0|12,0:0|0:0,0:0:0:0:
160,340,36384,5,0,0:0:0:0:
184,344,36491,2,0,L|232:352,1,45,8|0,0:0|0:0,0:0:0:0:
68,240,36705,1,0,0:0:0:0:
92,244,36812,2,0,L|140:252,1,45
180,156,37026,6,0,L|192:64,1,90,12|0,0:0|0:0,0:0:0:0:
248,212,37348,2,0,L|236:301,1,90,8|0,0:0|0:0,0:0:0:0:
364,184,37669,2,0,L|384:236,1,45
360,172,37884,2,0,L|300:172,1,45,12|0,0:0|0:0,0:0:0:0:
412,116,38098,1,0,0:0:0:0:
433,111,38205,1,8,0:0:0:0:
455,106,38312,2,0,L|408:96,1,45,8|0,0:0|0:0,0:0:0:0:
440,36,38526,2,0,L|448:84,1,45
464,188,38741,6,8,L|488:312,1,90,12|0,0:0|0:0,0:0:0:0:
392,156,39062,1,8,0:0:0:0:
388,164,39169,2,0,L|376:108,1,45
328,236,39384,2,0,L|316:180,1,45
404,288,39598,2,0,L|392:232,1,45,12|0,0:0|0:0,0:0:0:0:
432,312,39812,5,0,0:0:0:0:
375,308,39919,1,0,0:0:0:0:
319,305,40026,1,8,0:0:0:0:
263,301,40133,1,0,0:0:0:0:
207,298,40241,2,0,L|162:294,1,45
88,328,40455,2,0,L|96:232,1,90
64,24,40884,2,0,L|56:113,1,90,8|0,0:0|0:0,0:0:0:0:
168,64,41312,5,0,0:0:0:0:
164,88,41419,1,0,0:0:0:0:
176,110,41526,1,0,0:0:0:0:
199,120,41633,1,0,0:0:0:0:
223,114,41740,1,8,0:0:0:0:
239,94,41847,1,0,0:0:0:0:
238,69,41954,1,0,0:0:0:0:
223,49,42061,1,0,0:0:0:0:
201,36,42169,6,0,L|140:44,1,45
72,140,42384,2,0,L|116:134,1,45
280,100,42598,1,8,0:0:0:0:
280,100,42812,6,0,P|324:98|365:116,1,90,0|4,0:0|0:0,0:0:0:0:
208,248,43241,2,0,P|205:203|225:163,1,90,0|8,0:0|0:0,0:0:0:0:
336,300,43669,1,0,0:0:0:0:
464,344,43884,2,0,L|444:228,1,90
364,56,44312,2,0,L|379:144,1,90,8|0,0:0|0:0,0:0:0:0:
511,139,44741,6,0,P|514:206|486:267,1,135
424,316,45169,1,8,0:0:0:0:
395,325,45276,1,0,0:0:0:0:
365,327,45383,1,0,0:0:0:0:
336,320,45490,1,0,0:0:0:0:
276,288,45598,5,0,0:0:0:0:
256,272,45705,2,0,L|272:176,1,90,8|0,0:0|0:0,0:0:0:0:
288,104,46026,2,0,L|304:8,1,90,8|0,0:0|0:0,0:0:0:0:
66,158,46455,5,8,0:0:0:0:
64,68,46669,1,0,0:0:0:0:
154,66,46884,1,0,0:0:0:0:
155,156,47098,1,0,0:0:0:0:
300,62,47312,5,8,0:0:0:0:
154,66,47526,1,0,0:0:0:0:
156,214,47741,1,8,0:0:0:0:
304,211,47955,1,0,0:0:0:0:
424,80,48169,6,0,P|444:180|420:264,1,180,8|0,0:0|0:0,0:0:0:0:
256,336,48812,1,0,0:0:0:0:
86,254,49026,2,0,P|67:166|88:80,1,180,8|0,0:0|0:0,0:0:0:0:
204,36,49669,5,0,0:0:0:0:
188,72,49776,1,0,0:0:0:0:
172,108,49884,2,0,L|188:236,1,90,12|0,0:0|0:0,0:0:0:0:
263,241,50205,2,0,L|252:152,1,90,8|0,0:0|0:0,0:0:0:0:
320,108,50526,1,8,0:0:0:0:
320,108,50741,6,0,L|448:96,1,90,12|0,0:0|0:0,0:0:0:0:
192,152,51062,2,0,L|64:164,1,90,8|0,0:0|0:0,0:0:0:0:
252,204,51384,1,8,0:0:0:0:
372,240,51598,5,12,0:0:0:0:
340,332,51812,1,0,0:0:0:0:
340,332,51919,1,8,0:0:0:0:
340,332,52026,1,0,0:0:0:0:
468,308,52241,1,8,0:0:0:0:
292,208,52455,5,12,0:0:0:0:
268,360,52669,1,0,0:0:0:0:
268,360,52776,1,8,0:0:0:0:
268,360,52884,1,0,0:0:0:0:
496,316,53098,1,8,0:0:0:0:
136,288,53312,5,12,0:0:0:0:
376,96,53526,1,0,0:0:0:0:
358,109,53633,1,8,0:0:0:0:
340,123,53740,1,0,0:0:0:0:
322,136,53847,1,0,0:0:0:0:
304,150,53954,1,8,0:0:0:0:
368,336,54169,6,0,P|376:276|356:220,1,90,12|0,0:0|0:0,0:0:0:0:
164,64,54491,1,0,0:0:0:0:
144,48,54598,2,0,P|136:108|156:164,1,90,8|0,0:0|0:0,0:0:0:0:
420,212,55026,1,8,0:0:0:0:
397,194,55133,1,0,0:0:0:0:
372,182,55240,1,0,0:0:0:0:
345,176,55347,1,0,0:0:0:0:
317,176,55454,1,8,0:0:0:0:
289,182,55561,1,0,0:0:0:0:
264,195,55668,1,0,0:0:0:0:
242,212,55775,1,0,0:0:0:0:
225,234,55883,1,4,0:0:0:0:
104,132,56741,6,0,B|91:56|91:56|135:132|228:144|296:112|308:68|316:24|391:16|457:41|497:97|513:153|496:228,1,630,2|0,0:0|0:0,0:0:0:0:
408,312,58455,2,0,B|363:291|342:320|342:320|323:337|323:337|320:300|320:300|302:324|302:324|246:365|162:357|130:291,1,360,2|0,0:0|0:0,0:0:0:0:
136,160,59526,1,0,0:0:0:0:
136,160,59634,1,0,0:0:0:0:
136,160,59741,1,2,0:0:0:0:
268,160,59955,1,0,0:0:0:0:
268,160,60062,1,0,0:0:0:0:
268,160,60169,1,2,0:0:0:0:
268,160,60276,1,0,0:0:0:0:
268,160,60384,2,0,B|354:148|354:148|414:140|470:128|518:172|534:252|518:316|461:337|405:349|341:317|338:246,1,540,0|8,0:0|0:0,0:0:0:0:
364,36,61884,5,2,0:0:0:0:
364,36,62098,2,0,L|368:136,1,90
264,120,62526,2,0,L|268:220,1,90
164,200,62955,2,0,L|168:300,2,90,0|2|0,0:0|0:0|0:0,0:0:0:0:
240,236,63598,6,0,P|148:252|76:192,1,180,2|0,0:0|0:0,0:0:0:0:
128,64,64241,1,0,0:0:0:0:
128,64,64348,1,0,0:0:0:0:
128,64,64455,1,2,0:0:0:0:
240,144,64669,1,0,0:0:0:0:
128,64,64884,2,0,L|217:75,1,90
416,268,65312,6,0,L|326:256,1,90,2|0,0:0|0:0,0:0:0:0:
504,196,65741,1,0,0:0:0:0:
488,176,65848,2,0,L|484:120,1,45
460,59,66062,2,0,L|464:104,1,45,0|2,0:0|0:0,0:0:0:0:
408,180,66276,2,0,L|412:225,1,45
340,292,66491,1,0,0:0:0:0:
328,280,66598,2,0,L|336:388,1,90
144,264,67026,5,2,0:0:0:0:
148,140,67241,1,0,0:0:0:0:
188,136,67348,1,0,0:0:0:0:
228,132,67455,1,2,0:0:0:0:
268,128,67562,1,0,0:0:0:0:
232,108,67669,1,0,0:0:0:0:
196,88,67776,1,0,0:0:0:0:
164,64,67884,1,2,0:0:0:0:
64,92,68098,5,0,0:0:0:0:
64,92,68205,1,0,0:0:0:0:
64,92,68312,1,2,0:0:0:0:
88,168,68526,1,0,0:0:0:0:
44,20,68741,1,2,0:0:0:0:
120,240,68955,5,0,0:0:0:0:
135,273,69062,1,0,0:0:0:0:
167,292,69169,1,2,0:0:0:0:
203,291,69276,1,0,0:0:0:0:
233,269,69383,1,0,0:0:0:0:
246,234,69490,1,0,0:0:0:0:
237,198,69598,2,0,L|36:224,2,180,2|0|4,0:0|0:0|0:0,0:0:0:0:
396,180,70884,5,0,0:0:0:0:
212,200,71098,1,0,0:0:0:0:
424,176,71312,1,2,0:0:0:0:
364,336,71741,5,0,0:0:0:0:
357,314,71848,1,0,0:0:0:0:
351,292,71955,1,0,0:0:0:0:
345,271,72062,1,0,0:0:0:0:
338,249,72169,1,2,0:0:0:0:
280,180,72384,1,0,0:0:0:0:
280,180,72598,2,0,L|380:164,1,90
130,178,73026,5,2,0:0:0:0:
188,272,73241,1,0,0:0:0:0:
188,272,73294,1,0,0:0:0:0:
188,272,73348,1,0,0:0:0:0:
188,272,73401,1,0,0:0:0:0:
188,272,73455,1,2,0:0:0:0:
272,348,73669,1,0,0:0:0:0:
272,348,73884,6,0,P|304:208|108:208,1,360,2|2,0:0|0:0,0:0:0:0:
100,292,74955,1,0,0:0:0:0:
100,292,75062,1,0,0:0:0:0:
100,292,75169,1,2,0:0:0:0:
232,256,75384,1,0,0:0:0:0:
232,256,75491,1,0,0:0:0:0:
232,256,75598,2,0,L|196:60,1,180,2|0,0:0|0:0,0:0:0:0:
356,204,76241,1,0,0:0:0:0:
96,180,76455,2,0,L|112:269,1,90,2|0,0:0|0:0,0:0:0:0:
135,282,76777,5,0,0:0:0:0:
157,297,76884,1,2,0:0:0:0:
183,306,76991,1,0,0:0:0:0:
210,307,77098,1,0,0:0:0:0:
236,302,77205,1,0,0:0:0:0:
261,291,77312,2,0,L|207:119,1,180,2|0,0:0|0:0,0:0:0:0:
48,164,77955,1,0,0:0:0:0:
48,164,78062,1,0,0:0:0:0:
48,164,78169,2,0,L|144:140,1,90,2|0,0:0|0:0,0:0:0:0:
336,24,78598,2,0,L|248:45,1,90
304,168,79026,2,0,P|347:176|391:165,1,90,2|0,0:0|0:0,0:0:0:0:
376,40,79455,5,2,0:0:0:0:
480,144,79669,1,0,0:0:0:0:
480,144,79723,1,0,0:0:0:0:
480,144,79776,1,0,0:0:0:0:
480,144,79830,1,0,0:0:0:0:
480,144,79884,2,0,P|492:236|456:320,1,180,2|0,0:0|0:0,0:0:0:0:
368,244,80526,1,0,0:0:0:0:
212,361,80741,6,0,L|300:340,1,90,2|0,0:0|0:0,0:0:0:0:
404,286,81169,1,2,0:0:0:0:
426,291,81276,1,0,0:0:0:0:
448,297,81383,1,0,0:0:0:0:
470,302,81490,1,0,0:0:0:0:
492,308,81598,2,0,L|560:324,1,45,2|0,0:0|0:0,0:0:0:0:
264,256,81812,1,0,0:0:0:0:
264,256,81919,1,0,0:0:0:0:
264,256,82026,2,0,L|220:245,1,45,2|0,0:0|0:0,0:0:0:0:
48,136,82241,5,0,0:0:0:0:
56,152,82348,1,0,0:0:0:0:
64,168,82455,2,0,L|107:178,1,45,10|0,0:0|0:0,0:0:0:0:
400,284,82669,1,0,0:0:0:0:
388,280,82776,1,0,0:0:0:0:
376,276,82884,2,0,L|332:265,1,45,10|0,0:0|0:0,0:0:0:0:
184,188,83098,5,0,0:0:0:0:
145,172,83205,1,0,0:0:0:0:
185,170,83312,1,10,0:0:0:0:
225,173,83419,1,0,0:0:0:0:
187,155,83526,1,0,0:0:0:0:
150,137,83634,1,0,0:0:0:0:
192,131,83741,2,0,B|261:129|318:175|318:175|275:172,2,180,10|0|12,0:0|0:0|0:0,0:0:0:0:
88,284,84384,5,0,0:0:0:0:
88,284,84491,1,0,0:0:0:0:
88,284,84598,1,8,0:0:0:0:
172,344,84812,5,0,0:0:0:0:
4,276,85026,1,0,0:0:0:0:
269,152,85241,1,0,0:0:0:0:
269,152,85348,1,0,0:0:0:0:
269,152,85455,2,0,L|179:159,1,90,8|0,0:0|0:0,0:0:0:0:
388,244,85884,5,4,0:0:0:0:
432,116,86098,1,0,0:0:0:0:
404,100,86205,1,0,0:0:0:0:
360,100,86312,5,8,0:0:0:0:
320,112,86419,1,0,0:0:0:0:
284,136,86526,1,0,0:0:0:0:
260,172,86634,1,0,0:0:0:0:
240,236,86741,6,0,L|262:323,1,90
360,100,87169,2,0,L|337:12,1,90,12|0,0:0|0:0,0:0:0:0:
492,224,87598,5,2,0:0:0:0:
356,372,87812,1,0,0:0:0:0:
325,380,87920,1,0,0:0:0:0:
296,367,88027,1,0,0:0:0:0:
280,339,88134,1,0,0:0:0:0:
281,307,88241,1,0,0:0:0:0:
296,279,88348,1,0,0:0:0:0:
332,248,88455,5,0,0:0:0:0:
372,220,88562,1,0,0:0:0:0:
396,176,88670,1,8,0:0:0:0:
392,128,88777,1,0,0:0:0:0:
360,60,88884,5,8,0:0:0:0:
292,28,88991,1,0,0:0:0:0:
220,36,89098,1,8,0:0:0:0:
156,76,89205,1,0,0:0:0:0:
124,144,89312,2,0,L|164:336,2,180,8|8|8,0:0|0:0|0:0,0:0:0:0:
219,276,89955,5,0,0:0:0:0:
186,304,90062,1,0,0:0:0:0:
148,324,90169,2,0,P|124:332|96:328,1,45,8|0,0:0|0:0,0:0:0:0:
180,176,90384,2,0,P|161:159|150:132,1,45,8|0,0:3|0:3,0:3:0:0:
308,124,90598,2,0,P|313:99|330:76,1,45,8|0,0:0|0:3,0:3:0:0:
400,220,90812,2,0,P|424:211|452:216,1,45,8|0,0:3|0:3,0:3:0:0:
328,172,91026,6,0,L|238:168,2,90,8|0|6,0:0|0:0|0:0,0:0:0:0:
472,128,91669,5,0,0:0:0:0:
472,128,91723,1,0,0:0:0:0:
472,128,91776,1,0,0:0:0:0:
472,128,91830,1,0,0:0:0:0:
472,127,91884,2,2,P|495:90|489:47,1,90,8|2,0:0|0:0,0:0:0:0:
392,60,92312,2,0,L|372:152,2,90,8|0|8,0:0|0:0|0:0,0:0:0:0:
432,328,92955,5,0,0:0:0:0:
408,296,93062,1,0,0:0:0:0:
416,256,93169,1,0,0:0:0:0:
424,216,93276,1,0,0:0:0:0:
432,176,93383,1,0,0:0:0:0:
440,136,93490,1,0,0:0:0:0:
448,96,93597,2,0,L|408:44,1,45
216,120,93812,5,8,0:0:0:0:
192,132,93884,1,0,0:0:0:0:
168,144,93955,1,0,0:0:0:0:
216,160,94026,5,8,0:0:0:0:
204,184,94098,1,0,0:0:0:0:
192,208,94169,1,0,0:0:0:0:
236,200,94241,5,8,0:0:0:0:
240,228,94312,1,0,0:0:0:0:
244,256,94384,1,0,0:0:0:0:
248,284,94455,6,0,L|444:272,1,180,8|0,0:0|0:0,0:0:0:0:
124,108,95098,1,0,0:0:0:0:
124,108,95312,2,0,L|320:96,1,180,2|0,0:0|0:0,0:0:0:0:
132,312,95955,1,0,0:0:0:0:
132,312,96169,2,0,P|114:226|144:142,1,180,2|0,0:0|0:0,0:0:0:0:
393,199,96812,2,0,P|336:131|252:104,1,180,2|0,0:0|0:0,0:0:0:0:
264,296,97455,5,6,0:0:0:0:
264,296,97562,1,0,0:0:0:0:
264,296,97669,1,0,0:0:0:0:
264,296,97776,1,0,0:0:0:0:
264,296,97884,2,0,L|368:304,1,90,8|0,0:0|0:0,0:0:0:0:
500,184,98312,2,0,P|488:144|456:120,1,67.5
444,116,98526,2,0,P|400:106|368:112,1,67.5
352,120,98740,2,0,L|248:132,1,90,8|0,0:0|0:0,0:0:0:0:
112,240,99169,2,0,L|201:229,1,90,4|0,0:0|0:0,0:0:0:0:
456,144,99598,6,0,L|288:168,1,135,8|0,0:0|0:0,0:0:0:0:
276,220,100026,1,0,0:0:0:0:
244,244,100133,1,0,0:0:0:0:
204,252,100240,1,0,0:0:0:0:
164,244,100347,1,0,0:0:0:0:
124,224,100454,5,0,0:0:0:0:
136,216,100561,2,0,L|144:120,1,90,8|0,0:0|0:0,0:0:0:0:
224,40,100884,2,0,L|216:129,1,90,8|0,0:0|0:0,0:0:0:0:
296,288,101312,6,0,L|206:280,1,90,8|0,0:0|0:0,0:0:0:0:
47,236,101741,2,0,P|67:202|72:168,1,67.5
67,147,101955,2,0,P|59:109|64:80,1,67.5
80,56,102169,2,0,P|114:38|168:40,1,90,8|0,0:0|0:0,0:0:0:0:
288,192,102597,1,4,0:0:0:0:
164,136,102812,1,0,0:0:0:0:
164,136,102919,1,0,0:0:0:0:
164,136,103026,2,0,L|320:96,1,135,8|0,0:0|0:0,0:0:0:0:
340,44,103454,5,0,0:0:0:0:
380,52,103562,1,0,0:0:0:0:
420,60,103669,1,8,0:0:0:0:
460,68,103776,1,0,0:0:0:0:
456,144,103884,5,0,0:0:0:0:
444,160,103991,2,0,L|496:152,1,45,8|0,0:0|0:0,0:0:0:0:
348,136,104205,5,0,0:0:0:0:
324,192,104312,2,0,L|376:184,1,45,8|0,0:0|0:0,0:0:0:0:
244,96,104526,5,0,0:0:0:0:
218,158,104633,1,0,0:0:0:0:
193,221,104740,1,12,0:0:0:0:
388,320,104955,5,0,0:0:0:0:
388,320,105062,2,0,P|404:240|384:204,1,90
402,149,105384,2,0,P|406:104|388:64,1,90,0|12,0:0|0:0,0:0:0:0:
188,128,105812,5,0,0:0:0:0:
188,128,105919,2,0,L|304:112,1,90
124,84,106241,2,0,L|28:60,1,90,0|12,0:0|0:0,0:0:0:0:
164,288,106669,1,0,0:0:0:0:
163,277,106776,2,0,L|152:188,1,90
219,83,107098,2,0,P|235:125|228:169,1,90,0|12,0:0|0:0,0:0:0:0:
200,200,107419,1,0,0:0:0:0:
160,204,107526,1,0,0:0:0:0:
124,184,107634,1,0,0:0:0:0:
104,148,107740,1,8,0:0:0:0:
236,28,107955,5,0,0:0:0:0:
404,136,108169,1,4,0:0:0:0:
236,28,108384,1,0,0:0:0:0:
251,44,108491,1,0,0:0:0:0:
266,60,108598,1,8,0:0:0:0:
282,77,108705,1,0,0:0:0:0:
297,93,108812,1,0,0:0:0:0:
308,304,109026,5,4,0:0:0:0:
240,32,109241,1,0,0:0:0:0:
245,53,109348,1,0,0:0:0:0:
250,75,109455,1,8,0:0:0:0:
255,97,109562,1,0,0:0:0:0:
260,119,109669,1,0,0:0:0:0:
168,224,109883,6,0,P|157:180|165:136,1,90,6|0,0:0|0:0,0:0:0:0:
341,137,110205,1,0,0:0:0:0:
341,137,110312,2,0,P|349:180|338:224,1,90,6|0,0:0|0:0,0:0:0:0:
312,300,110634,5,0,0:0:0:0:
224,281,110741,1,6,0:0:0:0:
137,262,110848,1,0,0:0:0:0:
208,308,110955,5,0,0:0:0:0:
119,327,111062,1,0,0:0:0:0:
32,346,111169,1,6,0:0:0:0:
445,353,111598,6,0,L|344:320,1,90,6|0,0:0|0:0,0:0:0:0:
232,280,112026,1,0,0:0:0:0:
264,272,112133,1,0,0:0:0:0:
297,264,112240,1,0,0:0:0:0:
330,257,112347,1,0,0:0:0:0:
363,249,112455,2,0,L|404:188,1,45,8|0,0:0|0:0,0:0:0:0:
456,80,112669,2,0,L|408:96,1,45
264,192,112884,2,0,L|316:176,1,45
356,76,113098,1,0,0:0:0:0:
311,76,113205,1,0,0:0:0:0:
236,108,113312,6,0,L|96:80,1,135,12|0,0:0|0:0,0:0:0:0:
288,192,113741,1,8,0:0:0:0:
332,198,113848,1,0,0:0:0:0:
375,188,113955,1,0,0:0:0:0:
413,164,114062,1,0,0:0:0:0:
456,92,114169,5,0,0:0:0:0:
480,116,114276,2,0,L|488:208,1,90,8|0,0:0|0:0,0:0:0:0:
400,248,114598,2,0,L|408:340,1,90,8|0,0:0|0:0,0:0:0:0:
463,203,114919,6,0,L|464:228,1,22.5
496,180,115026,1,12,0:0:0:0:
512,144,115133,1,0,0:0:0:0:
507,105,115240,1,0,0:0:0:0:
481,74,115347,1,0,0:0:0:0:
446,57,115454,1,0,0:0:0:0:
406,61,115561,1,0,0:0:0:0:
374,85,115669,2,0,L|317:122,1,45
232,160,115883,5,12,0:0:0:0:
204,192,115990,1,0,0:0:0:0:
200,232,116097,1,0,0:0:0:0:
216,268,116205,1,0,0:0:0:0:
248,292,116312,1,0,0:0:0:0:
288,304,116419,1,0,0:0:0:0:
328,296,116526,1,0,0:0:0:0:
360,272,116633,1,0,0:0:0:0:
356,232,116741,5,12,0:0:0:0:
346,187,116847,1,0,0:0:0:0:
337,143,116954,1,0,0:0:0:0:
328,99,117061,1,0,0:0:0:0:
318,55,117169,1,12,0:0:0:0:
308,96,117276,1,0,0:0:0:0:
296,136,117383,1,0,0:0:0:0:
284,176,117490,1,0,0:0:0:0:
272,216,117598,2,0,L|244:260,1,45,12|0,0:0|0:0,0:0:0:0:
372,136,117812,2,0,L|376:200,1,45,8|0,0:0|0:0,0:0:0:0:
280,344,118026,5,12,0:0:0:0:
185,309,118133,1,0,0:0:0:0:
121,231,118241,1,8,0:0:0:0:
106,132,118347,1,0,0:0:0:0:
144,40,118455,2,0,B|176:16|176:16|192:52|192:52|232:32|232:32|288:24|340:52,1,236.250009012223,12|0,0:0|0:0,0:0:0:0:
456,95,118884,5,8,0:0:0:0:
426,100,118991,1,0,0:0:0:0:
397,106,119098,1,0,0:0:0:0:
368,112,119205,1,0,0:0:0:0:
304,148,119312,2,0,L|320:208,1,45,8|0,0:0|0:0,0:0:0:0:
396,188,119526,1,0,0:0:0:0:
408,200,119633,1,0,0:0:0:0:
420,212,119740,2,0,L|408:320,1,90,8|0,0:0|0:0,0:0:0:0:
336,332,120062,1,0,0:0:0:0:
359,347,120169,6,0,P|396:362|435:361,1,78.75,8|0,0:0|0:0,0:0:0:0:
451,352,120384,2,0,P|463:314|460:275,1,78.75
398,216,120598,2,0,P|400:177|411:140,1,78.75,8|0,0:0|0:0,0:0:0:0:
471,96,120812,2,0,P|476:57|460:21,1,78.75
436,24,121026,6,0,P|369:19|305:42,1,135,8|0,0:0|0:0,0:0:0:0:
276,136,121454,1,0,0:0:0:0:
233,122,121561,1,0,0:0:0:0:
190,109,121668,1,0,0:0:0:0:
147,95,121775,1,0,0:0:0:0:
90,37,121884,2,0,L|103:81,1,45,8|0,0:0|0:0,0:0:0:0:
136,167,122097,2,0,L|120:231,1,45
88,296,122312,2,0,L|45:310,1,45,8|0,0:0|0:0,0:0:0:0:
160,352,122526,5,0,0:0:0:0:
160,352,122634,1,0,0:0:0:0:
160,352,122741,2,0,B|248:360|248:360|276:360|292:336|280:304|249:305,2,180,8|0|8,0:0|0:0|0:0,0:0:0:0:
92,156,123812,5,0,0:0:0:0:
420,228,124026,1,8,0:0:0:0:
312,316,124241,5,0,0:0:0:0:
200,68,124455,1,8,0:0:0:0:
210,88,124562,1,0,0:0:0:0:
220,108,124669,1,0,0:0:0:0:
230,128,124776,1,0,0:0:0:0:
240,148,124884,2,0,B|208:28|208:28|192:81,1,180,8|0,0:0|0:0,0:0:0:0:
152,264,125312,5,6,0:0:0:0:
192,248,125619,5,0,0:0:0:0:
252,228,125927,5,0,0:0:0:0:
196,204,126235,5,2,0:0:0:0:
124,200,126594,5,0,0:0:0:0:
116,188,126654,2,0,L|120:156,1,22.5,2|0,0:0|0:0,0:0:0:0:
196,168,126981,5,0,0:0:0:0:
256,148,127308,5,2,0:0:0:0:
204,112,127635,5,0,0:0:0:0:
148,48,127962,6,0,L|144:12,1,22.5,0|2,0:0|0:0,0:0:0:0:
190,56,128433,5,0,0:0:0:0:
212,52,128837,5,2,0:0:0:0:
234,48,129246,5,2,0:0:0:0:
284,32,129787,5,6,0:0:0:0:
