osu file format v14

[General]
AudioFilename: audio.mp3
AudioLeadIn: 0
PreviewTime:1669
Countdown: 0
SampleSet: Soft
StackLeniency: 0.7
Mode: 0
LetterboxInBreaks: 0
WidescreenStoryboard: 1

[Editor]
Bookmarks: 29311,55883,84169
DistanceSpacing: 1.1
BeatDivisor: 4
GridSize: 32
TimelineZoom: 1.8

[Metadata]
Title:Predawn
TitleUnicode:Predawn
Artist:NICODE & M2U
ArtistUnicode:NICODE & M2U
Creator:Hishiro Chizuru
Version:1112's Another
Source:Cytus
Tags:amb1d3x Icekalt deep fried ice xenon- xehn xen Otosaka-Yu Suzuki_1112 1112deng Karen Mashiro Sama Kagamine Ren Mixagji video game deemo instrumental classical rayark farewell knight kisata apaffy omgforz rosabell realazy collection stromboli chapter k electronic
BeatmapID:3279345
BeatmapSetID:1586738

[Difficulty]
HPDrainRate:6
CircleSize:5
OverallDifficulty:8
ApproachRate:9
SliderMultiplier:1.8
SliderTickRate:1

[Events]
//Background and Video events
0,0,"deeznuts.jpg",0,0
//Break Periods
//Storyboard Layer 0 (Background)
//Storyboard Layer 1 (Fail)
//Storyboard Layer 2 (Pass)
//Storyboard Layer 3 (Foreground)
//Storyboard Layer 4 (Overlay)
//Storyboard Sound Samples

[TimingPoints]
169,428.571428571429,4,2,0,40,1,0
14740,-200,4,2,0,40,0,0
15597,-133.333333333333,4,2,0,45,0,0
23311,-133.333333333333,4,2,0,60,0,0
23419,-133.333333333333,4,2,0,45,0,0
25026,-133.333333333333,4,2,0,55,0,0
25133,-133.333333333333,4,2,0,45,0,0
26526,-100,4,2,0,45,0,0
26740,-100,4,2,0,70,0,0
27597,-100,4,2,0,55,0,0
28454,-133.333333333333,4,2,0,55,0,0
28883,-66.6666666666667,4,2,0,65,0,0
29311,-76.9230769230769,4,2,0,80,0,1
55883,-76.9230769230769,4,2,0,80,0,0
56740,-100,4,2,0,50,0,0
82454,-100,4,2,0,80,0,0
83311,-133.333333333333,4,2,0,80,0,0
83740,-66.6666666666667,4,2,0,80,0,0
84169,-83.3333333333333,4,2,0,80,0,0
85883,-100,4,2,0,80,0,0
87597,-76.9230769230769,4,2,0,80,0,0
87883,-100,4,2,0,80,0,0
89311,-76.9230769230769,4,2,0,80,0,0
90169,-133.333333333333,4,2,0,80,0,0
90383,-100,4,2,0,80,0,0
90597,-66.6666666666667,4,2,0,80,0,0
90811,-50,4,2,0,80,0,0
91026,-66.6666666666667,4,2,0,80,0,0
91883,-83.3333333333333,4,2,0,80,0,0
96169,-100,4,2,0,80,0,0
97026,-133.333333333333,4,2,0,80,0,0
97454,-66.6666666666667,4,2,0,80,0,0
97883,-76.9230769230769,4,2,0,80,0,1
109883,-66.6666666666667,4,2,0,80,0,1
110954,-133.333333333333,4,2,0,80,0,1
111169,-66.6666666666667,4,2,0,80,0,1
111597,-76.9230769230769,4,2,0,80,0,1
124454,-133.333333333333,4,2,0,80,0,1
124883,-66.6666666666667,4,2,0,80,0,1
125311,612.244897959184,4,2,0,35,1,0
125923,618.556701030928,4,2,0,35,1,0
126232,800,4,2,0,35,1,0
126632,681.818181818182,4,2,0,25,1,0
127313,705.882352941176,4,2,0,25,1,0
127665,740.740740740741,4,2,0,25,1,0
128035,800,4,2,0,15,1,0
128835,821.917808219178,4,2,0,15,1,0
129245,1071.42857142857,4,2,0,15,1,0

[Colours]
Combo1 : 228,203,203
Combo2 : 155,222,255
Combo3 : 255,202,176
Combo4 : 100,177,255
Combo5 : 255,193,193
Combo6 : 176,176,255

[HitObjects]
24,352,1811,5,0,0:0:0:0:
24,352,1883,2,0,B|56:346|56:346|79:348|79:348|145:335,1,90,2|0,0:0|0:0,0:0:0:0:
198,368,2311,2,0,P|237:330|226:284,1,90,2|2,0:0|0:0,0:0:0:0:
123,138,2954,1,2,0:0:0:0:
90,68,3169,2,0,L|109:230,1,150,2|0,0:0|0:0,0:0:0:0:
114,223,3597,6,0,P|48:218|31:179,1,90,2|0,0:0|0:0,0:0:0:0:
183,197,4026,1,2,0:0:0:0:
183,197,4240,2,0,B|305:181|305:181|235:212,1,180,2|2,0:0|0:0,0:0:0:0:
175,112,4883,1,2,0:0:0:0:
167,29,5097,1,2,0:0:0:0:
183,121,5311,6,0,L|77:113,1,90,2|0,0:0|0:0,0:0:0:0:
38,65,5740,1,2,0:0:0:0:
49,197,5954,6,0,B|27:323|27:323|75:259,1,180,2|0,0:0|0:0,0:0:0:0:
168,260,6597,1,2,0:0:0:0:
164,236,6811,1,2,0:0:0:0:
172,284,7026,6,0,P|217:296|262:243,1,90,2|0,0:0|0:0,0:0:0:0:
302,198,7311,1,0,0:0:0:0:
298,203,7383,1,0,0:0:0:0:
294,208,7454,6,0,P|339:220|384:167,1,90,2|0,0:0|0:0,0:0:0:0:
398,105,7740,1,0,0:0:0:0:
394,110,7812,1,0,0:0:0:0:
390,115,7883,6,0,P|423:115|454:83,1,45,2|2,0:0|0:0,0:0:0:0:
460,38,8097,6,0,P|493:38|524:6,1,45,2|2,0:0|0:0,0:0:0:0:
445,108,8311,6,0,L|291:97,1,135,2|0,0:0|0:0,0:0:0:0:
304,89,8740,6,0,P|244:48|221:187,1,270,2|2,0:0|0:0,0:0:0:0:
148,230,9597,6,0,B|104:220|104:220|46:235,1,90,2|0,0:0|0:0,0:0:0:0:
213,177,10026,2,0,B|257:187|257:187|315:172,1,90
305,166,10347,1,0,0:0:0:0:
310,157,10454,6,0,L|299:276,1,90,2|0,0:0|0:0,0:0:0:0:
391,373,10883,2,0,L|402:254,1,90,2|2,0:0|0:0,0:0:0:0:
399,179,11311,6,0,B|419:158|419:158|496:158,1,90,2|0,0:0|0:0,0:0:0:0:
398,54,11740,2,0,B|378:75|378:75|301:75,1,90,2|2,0:0|0:0,0:0:0:0:
214,33,12169,5,2,0:0:0:0:
206,122,12383,1,0,0:0:0:0:
123,58,12597,1,2,0:0:0:0:
115,147,12811,1,2,0:0:0:0:
24,122,13026,5,0,0:0:0:0:
32,211,13240,1,2,0:0:0:0:
115,147,13454,1,0,0:0:0:0:
123,236,13668,1,0,0:0:0:0:
208,261,13883,6,0,B|243:245|251:211|251:211|267:252|243:281|224:271|206:313|232:374,1,225,2|0,0:0|0:0,0:0:0:0:
228,364,14526,2,0,P|199:364|181:351,2,30
296,323,14740,6,0,B|385:308|353:351|459:329,1,157.5,2|0,0:0|0:0,0:0:0:0:
493,249,15597,6,0,B|504:217|504:217|488:183,1,67.5000025749208,2|0,3:2|0:0,0:0:0:0:
408,147,16026,2,0,P|387:104|397:80,1,67.5000025749208,0|0,3:0|0:0,0:0:0:0:
511,22,16454,2,0,B|476:18|476:18|457:27|457:27|356:13,1,135.000005149842,2|0,3:2|3:0,0:0:0:0:
371,24,17097,1,0,3:0:0:0:
285,102,17311,6,0,P|240:88|232:57,1,67.5000025749208,2|0,3:2|3:0,0:0:0:0:
160,79,17740,2,0,P|138:37|154:9,1,67.5000025749208,0|0,3:0|3:0,0:0:0:0:
232,72,18169,5,2,3:2:0:0:
245,184,18383,1,0,0:0:0:0:
132,143,18597,2,0,L|36:152,1,67.5000025749208,0|0,3:0|0:0,0:0:0:0:
38,39,19026,6,0,P|73:60|79:88,1,67.5000025749208,2|0,3:2|0:0,0:0:0:0:
17,200,19454,1,2,3:2:0:0:
11,104,19669,1,2,3:2:0:0:
32,188,19883,6,0,L|28:336,1,135.000005149842,2|0,3:2|3:0,0:0:0:0:
22,340,20526,1,0,0:0:0:0:
94,340,20740,6,0,P|132:343|153:386,1,67.5000025749208,2|0,3:2|3:0,0:0:0:0:
231,277,21169,1,0,3:0:0:0:
228,308,21383,1,0,3:0:0:0:
225,337,21597,5,2,3:2:0:0:
290,358,21811,1,2,3:2:0:0:
357,330,22026,1,2,3:2:0:0:
422,351,22240,1,2,0:2:0:0:
480,206,22454,6,0,P|486:161|476:137,1,67.5000025749208,2|0,3:2|0:0,0:0:0:0:
403,142,22883,2,0,L|363:69,1,67.5000025749208,0|0,3:0|3:0,0:0:0:0:
327,17,23311,2,0,P|261:62|208:51,1,135.000005149842,2|0,3:2|3:0,0:0:0:0:
152,13,23954,1,2,0:2:0:0:
44,103,24169,6,0,B|49:129|49:129|41:148|41:148|51:215,1,101.250003862381,2|0,3:2|0:0,0:0:0:0:
39,217,24597,2,0,P|79:238|148:205,1,101.250003862381,2|0,3:2|0:0,0:0:0:0:
187,184,25026,6,0,B|274:168|274:168|219:195,1,135.000005149842,2|2,3:2|3:2,0:0:0:0:
124,157,25669,1,2,3:2:0:0:
80,25,25883,6,0,P|144:17|163:82,1,135.000005149842,2|2,3:2|3:2,0:0:0:0:
124,157,26526,6,0,B|114:175|114:175|126:216,1,45,8|0,0:3|0:0,0:0:0:0:
180,246,26740,2,0,B|190:272|190:272|181:284|181:284|30:276,1,180,4|4,3:0|3:0,0:0:0:0:
35,278,27597,6,0,P|82:278|107:334,1,90,2|0,3:2|0:0,0:0:0:0:
178,333,27919,1,0,3:0:0:0:
178,333,28026,2,0,L|247:337,1,45,0|0,3:0|3:0,0:0:0:0:
343,257,28240,5,0,3:0:0:0:
276,235,28347,1,0,3:0:0:0:
276,235,28454,6,0,P|272:271|276:279,1,33.7500012874604,2|0,3:2|0:0,0:0:0:0:
316,323,28669,2,0,L|308:369,1,33.7500012874604,2|0,3:2|0:0,0:0:0:0:
396,344,28883,6,0,P|485:349|474:241,1,202.500007724762,10|2,0:2|0:0,0:0:0:0:
436,198,29311,6,0,L|352:188,1,58.4999973220826,14|0,1:2|0:0,0:0:0:0:
286,180,29526,1,0,0:0:0:0:
392,48,29740,6,0,L|382:132,1,58.4999973220826,2|0,1:2|0:0,0:0:0:0:
374,198,29955,1,2,0:0:0:0:
267,110,30169,6,0,L|183:120,1,58.4999973220826,2|0,1:2|0:0,0:0:0:0:
117,128,30384,1,2,0:0:0:0:
223,260,30598,6,0,L|213:176,1,58.4999973220826,2|0,1:2|0:0,0:0:0:0:
205,110,30811,1,2,0:0:0:0:
216,193,31026,6,0,L|201:367,1,175.499991966248,2|0,1:2|0:0,0:0:0:0:
68,302,31454,5,2,1:2:0:0:
65,287,31561,1,2,3:2:0:0:
63,273,31668,1,2,3:2:0:0:
61,258,31775,1,2,3:2:0:0:
60,243,31883,6,0,P|93:293|152:266,1,116.999994644165,2|2,1:2|0:0,0:0:0:0:
152,130,32311,2,0,B|144:67|144:67|137:125,1,116.999994644165,0|2,1:0|0:0,0:0:0:0:
206,252,32740,6,0,P|247:262|275:285,1,58.4999973220826,2|0,1:2|0:0,0:0:0:0:
309,376,32954,1,0,0:0:0:0:
243,206,33169,6,0,P|264:242|268:278,1,58.4999973220826,2|0,1:2|0:0,0:0:0:0:
228,366,33383,1,2,0:0:0:0:
341,212,33597,6,0,P|382:202|410:179,1,58.4999973220826,2|0,1:2|0:0,0:0:0:0:
444,88,33811,1,2,0:0:0:0:
378,258,34026,6,0,P|399:221|403:185,1,58.4999973220826,2|0,1:2|3:0,0:0:0:0:
363,98,34240,1,0,3:0:0:0:
278,59,34454,6,0,B|233:64|233:64|215:78|215:78|135:86,1,116.999994644165,2|2,1:2|0:0,0:0:0:0:
9,56,34883,2,0,P|32:122|86:111,1,116.999994644165,2|2,1:2|0:0,0:0:0:0:
159,69,35311,6,0,B|132:9|132:9|158:139,1,175.499991966248,2|0,1:2|0:0,0:0:0:0:
114,188,35740,2,0,B|102:206|102:206|-10:220,1,116.999994644165,2|2,1:2|0:0,0:0:0:0:
193,219,36169,5,6,1:2:0:0:
108,179,36383,2,0,L|122:278,2,58.4999973220826,2|0|0,3:2|3:0|1:0,0:0:0:0:
207,364,36811,2,0,P|248:373|275:358,1,58.4999973220826,2|0,0:0|0:0,0:0:0:0:
316,318,37026,6,0,B|366:289|366:289|463:311,1,116.999994644165,2|2,1:2|3:2,0:0:0:0:
497,251,37347,1,0,3:0:0:0:
497,251,37454,2,0,P|489:222|467:199,1,58.4999973220826,0|0,1:0|0:0,0:0:0:0:
459,124,37669,2,0,P|434:108|401:108,1,58.4999973220826,2|0,0:0|0:0,0:0:0:0:
276,173,37883,6,0,L|292:43,1,116.999994644165,2|0,1:2|0:0,0:0:0:0:
176,16,38204,1,2,0:0:0:0:
188,24,38311,2,0,P|153:45|113:51,1,58.4999973220826,2|0,1:2|0:0,0:0:0:0:
105,115,38526,2,0,P|65:105|32:81,1,58.4999973220826,2|0,0:0|0:0,0:0:0:0:
34,25,38740,6,0,B|58:20|58:20|82:50|61:142|-20:150,1,175.499991966248,2|2,1:2|0:0,0:0:0:0:
15,218,39169,2,0,L|46:274,1,58.4999973220826,2|0,1:2|0:0,0:0:0:0:
17,333,39383,2,0,P|63:336|93:321,1,58.4999973220826,2|0,0:0|0:0,0:0:0:0:
169,248,39597,6,0,B|202:256|202:256|213:269|213:269|284:286,1,116.999994644165,2|2,1:2|3:2,0:0:0:0:
349,308,39919,1,0,3:0:0:0:
349,308,40026,1,2,1:2:0:0:
320,131,40240,2,0,B|305:109|305:109|314:69,1,58.4999973220826,2|0,0:0|0:0,0:0:0:0:
364,15,40454,6,0,B|483:24|483:24|426:32,1,175.499991966248,2|2,1:2|0:2,0:0:0:0:
311,77,40883,2,0,P|265:119|205:90,1,116.999994644165,2|0,1:2|0:0,0:0:0:0:
41,84,41311,6,0,B|31:32|31:32|69:27|90:72|37:102,1,116.999994644165,2|2,1:2|3:2,0:0:0:0:
151,139,41633,1,0,3:0:0:0:
151,139,41740,6,0,P|106:137|87:122,1,58.4999973220826,2|0,1:2|0:0,0:0:0:0:
140,18,41954,2,0,L|127:118,1,58.4999973220826,2|0,0:0|0:0,0:0:0:0:
80,255,42169,6,0,P|125:253|144:238,1,58.4999973220826,2|0,1:2|0:0,0:0:0:0:
91,134,42383,2,0,L|104:234,1,58.4999973220826,2|0,0:0|0:0,0:0:0:0:
151,372,42597,6,0,P|106:370|87:355,1,58.4999973220826,2|0,1:2|0:0,0:0:0:0:
140,251,42811,2,0,L|127:351,1,58.4999973220826,2|0,0:0|0:0,0:0:0:0:
38,370,43026,6,0,L|134:360,1,58.4999973220826,2|0,1:2|0:0,0:0:0:0:
211,262,43240,1,2,0:0:0:0:
82,245,43454,6,0,L|140:251,1,58.4999973220826,2|0,1:2|0:0,0:0:0:0:
255,353,43668,1,2,0:0:0:0:
211,262,43883,6,0,L|307:252,1,58.4999973220826,2|0,1:2|0:0,0:0:0:0:
384,154,44097,1,0,0:0:0:0:
255,137,44311,6,0,L|313:143,1,58.4999973220826,2|0,1:2|0:0,0:0:0:0:
428,245,44525,1,2,0:0:0:0:
240,139,44740,6,0,B|309:174|343:107|343:107|307:87|306:40,1,175.499991966248,2|0,1:2|0:0,0:0:0:0:
332,6,45169,2,0,P|357:19|371:44,1,58.4999973220826,2|2,1:2|3:2,0:0:0:0:
181,59,45383,2,0,L|256:76,1,58.4999973220826,2|2,3:2|3:2,0:0:0:0:
304,75,45597,6,0,L|291:234,1,116.999994644165,2|2,1:2|0:0,0:0:0:0:
418,361,46026,2,0,L|427:244,1,116.999994644165,2|2,1:2|1:2,0:0:0:0:
237,288,46454,6,0,P|209:296|183:281,1,58.4999973220826,2|0,1:2|0:0,0:0:0:0:
164,148,46669,1,2,0:0:0:0:
220,210,46883,6,0,P|248:202|274:217,1,58.4999973220826,2|0,1:2|0:0,0:0:0:0:
293,350,47098,1,2,0:0:0:0:
115,295,47311,6,0,P|87:303|61:288,1,58.4999973220826,2|0,1:2|0:0,0:0:0:0:
42,155,47526,1,2,0:0:0:0:
98,217,47740,6,0,P|126:209|152:224,1,58.4999973220826,2|0,1:2|3:0,0:0:0:0:
171,357,47955,1,2,3:2:0:0:
332,234,48169,6,0,B|391:221|380:261|457:241,1,116.999994644165,2|0,1:2|0:0,0:0:0:0:
398,379,48597,2,0,B|341:364|341:364|356:299,1,116.999994644165,2|2,1:2|0:0,0:0:0:0:
411,172,49026,6,0,P|436:113|345:36,1,175.499991966248,2|0,1:2|0:0,0:0:0:0:
317,83,49454,6,0,B|289:90|289:90|259:74,1,58.4999973220826,2|0,1:2|0:0,0:0:0:0:
370,36,49669,2,0,B|398:29|398:29|428:45,1,58.4999973220826,2|0,0:0|0:0,0:0:0:0:
256,72,49883,6,0,L|117:83,1,116.999994644165,6|0,1:2|3:0,0:0:0:0:
73,78,50204,1,0,0:0:0:0:
73,78,50311,2,0,P|151:117|152:145,1,116.999994644165,2|2,1:2|0:0,0:0:0:0:
62,241,50740,6,0,P|46:203|57:171,1,58.4999973220826,2|0,1:2|0:0,0:0:0:0:
153,135,50954,1,0,3:0:0:0:
159,133,51061,1,0,3:0:0:0:
165,131,51169,2,0,L|153:223,1,58.4999973220826,2|0,1:2|0:0,0:0:0:0:
132,271,51383,2,0,L|120:363,1,58.4999973220826,2|0,0:0|0:0,0:0:0:0:
278,372,51597,6,0,B|337:376|337:376|349:360|349:360|326:250,1,175.499991966248,2|2,1:2|0:0,0:0:0:0:
408,244,52026,2,0,P|417:216|409:182,1,58.4999973220826,2|0,1:2|0:0,0:0:0:0:
350,130,52240,2,0,L|365:62,1,58.4999973220826,2|0,0:0|0:0,0:0:0:0:
455,0,52454,6,0,P|383:52|282:36,1,175.499991966248,2|0,1:2|3:0,0:0:0:0:
200,33,52883,2,0,P|205:83|218:106,1,58.4999973220826,2|0,1:2|0:0,0:0:0:0:
272,146,53097,2,0,L|261:225,1,58.4999973220826,2|0,0:0|0:0,0:0:0:0:
166,299,53311,6,0,L|238:292,1,58.4999973220826,2|0,1:2|0:0,0:0:0:0:
292,273,53526,1,2,3:2:0:0:
292,273,53633,1,0,3:0:0:0:
283,344,53740,6,0,P|332:335|348:310,1,58.4999973220826,2|0,1:2|0:0,0:0:0:0:
369,259,53954,2,0,B|359:232|359:232|367:198,1,58.4999973220826,2|0,0:0|0:0,0:0:0:0:
402,125,54169,6,0,L|478:137,1,58.4999973220826,2|0,1:2|0:0,0:0:0:0:
319,31,54383,2,0,L|376:21,1,58.4999973220826,2|0,0:0|0:0,0:0:0:0:
266,127,54597,2,0,L|342:139,1,58.4999973220826,2|0,1:2|0:0,0:0:0:0:
175,71,54811,2,0,L|232:61,1,58.4999973220826,2|0,0:0|0:0,0:0:0:0:
49,136,55026,6,0,B|145:154|145:154|178:180,1,116.999994644165,2|0,1:2|0:0,0:0:0:0:
122,25,55347,1,2,0:0:0:0:
122,25,55454,2,0,P|106:79|111:93,1,58.4999973220826,2|0,1:2|0:0,0:0:0:0:
114,222,55669,2,0,L|99:289,1,58.4999973220826,2|0,0:0|0:0,0:0:0:0:
297,354,55883,5,14,1:2:0:0:
297,354,56740,6,0,P|400:350|448:396,1,135,2|0,3:2|0:0,0:0:0:0:
469,316,57169,1,2,3:2:0:0:
488,302,57276,1,0,0:0:0:0:
494,276,57383,1,2,3:2:0:0:
478,257,57490,1,0,0:0:0:0:
464,225,57597,1,2,3:2:0:0:
494,162,57811,1,0,0:0:0:0:
397,123,58026,5,2,3:2:0:0:
416,137,58133,1,0,0:0:0:0:
422,163,58240,1,2,3:2:0:0:
406,182,58347,1,0,0:0:0:0:
392,214,58454,1,2,3:2:0:0:
306,246,58669,5,2,3:2:0:0:
261,255,58776,2,0,L|265:230,1,22.5,2|2,0:2|0:2,0:0:0:0:
223,232,58883,1,2,3:2:0:0:
147,248,59097,5,2,0:2:0:0:
121,225,59204,1,2,0:2:0:0:
112,192,59311,1,2,3:2:0:0:
64,142,59526,5,2,0:2:0:0:
60,119,59633,1,0,0:0:0:0:
65,97,59740,1,2,3:2:0:0:
47,65,59847,5,0,0:0:0:0:
54,52,59954,1,2,0:2:0:0:
67,43,60061,1,0,0:0:0:0:
68,22,60169,5,2,3:2:0:0:
75,20,60276,1,0,0:0:0:0:
83,21,60383,2,0,L|197:31,1,90,2|0,3:2|0:0,0:0:0:0:
226,80,60811,5,2,0:2:0:0:
241,73,60919,2,0,L|269:68,1,22.5,2|2,0:2|0:2,0:0:0:0:
247,59,61026,1,2,3:2:0:0:
164,150,61240,5,2,0:2:0:0:
180,156,61347,1,2,0:2:0:0:
195,156,61454,1,0,3:0:0:0:
79,129,61669,5,2,3:2:0:0:
85,137,61776,2,0,L|82:172,1,22.5,2|2,0:2|0:2,0:0:0:0:
93,143,61883,1,2,3:2:0:0:
163,80,62097,5,0,0:0:0:0:
173,233,62311,1,2,3:2:0:0:
152,73,62526,6,0,L|160:21,2,45,2|0|2,0:2|0:0|3:2,0:0:0:0:
183,243,62954,2,0,L|176:287,2,45,2|2|2,0:2|0:2|3:2,0:0:0:0:
165,158,63383,1,0,0:0:0:0:
165,158,63490,1,0,0:0:0:0:
228,190,63597,6,0,P|274:179|286:130,1,90,2|2,3:2|0:2,0:0:0:0:
280,131,63919,1,0,0:0:0:0:
271,119,64026,5,2,3:2:0:0:
274,155,64133,1,0,0:0:0:0:
299,184,64240,1,2,3:2:0:0:
340,192,64347,1,0,0:0:0:0:
406,166,64454,6,0,L|512:176,2,90,2|0|0,3:2|0:0|3:0,0:0:0:0:
405,328,65097,5,2,0:2:0:0:
405,328,65204,1,2,0:2:0:0:
456,263,65311,6,0,L|366:254,1,90,2|0,3:2|0:0,0:0:0:0:
254,341,65740,5,2,3:2:0:0:
254,325,65847,1,0,0:0:0:0:
233,335,65954,1,2,0:2:0:0:
211,339,66061,1,0,0:0:0:0:
186,332,66169,2,0,P|231:331|279:367,1,90,2|2,3:2|0:2,0:0:0:0:
366,254,66597,2,0,P|321:255|273:219,1,90,2|2,3:2|3:2,0:0:0:0:
116,135,67026,6,0,B|129:180|129:180|117:246,1,90,2|0,3:2|0:0,0:0:0:0:
120,231,67347,1,0,0:0:0:0:
119,239,67454,1,2,3:2:0:0:
118,247,67561,1,0,0:0:0:0:
116,254,67669,2,0,L|180:247,1,45,2|0,3:2|0:0,0:0:0:0:
240,307,67883,6,0,B|263:316|263:316|360:305,1,90,2|2,3:2|0:2,0:0:0:0:
357,290,68204,1,0,0:0:0:0:
384,272,68311,2,0,L|371:353,1,45,2|0,3:2|0:0,0:0:0:0:
482,224,68526,2,0,L|414:223,1,45,2|0,0:2|0:0,0:0:0:0:
365,198,68740,6,0,P|350:144|377:95,1,90,2|0,3:2|0:0,0:0:0:0:
277,28,69169,6,0,P|252:53|246:83,1,45,2|0,3:2|0:0,0:0:0:0:
198,132,69383,2,0,L|135:136,1,45,2|2,0:2|0:2,0:0:0:0:
38,38,69597,6,0,B|43:76|43:76|35:95|35:95|48:207,1,135,2|0,3:2|0:0,0:0:0:0:
17,240,70026,2,0,P|55:289|121:268,1,135,2|0,3:2|0:0,0:0:0:0:
224,318,70454,6,0,B|204:350|204:350|253:357|267:319,1,90,6|0,3:2|0:0,0:0:0:0:
352,273,70883,2,0,L|335:171,1,90,2|0,3:2|0:0,0:0:0:0:
465,58,71311,6,0,B|393:42|408:76|324:57,1,135,2|0,3:2|0:0,0:0:0:0:
247,90,71740,1,0,3:0:0:0:
244,78,71847,1,2,0:2:0:0:
242,67,71954,1,2,0:2:0:0:
240,56,72061,1,2,0:2:0:0:
237,43,72169,6,0,B|216:53|216:53|142:49,1,90,2|2,3:2|3:2,0:0:0:0:
44,154,72597,2,0,B|34:173|34:173|120:155,1,90,2|2,3:2|3:2,0:0:0:0:
224,266,73026,6,0,P|165:271|134:242,1,90,2|0,3:2|0:0,0:0:0:0:
105,319,73311,1,0,0:0:0:0:
108,329,73383,1,0,0:0:0:0:
112,340,73454,6,0,P|53:345|22:316,1,90,2|2,3:2|0:2,0:0:0:0:
135,250,73776,1,0,0:0:0:0:
142,254,73883,6,0,L|313:243,1,135,2|0,3:2|0:0,0:0:0:0:
366,169,74311,2,0,B|390:174|390:174|424:160,1,45,0|0,3:0|0:0,0:0:0:0:
416,160,74526,2,0,B|435:153|435:153|459:158,1,45,2|0,0:2|0:0,0:0:0:0:
310,95,74740,6,0,B|286:90|286:90|252:104,1,45,2|0,3:2|0:0,0:0:0:0:
259,103,74955,2,0,B|240:110|240:110|216:105,1,45,2|2,0:2|0:2,0:0:0:0:
128,68,75169,2,0,P|82:67|56:24,1,90,2|2,0:2|3:2,0:0:0:0:
62,29,75454,1,0,0:0:0:0:
68,24,75526,1,0,0:0:0:0:
73,19,75597,6,0,L|52:191,1,135,2|0,3:2|0:0,0:0:0:0:
170,239,76026,2,0,B|193:241|193:241|216:225,1,45,2|0,3:2|0:0,0:0:0:0:
253,164,76240,2,0,L|309:173,1,45
360,222,76454,6,0,P|425:205|438:155,1,90,2|0,3:2|0:0,0:0:0:0:
435,174,76776,1,2,0:2:0:0:
435,161,76883,5,2,3:2:0:0:
414,200,76990,1,2,0:2:0:0:
424,243,77097,1,2,3:2:0:0:
463,264,77204,1,0,0:0:0:0:
493,204,77311,6,0,L|291:222,1,180,2|0,3:2|3:0,0:0:0:0:
218,269,77954,1,2,0:2:0:0:
224,275,78061,1,2,0:2:0:0:
231,281,78169,6,0,B|204:290|204:290|106:293,1,90,2|0,3:2|0:0,0:0:0:0:
274,163,78597,2,0,B|301:154|301:154|399:151,1,90,2|2,3:2|0:2,0:0:0:0:
313,268,79026,5,2,3:2:0:0:
203,153,79240,1,0,0:0:0:0:
142,291,79454,2,0,P|182:343|226:328,1,90,2|0,3:2|0:0,0:0:0:0:
207,336,79740,1,0,0:0:0:0:
214,329,79811,1,0,0:0:0:0:
221,321,79883,6,0,L|32:335,1,180,2|2,3:2|3:2,0:0:0:0:
7,267,80526,1,2,3:2:0:0:
119,201,80740,6,0,P|131:125|121:99,1,90,2|0,3:2|0:0,0:0:0:0:
23,1,81169,1,0,3:0:0:0:
62,14,81276,1,2,0:2:0:0:
62,55,81383,1,2,0:2:0:0:
23,67,81490,1,2,0:2:0:0:
0,34,81597,1,2,3:2:0:0:
204,91,81811,5,0,0:0:0:0:
197,97,81919,1,0,0:0:0:0:
192,105,82026,1,2,0:2:0:0:
185,146,82133,1,0,0:0:0:0:
144,151,82240,1,2,0:2:0:0:
127,114,82347,1,0,0:0:0:0:
157,87,82454,6,0,L|153:29,1,45,8|0,3:0|0:0,0:0:0:0:
76,159,82669,1,2,3:2:0:0:
76,159,82776,1,0,0:0:0:0:
115,218,82883,2,0,P|142:226|166:223,1,45,8|0,3:0|0:0,0:0:0:0:
225,213,83097,5,0,0:0:0:0:
199,281,83204,1,0,3:0:0:0:
199,281,83311,6,0,L|190:331,1,33.7500012874604,2|0,3:2|3:0,0:0:0:0:
273,366,83526,2,0,L|229:366,1,33.7500012874604,2|0,3:2|3:0,0:0:0:0:
134,359,83740,6,0,B|198:353|198:353|215:362|215:362|389:345,1,202.500007724762,4|0,3:0|0:0,0:0:0:0:
394,144,84169,6,0,L|369:279,1,107.999996704102,14|2,1:2|0:2,0:0:0:0:
372,263,84490,1,0,0:3:0:0:
370,275,84597,1,10,0:2:0:0:
461,211,84811,1,0,1:0:0:0:
450,2,85026,6,0,L|475:137,1,107.999996704102,10|2,1:2|3:2,0:0:0:0:
472,121,85347,1,0,3:0:0:0:
474,133,85454,1,10,0:2:0:0:
383,69,85668,1,2,1:2:0:0:
314,169,85883,6,0,P|262:158|252:107,1,90,2|0,1:2|0:0,0:0:0:0:
257,116,86204,1,2,0:0:0:0:
293,56,86311,5,10,0:0:0:0:
245,51,86419,1,2,3:2:0:0:
203,74,86526,1,2,3:2:0:0:
158,64,86633,1,2,3:2:0:0:
116,88,86740,6,0,P|84:76|74:62,1,45,2|0,1:2|0:0,0:0:0:0:
2,5,86954,2,0,L|9:70,1,45,2|0,0:0|0:0,0:0:0:0:
51,137,87169,6,0,P|19:151|2:148,1,45,10|0,0:0|0:0,0:0:0:0:
106,33,87383,2,0,L|77:68,1,45,2|0,0:0|0:0,0:0:0:0:
178,246,87597,6,0,P|96:239|75:192,1,116.999994644165,14|2,1:2|0:0,0:0:0:0:
86,208,87883,1,0,0:0:0:0:
92,201,87954,1,0,0:0:0:0:
98,193,88026,6,0,L|32:210,1,45,2|0,3:2|0:0,0:0:0:0:
163,124,88240,2,0,L|206:112,1,45,2|0,0:0|0:0,0:0:0:0:
211,0,88454,5,2,3:2:0:0:
220,30,88561,1,2,3:2:0:0:
256,10,88669,5,2,0:2:0:0:
252,41,88776,1,0,0:0:0:0:
288,36,88883,5,2,3:2:0:0:
272,62,88990,1,2,3:2:0:0:
305,78,89097,5,2,0:2:0:0:
280,95,89204,1,0,0:0:0:0:
307,111,89311,6,0,L|328:177,1,58.4999973220826,10|0,1:2|0:0,0:0:0:0:
264,281,89526,2,0,L|310:229,1,58.4999973220826,10|0,0:0|0:0,0:0:0:0:
439,231,89740,2,0,L|371:216,1,58.4999973220826,2|0,3:2|0:0,0:0:0:0:
253,187,89954,5,10,0:0:0:0:
240,184,90061,1,10,0:0:0:0:
227,179,90169,6,0,P|229:200|238:222,1,33.7500012874604,10|0,0:0|0:0,0:0:0:0:
131,260,90383,6,0,P|137:239|152:222,1,45,2|0,1:2|0:0,0:0:0:0:
93,180,90597,6,0,P|42:179|17:193,1,67.5000025749208,10|2,0:0|3:2,0:0:0:0:
68,58,90811,6,0,P|108:78|130:117,1,90,2|2,3:2|3:2,0:0:0:0:
131,260,91026,6,0,P|171:204|268:207,1,135.000005149842,14|0,1:2|0:0,0:0:0:0:
296,359,91311,1,0,0:0:0:0:
287,364,91383,1,0,0:0:0:0:
279,370,91454,6,2,L|285:201,1,135.000005149842,14|0,1:2|0:0,0:1:0:0:
184,172,91883,6,0,P|208:189|244:190,1,53.9999983520508,10|0,0:0|0:0,0:0:0:0:
283,234,92097,2,0,P|278:260|263:282,1,53.9999983520508,2|0,0:0|0:0,0:0:0:0:
374,199,92311,6,0,P|350:182|314:181,1,53.9999983520508,10|0,0:0|0:0,0:0:0:0:
274,136,92525,2,0,P|278:109|294:88,1,53.9999983520508,2|0,0:0|0:0,0:0:0:0:
458,78,92740,5,6,1:2:0:0:
455,65,92847,1,0,0:0:0:0:
452,53,92954,1,0,0:0:0:0:
449,40,93061,1,2,0:0:0:0:
446,27,93169,5,10,0:0:0:0:
471,58,93276,1,2,3:2:0:0:
462,96,93383,1,2,3:2:0:0:
425,110,93490,1,2,3:2:0:0:
396,134,93597,5,10,0:0:0:0:
390,185,93704,1,2,0:0:0:0:
429,220,93811,5,2,0:0:0:0:
439,218,93883,1,0,0:0:0:0:
448,217,93954,1,0,0:0:0:0:
457,215,94026,5,10,0:0:0:0:
482,257,94133,1,2,3:2:0:0:
477,307,94240,1,2,3:2:0:0:
435,333,94347,1,2,3:2:0:0:
363,305,94454,6,0,L|137:323,1,215.999993408203,2|10,1:2|0:0,0:0:0:0:
26,204,95097,2,0,L|42:134,1,53.9999983520508,0|2,0:0|0:0,0:0:0:0:
8,215,95311,2,2,P|99:220|135:140,1,161.999995056153,6|0,1:2|0:0,0:1:0:0:
200,66,95740,2,0,B|159:8|159:8|181:128,1,161.999995056153,10|0,0:0|0:0,0:0:0:0:
221,172,96169,6,0,B|268:167|268:167|281:158|281:158|343:152,1,90,6|0,1:2|0:0,0:0:0:0:
331,90,96490,1,0,3:0:0:0:
331,90,96597,2,0,P|333:61|350:38,1,45,2|0,3:2|0:0,0:0:0:0:
401,86,96811,5,0,0:0:0:0:
401,86,96919,1,0,3:0:0:0:
411,152,97026,6,0,L|355:146,1,33.7500012874604,0|0,3:0|3:0,0:0:0:0:
345,214,97240,2,0,L|378:217,1,33.7500012874604,0|0,3:0|3:0,0:0:0:0:
454,213,97454,6,0,P|446:317|334:315,1,202.500007724762,10|0,0:0|0:0,0:0:0:0:
221,326,97883,6,0,P|203:307|157:303,1,58.4999973220826,14|0,1:2|0:0,0:0:0:0:
282,282,98097,1,2,0:0:0:0:
170,244,98311,6,0,P|162:269|182:310,1,58.4999973220826,10|0,0:0|0:0,0:0:0:0:
101,213,98525,1,2,0:0:0:0:
101,37,98740,6,0,P|119:56|165:60,1,58.4999973220826,2|0,1:2|0:0,0:0:0:0:
40,81,98954,1,2,0:0:0:0:
152,119,99168,6,0,P|159:93|139:52,1,58.4999973220826,10|0,0:0|0:0,0:0:0:0:
221,150,99382,1,2,0:0:0:0:
339,50,99597,6,0,P|274:42|254:-8,1,116.999994644165,2|0,1:2|0:0,0:0:0:0:
221,150,100026,5,10,0:0:0:0:
258,144,100133,1,2,3:2:0:0:
296,150,100240,1,2,3:2:0:0:
333,144,100347,1,2,3:2:0:0:
385,97,100454,6,0,B|359:149|359:149|399:232,1,116.999994644165,10|2,0:0|0:0,0:0:0:0:
245,359,100883,2,0,B|271:307|271:307|231:224,1,116.999994644165,10|2,0:0|0:0,0:0:0:0:
136,307,101311,6,0,B|166:312|166:312|210:303,1,58.4999973220826,2|0,1:2|0:0,0:0:0:0:
315,245,101526,1,2,0:0:0:0:
163,83,101740,6,0,B|187:100|187:100|212:138,1,58.4999973220826,10|0,0:0|0:0,0:0:0:0:
245,253,101955,1,2,0:0:0:0:
444,13,102169,6,0,B|414:8|414:8|370:17,1,58.4999973220826,2|0,1:2|0:0,0:0:0:0:
265,75,102384,1,2,0:0:0:0:
417,237,102598,6,0,B|392:219|392:219|367:181,1,58.4999973220826,10|2,0:0|3:2,0:0:0:0:
335,67,102811,1,2,3:2:0:0:
198,54,103026,6,0,B|137:71|94:22|94:22|105:73|51:113,1,175.499991966248,2|0,1:2|0:0,0:0:0:0:
29,137,103454,2,0,P|11:115|5:87,1,58.4999973220826,10|0,0:0|0:0,0:0:0:0:
71,217,103669,2,0,L|58:295,1,58.4999973220826,2|0,0:0|0:0,0:0:0:0:
102,133,103883,6,0,B|-19:114|-19:114|40:142,1,175.499991966248,2|0,1:2|0:0,0:0:0:0:
71,217,104311,2,0,B|157:208|157:208|214:181,1,116.999994644165,10|2,0:0|0:0,0:0:0:0:
302,24,104740,6,0,L|292:195,1,116.999994644165,14|2,1:2|3:2,0:0:0:0:
253,190,105061,1,2,3:2:0:0:
253,190,105169,1,10,0:0:0:0:
429,88,105383,1,2,0:0:0:0:
378,234,105597,6,0,L|388:405,1,116.999994644165,2|2,1:2|3:2,0:0:0:0:
444,384,105918,1,2,3:2:0:0:
444,384,106026,1,10,0:0:0:0:
251,298,106240,1,2,0:0:0:0:
386,226,106454,6,0,B|411:263|411:263|316:265|306:171,1,175.499991966248,2|2,1:2|0:0,0:0:0:0:
303,200,106883,2,0,P|282:174|249:159,1,58.4999973220826,10|0,0:0|0:0,0:0:0:0:
195,84,107097,2,0,L|121:100,1,58.4999973220826,0|2,0:0|0:0,0:0:0:0:
36,9,107311,6,0,B|45:66|45:66|43:82|43:82|62:211,1,175.499991966248,2|0,1:2|0:0,0:0:0:0:
138,249,107740,2,0,B|166:258|166:258|221:241,1,58.4999973220826,10|0,0:0|0:0,0:0:0:0:
255,167,107954,2,0,L|263:89,1,58.4999973220826,2|0,0:0|0:0,0:0:0:0:
308,271,108169,6,0,L|453:251,1,116.999994644165,2|2,1:2|0:0,0:0:0:0:
474,203,108490,1,2,0:0:0:0:
474,203,108597,1,10,0:0:0:0:
460,365,108811,2,0,P|401:331|402:316,1,58.4999973220826,2|0,0:0|0:0,0:0:0:0:
428,264,109026,6,0,L|445:123,1,116.999994644165,2|2,1:2|0:0,0:0:0:0:
489,87,109347,1,0,0:0:0:0:
500,74,109454,2,0,P|430:62|402:79,1,58.4999973220826,10|0,0:0|0:0,0:0:0:0:
363,6,109669,1,2,0:0:0:0:
251,90,109883,6,0,B|234:101|234:101|98:114,1,135.000005149842,14|0,1:2|0:0,0:0:0:0:
108,123,110204,1,0,3:0:0:0:
47,179,110311,6,0,B|64:190|64:190|200:203,1,135.000005149842,10|0,0:0|0:0,0:0:0:0:
190,212,110632,1,0,3:0:0:0:
239,265,110740,5,2,1:2:0:0:
171,310,110954,2,0,L|164:351,1,33.7500012874604,8|4,3:0|3:0,0:0:0:0:
76,384,111169,6,0,B|109:368|109:368|239:348|239:348|299:318,1,202.500007724762,14|0,1:2|3:0,0:0:0:0:
344,292,111597,6,2,B|424:323|424:323|345:375,1,175.499991966248,10|0,1:2|0:0,0:1:0:0:
380,228,112026,6,0,L|450:254,1,58.4999973220826,10|2,0:0|3:2,0:0:0:0:
499,182,112240,2,0,P|508:115|507:106,1,58.4999973220826,2|2,3:2|3:2,0:0:0:0:
368,37,112454,6,2,P|433:87|477:59,1,116.999994644165,2|0,1:2|0:0,0:1:0:0:
466,70,112776,1,0,0:0:0:0:
368,37,112883,6,0,P|331:41|284:54,1,58.4999973220826,10|2,0:0|3:2,0:0:0:0:
257,96,113097,2,0,P|220:92|173:79,1,58.4999973220826,2|2,3:2|3:2,0:0:0:0:
106,139,113311,6,2,L|121:11,1,116.999994644165,2|0,1:2|0:0,0:1:0:0:
27,32,113633,1,0,0:0:0:0:
27,32,113740,2,0,P|28:67|53:108,1,58.4999973220826,10|0,0:0|0:0,0:0:0:0:
112,176,113954,2,0,P|80:159|33:160,1,58.4999973220826,2|0,0:0|0:0,0:0:0:0:
11,271,114169,2,2,P|41:252|63:210,1,58.4999973220826,2|0,1:2|0:0,0:1:0:0:
175,140,114383,5,2,3:2:0:0:
189,143,114490,1,2,3:2:0:0:
204,141,114597,5,10,0:0:0:0:
181,187,114704,1,2,3:2:0:0:
190,236,114811,1,2,3:2:0:0:
232,266,114919,1,2,3:2:0:0:
282,268,115026,6,2,L|98:297,1,175.499991966248,2|0,1:2|0:0,0:1:0:0:
54,233,115454,2,0,P|56:199|49:166,1,58.4999973220826,8|2,0:0|3:2,0:0:0:0:
108,295,115669,2,0,P|106:329|113:362,1,58.4999973220826,2|2,3:2|3:2,0:0:0:0:
203,372,115883,6,2,L|354:383,1,116.999994644165,2|0,1:2|0:0,0:1:0:0:
387,335,116204,1,0,0:0:0:0:
393,359,116311,5,10,0:0:0:0:
362,325,116419,1,2,3:2:0:0:
358,279,116526,1,2,3:2:0:0:
375,236,116633,1,2,3:2:0:0:
416,218,116740,5,2,1:2:0:0:
456,163,116847,1,0,0:0:0:0:
456,163,116954,2,2,P|458:129|435:87,1,58.4999973220826,2|0,0:0|0:0,0:1:0:0:
317,26,117169,5,10,0:0:0:0:
317,26,117276,1,2,3:2:0:0:
317,26,117383,2,0,P|315:60|338:102,1,58.4999973220826,2|2,3:2|3:2,0:0:0:0:
308,178,117597,5,2,1:2:0:0:
300,182,117704,1,2,3:2:0:0:
292,186,117811,2,0,L|201:171,1,58.4999973220826,2|2,3:2|3:2,0:0:0:0:
61,11,118026,5,10,0:0:0:0:
142,33,118133,1,2,3:2:0:0:
142,33,118240,2,0,L|156:124,1,58.4999973220826,2|2,3:2|3:2,0:0:0:0:
231,170,118454,6,2,B|224:222|224:222|228:244|228:244|210:377,1,175.499991966248,6|0,1:2|0:0,0:1:0:0:
297,381,118883,1,10,0:0:0:0:
304,371,118990,1,2,3:2:0:0:
312,360,119097,2,0,L|399:353,1,58.4999973220826,2|2,3:2|3:2,0:0:0:0:
448,368,119311,6,2,P|510:341|486:232,1,175.499991966248,2|0,1:2|0:0,0:1:0:0:
441,188,119740,2,0,L|457:121,1,58.4999973220826,10|2,0:0|3:2,0:0:0:0:
511,76,119954,2,0,P|441:53|423:63,1,58.4999973220826,2|2,3:2|3:2,0:0:0:0:
292,140,120169,5,2,1:2:0:0:
467,131,120383,1,2,0:0:0:0:
333,76,120597,5,10,0:0:0:0:
339,201,120811,1,2,0:0:0:0:
339,80,121026,6,2,B|276:39|196:63|196:63|186:47|159:35,1,175.499991966248,2|0,1:2|0:0,0:1:0:0:
132,101,121454,2,0,B|104:152|47:124|47:124|53:66,1,116.999994644165,10|2,0:0|3:2,0:0:0:0:
95,282,121883,6,0,B|187:261|166:314|299:280,1,175.499991966248,2|0,1:2|0:0,0:0:0:0:
368,340,122311,2,0,P|408:318|420:281,1,58.4999973220826,10|0,0:0|0:0,0:0:0:0:
467,209,122526,2,0,L|450:134,1,58.4999973220826,2|0,0:0|0:0,0:0:0:0:
453,22,122740,6,0,B|376:8|376:8|363:19|363:19|379:138,1,175.499991966248,2|0,1:2|0:0,0:0:0:0:
384,168,123169,2,0,B|393:229|393:229|317:215,1,116.999994644165,10|2,0:0|0:0,0:0:0:0:
256,83,123597,6,0,B|235:69|241:38|241:38|173:35|208:94|123:75,1,175.499991966248,6|2,1:2|0:0,0:0:0:0:
54,22,124026,2,0,P|37:54|38:90,1,58.4999973220826,10|0,0:0|0:0,0:0:0:0:
106,146,124240,2,0,L|98:209,1,58.4999973220826,2|0,0:0|0:0,0:0:0:0:
44,246,124454,5,0,3:0:0:0:
44,246,124561,1,8,3:0:0:0:
54,314,124669,2,0,P|87:300|101:290,1,33.7500012874604,8|4,3:0|3:0,0:0:0:0:
144,261,124883,6,2,P|203:223|337:242,1,202.500007724762,4|0,1:2|0:0,0:1:0:0:
397,256,125311,6,0,L|406:158,1,90,10|0,1:2|0:2,0:0:0:0:
355,39,125923,2,0,L|346:128,1,90,2|2,0:2|0:2,0:0:0:0:
257,164,126632,6,0,L|242:166,1,11.25,2|0,0:2|0:0,0:0:0:0:
237,167,126717,2,0,P|204:168|174:144,1,67.5,2|0,0:2|0:2,0:0:0:0:
188,62,127313,2,0,P|228:55|269:86,1,90,2|0,0:2|0:2,0:0:0:0:
250,245,128035,6,0,L|265:241,1,11.25,2|0,0:2|0:0,0:0:0:0:
242,248,128135,2,0,L|235:320,1,67.5,2|0,0:2|0:2,0:0:0:0:
136,139,128835,2,0,L|150:228,1,90,2|2,0:2|0:2,0:2:0:0:
25,69,129780,2,0,L|29:81,1,11.25,2|0,0:2|0:0,0:0:0:0:
