osu file format v14

[General]
AudioFilename: audio.mp3
AudioLeadIn: 0
PreviewTime: 118471
Countdown: 0
SampleSet: Soft
StackLeniency: 0.9
Mode: 0
LetterboxInBreaks: 0
WidescreenStoryboard: 1

[Editor]
DistanceSpacing: 1.5
BeatDivisor: 4
GridSize: 32
TimelineZoom: 1.7

[Metadata]
Title:Niwaka Ame ni mo Makezu
TitleUnicode:ニワカ雨ニモ負ケズ
Artist:NICO Touches the Walls
ArtistUnicode:NICO Touches the Walls
Creator:iljaaz
Version:Will of Fire
Source:NARUTO-ナルト-疾風伝
Tags:ナルト Naruto うずまきクシナ uzumaki kushina 波風ミナト namikaze minato shippuden shippuuden not even giving in to the sudden FuJu rain op opening 13 full ver version anime japanese kowari j rock j-rock male vocalist vocals
BeatmapID:2572093
BeatmapSetID:1237462

[Difficulty]
HPDrainRate:6
CircleSize:4.2
OverallDifficulty:8.7
ApproachRate:9.3
SliderMultiplier:1.74
SliderTickRate:1

[Events]
//Background and Video events
0,0,"stan kushina.png",0,0
//Break Periods
//Storyboard Layer 0 (Background)
//Storyboard Layer 1 (Fail)
//Storyboard Layer 2 (Pass)
//Storyboard Layer 3 (Foreground)
//Storyboard Layer 4 (Overlay)
//Storyboard Sound Samples

[TimingPoints]
479,322.58064516129,4,2,4,44,1,0
479,-227.272727272727,4,2,4,44,0,0
4188,-227.272727272727,4,2,4,5,0,0
4349,-135.135135135135,4,2,4,54,0,0
5317,-96.1538461538461,4,2,4,74,0,0
26285,-119.047619047619,4,2,4,54,0,0
36608,-106.382978723404,4,2,4,64,0,0
45478,-87.7192982456139,4,2,4,84,0,0
46204,-106.382978723404,4,2,4,64,0,0
46930,-135.135135135135,4,2,4,54,0,0
52091,-96.1538461538461,4,2,4,74,0,0
56608,-227.272727272727,4,2,4,80,0,0
57253,-87.719298245614,4,2,4,84,0,0
66769,-64.9350649350649,4,2,4,84,0,0
66930,-87.719298245614,4,2,4,84,0,0
72414,-69.4444444444444,4,2,4,84,0,0
72737,-87.719298245614,4,2,4,84,0,0
77091,-185.185185185185,4,2,4,70,0,0
77575,-87.719298245614,4,2,4,84,0,0
77898,-96.153846153846,4,2,4,74,0,0
86849,-96.1538461538461,4,2,4,5,0,0
87091,-96.153846153846,4,2,4,74,0,0
87172,-96.1538461538461,4,2,4,5,0,0
87414,-96.153846153846,4,2,4,74,0,0
87575,-96.1538461538461,4,2,4,5,0,0
88220,-119.047619047619,4,2,4,54,0,0
98543,-106.382978723404,4,2,4,64,0,0
107414,-87.7192982456139,4,2,4,84,0,0
108866,-135.135135135135,4,2,4,54,0,0
114027,-96.1538461538461,4,2,4,74,0,0
119188,-87.719298245614,4,2,4,84,0,0
128704,-64.9350649350649,4,2,4,84,0,0
128865,-87.719298245614,4,2,4,84,0,0
142414,-106.382978723404,4,2,4,64,0,0
163059,-80.6451612903224,4,2,4,84,0,1
165640,317.460317460317,4,2,4,84,1,1
165640,-80.6451612903224,4,2,4,84,0,1
168220,322.58064516129,4,2,4,84,1,0
168220,-714.285714285714,4,2,4,84,0,0
168300,-714.285714285714,4,2,4,34,0,0
183058,375,4,2,4,44,1,0
183703,322.58064516129,4,2,4,54,1,0
183703,-135.135135135135,4,2,4,54,0,0
188864,-96.1538461538461,4,2,4,74,0,0
195961,-294.117647058824,4,2,4,80,0,0
196606,-87.719298245614,4,2,4,84,0,0
206122,-64.9350649350649,4,2,4,84,0,0
206283,-87.719298245614,4,2,4,84,0,0
219832,-119.047619047619,4,2,4,64,0,0
224993,-96.1538461538461,4,2,4,74,0,0
234509,-227.272727272727,4,2,4,70,0,0
234832,-96.1538461538461,4,2,4,70,0,0
234993,-69.4444444444444,4,2,4,84,0,0
235315,-96.1538461538461,4,2,4,74,0,0
253380,-96.1538461538461,4,2,4,84,0,0
256283,-96.1538461538461,4,2,4,5,0,0

[Colours]
Combo1 : 210,108,108
Combo2 : 255,0,0
Combo3 : 255,255,70
Combo4 : 223,80,32

[HitObjects]
428,271,479,6,0,B|445:229|504:221|504:221|488:294|390:295|410:277|331:285|307:359|307:359|257:293|321:242|321:266|399:209|394:6|123:-31|79:169|176:266|283:205|290:176,1,880.440026868897,2|0,0:0|0:0,0:0:0:0:
330,112,4349,6,0,P|322:83|314:29,1,64.3800015717774,2|0,0:0|0:0,0:0:0:0:
177,212,4672,1,2,0:0:0:0:
106,95,4833,2,0,P|102:132|91:169,1,64.3800015717774,2|0,0:0|0:0,0:0:0:0:
227,79,5156,5,2,3:2:0:0:
82,255,5317,2,0,P|42:254|4:213,1,90.4799994477539,10|2,0:0|0:0,0:0:0:0:
197,324,5640,6,0,B|299:311|260:395|387:380,1,180.959998895508,6|8,3:2|0:0,0:0:0:0:
471,184,6124,1,2,0:0:0:0:
471,184,6204,1,2,0:0:0:0:
471,184,6285,2,0,L|369:212,1,90.4799994477539,0|0,3:2|0:0,0:0:0:0:
489,311,6608,1,8,0:0:0:0:
340,358,6769,1,2,0:0:0:0:
393,227,6930,6,0,B|333:208|333:208|311:162|311:162|238:141,1,180.959998895508,2|8,3:2|0:0,0:0:0:0:
131,4,7414,2,0,P|172:26|234:38,1,90.4799994477539,2|0,0:0|3:2,0:0:0:0:
66,152,7737,1,0,3:2:0:0:
239,244,7898,2,0,P|195:252|149:273,1,90.4799994477539,8|0,0:0|0:0,0:0:0:0:
337,81,8220,6,0,P|403:144|382:240,1,180.959998895508,4|8,3:2|0:0,0:0:0:0:
216,359,8704,1,2,0:0:0:0:
140,260,8866,2,0,P|150:215|158:164,2,90.4799994477539,0|2|0,3:2|3:2|0:0,0:0:0:0:
55,357,9349,6,0,P|0:327|31:216,1,180.959998895508,8|0,0:0|3:2,0:0:0:0:
203,92,9833,2,0,P|158:81|113:64,1,90.4799994477539,8|2,0:0|0:0,0:0:0:0:
322,254,10156,2,0,P|312:298|308:345,1,90.4799994477539,0|2,3:2|3:2,0:0:0:0:
153,197,10478,1,10,0:0:0:0:
333,99,10640,1,2,3:2:0:0:
153,197,10801,6,0,B|252:205|210:280|316:291,1,180.959998895508,4|8,3:2|0:0,0:0:0:0:
456,124,11285,1,2,0:0:0:0:
456,124,11366,1,2,0:0:0:0:
456,124,11446,1,2,3:2:0:0:
329,188,11608,1,2,0:0:0:0:
469,289,11769,1,8,0:0:0:0:
435,220,11930,1,2,0:0:0:0:
300,288,12091,6,0,B|254:268|214:305|214:305|191:358|128:348,1,180.959998895508,2|8,3:2|0:0,0:0:0:0:
34,165,12575,1,2,0:0:0:0:
34,165,12656,1,2,0:0:0:0:
34,165,12737,2,0,P|25:212|10:259,1,90.4799994477539,2|2,3:2|3:2,0:0:0:0:
189,110,13059,1,8,0:0:0:0:
300,288,13220,2,0,P|295:267|293:234,1,45.239999723877,2|0,0:0|0:0,0:0:0:0:
161,35,13382,6,0,P|113:67|121:146,1,135.719999171631,4|0,3:2|0:0,0:0:0:0:
122,163,13704,1,8,0:0:0:0:
291,59,13866,1,2,0:0:0:0:
291,59,13946,1,2,0:0:0:0:
291,59,14027,2,0,P|333:50|390:31,1,90.4799994477539,0|0,3:2|3:2,0:0:0:0:
492,160,14349,1,2,0:0:0:0:
315,242,14511,6,0,B|411:248|371:324|483:340,1,180.959998895508,8|0,0:0|3:2,0:0:0:0:
462,335,14995,2,0,P|417:338|361:365,1,90.4799994477539,8|2,0:0|0:0,0:0:0:0:
480,253,15317,1,0,3:2:0:0:
330,121,15478,5,8,0:0:0:0:
330,121,15559,1,8,0:0:0:0:
330,121,15640,2,0,P|336:144|341:184,1,45.239999723877,4|0,3:2|3:0,0:0:0:0:
469,70,15801,2,0,P|471:44|483:14,1,45.239999723877,0|0,3:2|3:2,0:0:0:0:
315,242,15962,6,0,P|254:256|192:161,1,180.959998895508,4|8,3:2|0:0,0:0:0:0:
45,61,16446,1,2,0:0:0:0:
111,19,16608,2,0,P|155:35|205:47,1,90.4799994477539,2|2,3:2|0:0,0:0:0:0:
86,207,16930,2,0,P|40:217|-10:235,1,90.4799994477539,10|2,0:0|0:0,0:0:0:0:
179,135,17253,6,0,P|241:178|233:280,1,180.959998895508,2|8,3:2|0:0,0:0:0:0:
408,336,17737,2,0,L|390:234,2,90.4799994477539,2|0|0,0:0|3:2|3:2,0:0:0:0:
344,382,18220,1,8,0:0:0:0:
485,265,18382,1,2,0:0:0:0:
334,160,18543,6,0,B|239:149|266:237|154:216,1,180.959998895508,4|8,3:2|0:0,0:0:0:0:
79,82,19027,2,0,B|122:76|122:76|170:107,1,90.4799994477539,2|0,0:0|3:2,0:0:0:0:
19,240,19349,2,0,L|-2:335,1,90.4799994477539,2|2,3:2|0:0,0:0:0:0:
170,218,19672,6,0,B|233:236|233:236|255:281|255:281|330:301,1,180.959998895508,8|2,0:0|3:2,0:0:0:0:
461,183,20156,1,8,0:0:0:0:
348,77,20317,1,2,0:0:0:0:
348,77,20398,1,2,0:0:0:0:
348,77,20478,2,0,P|342:119|328:172,1,90.4799994477539,2|0,3:2|3:2,0:0:0:0:
475,308,20801,1,8,0:0:0:0:
323,252,20962,6,0,L|256:268,1,45.239999723877,0|0,3:2|0:0,0:0:0:0:
441,104,21124,2,0,B|349:86|395:22|282:3,1,180.959998895508,4|8,3:2|0:0,0:0:0:0:
144,144,21608,1,2,0:0:0:0:
94,88,21769,2,0,P|105:45|115:-5,1,90.4799994477539,0|2,3:2|0:0,0:0:0:0:
221,90,22091,1,8,0:0:0:0:
61,202,22253,1,2,0:0:0:0:
253,359,22414,6,0,P|274:302|198:220,1,180.959998895508,2|8,3:2|0:0,0:0:0:0:
28,134,22898,1,2,0:0:0:0:
130,288,23059,5,0,3:2:0:0:
298,176,23220,1,2,3:2:0:0:
359,228,23382,5,10,0:0:0:0:
494,298,23543,1,2,0:0:0:0:
422,189,23704,6,0,B|320:193|360:271|242:271,1,180.959998895508,4|8,3:2|0:0,0:0:0:0:
430,180,24349,6,0,P|420:134|413:64,1,90.4799994477539,2|2,3:2|3:2,0:0:0:0:
512,220,24672,1,8,0:0:0:0:
350,7,24833,6,0,P|420:72|523:60,1,180.959998895508,4|0,3:2|3:2,0:0:0:0:
329,217,25317,2,0,P|266:241|168:258,1,135.719999171631,8|0,0:0|0:0,0:0:0:0:
170,251,25640,5,0,3:2:0:0:
319,118,25801,2,0,P|295:112|262:98,1,45.239999723877,8|0,0:0|0:0,0:0:0:0:
366,384,25962,2,0,P|414:340|376:264,1,135.719999171631,2|0,3:2|0:0,0:0:0:0:
328,216,26285,6,0,B|275:203|275:203|258:178|258:178|184:159,1,146.159995539551,6|10,3:2|0:0,0:0:0:0:
198,162,26930,5,2,3:2:0:0:
27,280,27091,1,0,3:2:0:0:
50,212,27253,1,2,0:0:0:0:
157,326,27414,6,0,P|216:372|308:358,1,146.159995539551,10|2,0:0|3:2,0:0:0:0:
157,244,27898,1,8,0:0:0:0:
298,125,28059,2,0,P|300:164|312:204,1,73.0799977697755,2|0,0:0|3:2,0:0:0:0:
373,245,28382,1,2,3:2:0:0:
189,96,28543,6,0,P|197:64|204:13,1,73.0799977697755,8|0,0:0|0:0,0:0:0:0:
88,126,28866,1,2,3:2:0:0:
236,217,29027,1,0,3:2:0:0:
105,330,29188,2,0,P|69:340|29:358,1,73.0799977697755,10|0,0:0|0:0,0:0:0:0:
157,244,29511,5,2,3:2:0:0:
65,196,29672,2,0,P|96:210|146:222,1,73.0799977697755,0|2,3:2|0:0,0:0:0:0:
284,370,29995,2,0,P|353:374|411:300,1,146.159995539551,10|0,0:0|3:2,0:0:0:0:
512,207,30478,1,8,0:0:0:0:
470,145,30640,2,0,P|435:136|393:122,1,73.0799977697755,0|0,0:0|3:2,0:0:0:0:
499,284,30962,1,0,3:2:0:0:
373,361,31124,2,0,P|408:350|446:345,1,73.0799977697755,8|2,0:0|0:0,0:0:0:0:
306,191,31446,6,0,P|300:227|286:275,1,73.0799977697755,2|0,3:2|3:2,0:0:0:0:
472,70,31769,2,0,P|516:130|506:212,1,146.159995539551,10|2,0:0|3:2,0:0:0:0:
334,51,32253,1,0,3:2:0:0:
403,17,32414,1,2,0:0:0:0:
290,198,32575,6,0,P|235:201|192:102,1,146.159995539551,10|2,0:0|3:2,0:0:0:0:
290,198,33059,1,8,0:0:0:0:
158,25,33220,2,0,P|190:42|236:56,1,73.0799977697755,2|0,0:0|3:2,0:0:0:0:
122,199,33543,2,0,P|85:210|46:228,1,73.0799977697755,2|8,3:2|0:0,0:0:0:0:
0,174,33866,1,2,0:0:0:0:
137,39,34027,6,0,P|140:76|154:119,1,73.0799977697755,2|0,3:2|3:2,0:0:0:0:
276,269,34349,2,0,P|279:231|293:189,1,73.0799977697755,10|2,0:0|0:0,0:0:0:0:
123,348,34672,1,2,3:2:0:0:
217,175,34833,5,2,3:2:0:0:
375,302,34995,1,0,0:0:0:0:
254,384,35156,6,0,P|223:344|259:250,1,146.159995539551,10|0,0:0|3:2,0:0:0:0:
400,155,35640,2,0,P|436:168|485:183,1,73.0799977697755,8|0,0:0|0:0,0:0:0:0:
344,63,35962,1,0,3:2:0:0:
485,196,36124,1,0,3:2:0:0:
301,315,36285,1,8,0:0:0:0:
382,176,36446,1,2,0:0:0:0:
382,176,36527,1,2,0:0:0:0:
382,176,36608,6,0,B|294:184|323:109|213:118,2,163.559997504273,6|10|2,3:2|0:0|3:2,0:0:0:0:
301,315,37414,2,0,L|206:341,1,81.7799987521363,0|2,3:2|0:0,0:0:0:0:
292,186,37737,1,10,0:0:0:0:
168,273,37898,5,2,0:0:0:0:
120,215,38059,2,0,P|133:175|140:129,1,81.7799987521363,2|8,3:2|0:0,0:0:0:0:
314,23,38382,2,0,P|375:67|359:157,1,163.559997504273,2|2,0:0|3:2,0:0:0:0:
196,21,38866,2,0,P|154:11|98:-9,1,81.7799987521363,8|2,0:0|3:2,0:0:0:0:
292,186,39188,6,0,B|372:170|363:239|474:225,1,163.559997504273,2|10,3:2|0:0,0:0:0:0:
497,170,39672,1,0,0:0:0:0:
316,282,39833,1,2,3:2:0:0:
480,367,39995,1,0,3:2:0:0:
417,299,40156,1,2,0:0:0:0:
268,364,40317,6,0,P|184:367|130:290,1,163.559997504273,10|2,0:0|3:2,0:0:0:0:
40,142,40801,2,0,P|54:103|66:47,1,81.7799987521363,10|0,0:0|0:0,0:0:0:0:
233,213,41124,6,0,P|192:223|135:243,1,81.7799987521363,0|0,3:2|3:2,0:0:0:0:
282,85,41446,1,8,0:0:0:0:
156,18,41608,1,2,3:2:0:0:
156,18,41688,1,2,3:2:0:0:
156,18,41769,6,0,P|206:84|294:77,1,163.559997504273,6|10,3:2|0:0,0:0:0:0:
458,318,42414,5,2,3:2:0:0:
363,361,42575,2,0,P|403:350|451:345,1,81.7799987521363,0|2,3:2|0:0,0:0:0:0:
305,194,42898,2,0,P|248:245|280:349,1,163.559997504273,10|2,0:0|3:2,0:0:0:0:
416,187,43382,1,8,0:0:0:0:
508,234,43543,2,0,P|496:189|488:138,1,81.7799987521363,2|0,0:0|3:2,0:0:0:0:
342,76,43866,5,2,3:2:0:0:
450,0,44027,2,0,P|442:39|426:91,1,81.7799987521363,10|2,0:0|0:0,0:0:0:0:
233,220,44349,6,0,B|317:204|296:274|402:258,2,163.559997504273,2|10|2,3:2|0:0|3:2,0:0:0:0:
342,76,45156,2,0,P|304:87|249:97,1,81.7799987521363,0|2,3:2|0:0,0:0:0:0:
119,334,45478,6,0,P|56:284|98:163,1,198.359997578613,14|2,0:0|3:2,0:0:0:0:
76,100,45962,1,10,0:0:0:0:
386,259,46204,5,2,3:2:0:0:
401,279,46285,2,0,P|390:320|383:367,1,81.7799987521363,8|2,0:0|3:2,0:0:0:0:
236,222,46608,1,2,3:2:0:0:
208,295,46769,1,2,3:2:0:0:
434,143,46930,6,0,L|410:2,2,128.760003143555,6|2|2,3:2|3:2|3:2,0:0:0:0:
501,183,47898,1,2,3:2:0:0:
178,376,48140,5,8,3:0:0:0:
199,364,48220,2,0,L|225:219,1,128.760003143555,4|0,3:2|3:2,0:0:0:0:
295,337,48704,1,8,3:0:0:0:
133,217,48866,2,0,L|122:137,1,64.3800015717774,0|8,3:2|3:0,0:0:0:0:
261,58,49188,1,0,3:2:0:0:
261,58,49511,6,0,P|203:64|143:7,2,128.760003143555,6|2|2,3:2|3:2|3:2,0:0:0:0:
322,7,50478,5,2,3:2:0:0:
440,113,50640,1,8,3:0:0:0:
422,43,50801,5,0,3:2:0:0:
281,159,50962,2,0,L|268:243,1,64.3800015717774,8|0,3:0|3:2,0:0:0:0:
363,345,51285,1,0,3:2:0:0:
333,277,51446,1,0,3:2:0:0:
264,373,51608,5,2,3:2:0:0:
403,246,51769,1,10,0:0:0:0:
403,246,52091,6,0,P|331:245|282:146,2,180.959998895508,6|10|0,3:2|0:0|3:2,0:0:0:0:
460,190,52898,1,2,3:2:0:0:
256,298,53059,1,8,0:0:0:0:
417,263,53220,6,0,P|462:274|520:294,1,90.4799994477539,2|0,3:2|0:0,0:0:0:0:
305,125,53543,1,2,3:2:0:0:
255,184,53704,2,0,P|207:197|157:217,1,90.4799994477539,8|2,0:0|3:2,0:0:0:0:
370,8,54027,2,0,P|384:51|394:113,1,90.4799994477539,0|0,3:2|3:2,0:0:0:0:
511,298,54349,5,10,0:0:0:0:
338,199,54511,1,2,0:0:0:0:
479,101,54672,5,8,0:0:0:0:
283,262,54833,1,8,3:2:0:0:
283,262,55156,5,8,0:0:0:0:
121,52,55317,1,8,3:2:0:0:
121,52,55640,5,8,0:0:0:0:
338,199,55801,1,8,3:2:0:0:
338,199,56124,5,8,0:0:0:0:
103,363,56285,1,8,3:2:0:0:
56,297,56446,5,0,3:2:0:0:
56,297,56527,1,0,3:2:0:0:
56,297,56608,2,0,L|68:209,1,76.5600023364259,2|2,0:0|0:0,0:0:0:0:
66,221,57253,6,0,B|168:201|147:298|273:278,1,198.359997578613,6|8,3:2|0:0,0:0:0:0:
300,223,57737,1,0,0:0:0:0:
377,116,57898,5,2,3:2:0:0:
223,187,58059,1,0,3:2:0:0:
372,319,58220,1,10,0:0:0:0:
262,115,58382,6,0,P|271:65|279:8,1,99.1799987893067,2|0,3:2|0:0,0:0:0:0:
153,143,58704,1,2,3:2:0:0:
407,246,58866,2,0,P|395:199|388:136,1,99.1799987893067,8|0,0:0|0:0,0:0:0:0:
239,312,59188,2,0,P|190:325|135:344,1,99.1799987893067,0|0,3:2|3:2,0:0:0:0:
300,223,59511,5,8,0:0:0:0:
495,346,59672,1,2,0:0:0:0:
495,346,59753,1,2,0:0:0:0:
495,346,59833,6,0,P|441:313|461:180,1,198.359997578613,4|8,3:2|0:0,0:0:0:0:
512,232,60317,1,0,0:0:0:0:
381,47,60478,2,0,P|429:72|499:85,1,99.1799987893067,2|0,3:2|3:2,0:0:0:0:
300,222,60801,1,8,0:0:0:0:
177,47,60962,6,0,P|167:97|151:147,1,99.1799987893067,2|2,3:2|0:0,0:0:0:0:
316,315,61285,1,2,3:2:0:0:
362,188,61446,2,0,P|296:175|198:261,1,198.359997578613,8|0,0:0|3:2,0:0:0:0:
72,362,61930,1,0,3:2:0:0:
294,301,62091,5,10,0:0:0:0:
130,135,62253,1,2,0:0:0:0:
130,135,62333,1,2,0:0:0:0:
130,135,62414,6,0,P|172:151|239:168,1,99.1799987893067,4|0,3:2|3:2,0:0:0:0:
63,372,62737,2,0,B|28:278|28:278|132:231,1,198.359997578613,8|0,0:0|3:2,0:0:0:0:
214,335,63220,1,0,3:2:0:0:
41,180,63382,5,8,0:0:0:0:
231,53,63543,2,0,P|236:100|248:158,1,99.1799987893067,2|2,0:0|3:2,0:0:0:0:
121,43,63866,1,2,3:2:0:0:
314,257,64027,6,0,P|369:224|343:96,1,198.359997578613,8|0,0:0|3:2,0:0:0:0:
217,238,64511,1,0,3:2:0:0:
368,353,64672,5,10,0:0:0:0:
235,145,64833,1,2,0:0:0:0:
235,145,64914,1,2,0:0:0:0:
235,145,64995,6,0,P|208:155|161:162,1,49.5899993946533,4|0,3:2|0:0,0:0:0:0:
370,14,65156,1,8,0:0:0:0:
386,63,65237,1,8,0:0:0:0:
355,104,65317,1,8,0:0:0:0:
465,259,65478,6,0,P|492:269|539:276,1,49.5899993946533,4|0,3:2|0:0,0:0:0:0:
332,127,65639,1,8,0:0:0:0:
320,176,65720,1,8,0:0:0:0:
347,217,65800,1,8,0:0:0:0:
250,370,65962,6,0,P|223:380|176:387,1,49.5899993946533,4|0,3:2|0:0,0:0:0:0:
374,234,66123,1,8,0:0:0:0:
387,281,66204,1,8,0:0:0:0:
359,324,66284,1,8,0:0:0:0:
255,132,66446,6,0,L|241:71,1,49.5899993946533,6|0,3:2|0:0,0:0:0:0:
465,259,66608,2,0,L|522:276,1,49.5899993946533,2|0,0:0|0:0,0:0:0:0:
250,370,66769,2,0,P|231:345|242:311,1,66.9899986711579,12|0,0:0|0:0,0:0:0:0:
300,272,66930,6,0,B|404:283|351:363|491:381,1,198.359997578613,4|8,3:2|0:0,0:0:0:0:
288,177,67414,1,2,0:0:0:0:
288,177,67495,1,2,0:0:0:0:
288,177,67575,6,0,L|246:391,1,198.359997578613,4|8,3:2|0:0,0:0:0:0:
337,313,68059,1,0,0:0:0:0:
146,198,68220,6,0,P|103:227|41:234,1,99.1799987893067,2|0,3:2|3:2,0:0:0:0:
245,73,68543,1,8,0:0:0:0:
52,230,68704,6,0,B|156:209|120:312|236:300,1,198.359997578613,2|2,3:2|3:2,0:0:0:0:
125,77,69188,2,0,P|174:65|231:46,1,99.1799987893067,8|0,0:0|3:2,3:2:0:0:
52,230,69511,2,0,P|40:278|26:330,1,99.1799987893067,0|0,3:2|3:2,0:0:0:0:
272,239,69833,6,0,P|291:180|225:124,1,148.76999818396,10|0,0:0|0:0,0:0:0:0:
193,187,70156,6,0,L|212:405,1,198.359997578613,6|8,3:2|0:0,0:0:0:0:
128,298,70640,1,0,0:0:0:0:
323,160,70801,6,0,P|365:184|433:202,1,99.1799987893067,2|0,3:2|3:2,0:0:0:0:
220,49,71124,1,8,0:0:0:0:
41,215,71285,6,0,P|33:244|23:280,1,49.5899993946533,4|0,3:2|0:0,0:0:0:0:
220,49,71608,6,0,P|217:24|206:-1,1,49.5899993946533,4|0,3:2|0:0,0:0:0:0:
413,200,71930,6,0,P|475:264|452:364,1,198.359997578613,6|0,3:2|3:2,0:0:0:0:
283,218,72414,6,0,L|306:80,1,125.280003058594,10|2,0:0|0:0,0:0:0:0:
413,200,72737,1,6,3:2:0:0:
239,316,72898,1,2,0:0:0:0:
298,241,73059,6,0,B|396:256|356:342|469:363,1,198.359997578613,8|0,0:0|3:2,0:0:0:0:
303,94,73543,2,0,P|350:80|402:54,1,99.1799987893067,2|10,3:2|0:0,0:0:0:0:
159,287,73866,6,0,P|152:334|141:394,1,99.1799987893067,0|0,3:2|0:2,0:2:0:0:
76,236,74188,1,0,3:2:0:0:
206,136,74349,2,0,P|218:179|222:246,1,99.1799987893067,8|0,0:0|0:2,0:2:0:0:
25,378,74672,2,0,P|13:335|9:268,1,99.1799987893067,0|0,3:2|3:2,0:2:0:0:
144,190,74995,1,8,0:0:0:0:
331,322,75156,1,2,0:0:0:0:
331,322,75237,1,2,0:0:0:0:
331,322,75317,6,0,P|377:335|447:360,1,99.1799987893067,4|0,3:2|3:2,0:0:0:0:
331,221,75640,2,0,B|277:199|242:246|242:246|216:315|150:295,1,198.359997578613,12|0,0:0|3:2,0:0:0:0:
404,150,76124,1,8,3:0:0:0:
234,24,76285,1,2,3:2:0:0:
331,221,76446,6,0,B|363:287|276:310|246:292|212:223|245:147|316:114,1,297.53999636792,4|0,3:2|0:0,0:0:0:0:
357,58,77091,6,0,P|391:95|376:152,1,93.9600022939454,2|2,0:0|3:2,0:0:0:0:
217,225,77575,6,0,L|96:244,1,99.1799987893067,10|2,0:0|0:0,0:0:0:0:
331,322,77898,6,0,B|427:307|389:388|510:373,1,180.959998895508,4|8,3:2|0:0,0:0:0:0:
380,169,78382,1,2,0:0:0:0:
380,169,78462,1,2,0:0:0:0:
380,169,78543,2,0,P|423:159|485:137,1,90.4799994477539,2|2,3:2|0:0,0:0:0:0:
313,374,78866,2,0,P|306:330|281:267,1,90.4799994477539,10|2,0:0|0:0,0:0:0:0:
132,85,79188,6,0,P|58:134|66:220,1,180.959998895508,2|8,3:2|0:0,0:0:0:0:
177,311,79672,1,2,0:0:0:0:
177,311,79753,1,2,0:0:0:0:
177,311,79833,2,0,P|133:319|79:338,1,90.4799994477539,0|0,3:2|3:2,0:0:0:0:
224,185,80156,2,0,L|326:212,1,90.4799994477539,8|0,0:0|0:0,0:0:0:0:
146,120,80478,6,0,P|107:72|139:9,1,135.719999171631,4|0,3:2|0:0,0:0:0:0:
160,0,80801,1,8,0:0:0:0:
311,208,80962,2,0,P|299:250|293:304,1,90.4799994477539,0|0,0:0|3:2,0:0:0:0:
425,179,81285,1,2,3:2:0:0:
294,94,81446,1,2,0:0:0:0:
390,2,81608,6,0,P|400:41|403:96,1,90.4799994477539,10|0,0:0|0:0,0:0:0:0:
284,193,81930,1,0,3:2:0:0:
466,324,82091,1,8,0:0:0:0:
380,272,82253,1,2,0:0:0:0:
380,272,82333,1,2,0:0:0:0:
380,272,82414,6,0,P|336:286|290:297,1,90.4799994477539,0|2,3:2|0:0,0:0:0:0:
449,161,82737,1,8,0:0:0:0:
254,1,82898,1,2,3:2:0:0:
254,1,82978,1,0,3:2:0:0:
254,1,83059,6,0,B|349:2|304:88|432:93,1,180.959998895508,4|8,3:2|0:0,0:0:0:0:
266,173,83543,1,2,0:0:0:0:
380,272,83704,2,0,P|368:316|363:368,1,90.4799994477539,0|2,3:2|0:0,0:0:0:0:
479,260,84027,1,10,0:0:0:0:
345,381,84188,1,2,0:0:0:0:
345,381,84269,1,2,0:0:0:0:
345,381,84349,6,0,P|282:323|316:231,1,180.959998895508,2|8,3:2|0:0,0:0:0:0:
179,116,84833,1,2,0:0:0:0:
322,8,84995,2,0,L|225:29,1,90.4799994477539,0|0,3:2|3:2,0:0:0:0:
346,138,85317,1,8,0:0:0:0:
376,69,85478,1,2,0:0:0:0:
241,196,85640,6,0,B|304:213|304:213|328:257|328:257|404:276,2,180.959998895508,4|8|0,3:2|0:0|3:2,0:0:0:0:
129,357,86446,2,0,P|173:359|217:316,1,90.4799994477539,0|8,3:2|0:0,0:2:0:0:
87,163,86769,6,0,L|67:221,1,45.239999723877,4|0,3:2|0:0,0:0:0:0:
261,45,87091,6,0,L|272:97,1,45.239999723877,4|0,3:2|0:0,0:0:0:0:
84,3,87414,6,0,B|50:10|50:10|37:23|37:23|-15:34,1,90.4799994477539,4|0,3:2|0:0,0:0:0:0:
342,274,88220,6,0,B|421:265|403:320|497:310,1,146.159995539551,6|10,3:2|0:0,0:0:0:0:
479,311,88866,6,0,P|481:349|495:394,1,73.0799977697755,2|0,3:2|3:2,0:0:0:0:
342,274,89188,1,2,0:0:0:0:
433,185,89349,6,0,P|466:198|506:209,1,73.0799977697755,8|0,0:0|0:0,0:0:0:0:
376,347,89672,1,0,3:2:0:0:
479,311,89833,1,8,0:0:0:0:
328,177,89995,2,0,P|324:214|312:260,1,73.0799977697755,2|0,0:0|3:2,0:0:0:0:
422,109,90317,1,2,3:2:0:0:
502,208,90478,2,0,P|494:175|490:124,1,73.0799977697755,8|0,0:0|0:0,0:0:0:0:
301,272,90801,6,0,P|266:280|218:297,1,73.0799977697755,2|0,3:2|3:2,0:0:0:0:
331,148,91124,2,0,B|259:130|290:92|196:73,1,146.159995539551,10|2,0:0|3:2,0:0:0:0:
329,286,91608,2,0,P|335:324|348:368,1,73.0799977697755,2|0,3:2|0:0,0:0:0:0:
131,273,91930,6,0,P|110:211|169:158,1,146.159995539551,10|0,0:0|3:2,0:0:0:0:
289,76,92414,1,8,0:0:0:0:
219,46,92575,1,2,0:0:0:0:
338,187,92737,2,0,P|374:181|415:165,1,73.0799977697755,0|0,3:2|3:2,0:0:0:0:
248,313,93059,2,0,P|242:348|230:390,1,73.0799977697755,8|2,0:0|0:0,0:0:0:0:
340,277,93382,5,2,3:2:0:0:
191,173,93543,1,0,3:2:0:0:
143,227,93704,2,0,B|103:215|71:245|71:245|50:289|-2:284,1,146.159995539551,8|2,0:0|3:2,0:0:0:0:
242,110,94188,6,0,P|251:77|254:23,1,73.0799977697755,2|0,3:2|0:0,0:0:0:0:
336,189,94511,2,0,P|377:233|474:239,1,146.159995539551,10|2,0:0|3:2,0:0:0:0:
305,367,94995,2,0,L|207:388,1,73.0799977697755,8|2,0:0|0:0,0:0:0:0:
341,294,95317,1,0,3:2:0:0:
446,384,95478,1,0,3:2:0:0:
341,294,95640,2,0,L|355:208,1,73.0799977697755,8|2,0:0|0:0,0:0:0:0:
482,108,95962,6,0,P|502:144|488:199,1,73.0799977697755,2|0,3:2|3:2,0:0:0:0:
341,294,96285,1,8,0:0:0:0:
446,384,96446,2,0,P|410:371|361:358,1,73.0799977697755,2|2,0:0|3:2,0:0:0:0:
491,284,96769,1,2,3:2:0:0:
366,52,97091,6,0,P|414:108|488:104,1,146.159995539551,10|0,0:0|3:2,0:0:0:0:
274,187,97575,2,0,L|262:268,1,73.0799977697755,8|0,0:0|0:0,0:0:0:0:
175,142,97898,1,0,3:2:0:0:
357,258,98059,5,12,0:0:0:0:
175,365,98220,1,8,0:0:0:0:
270,268,98382,5,0,3:2:0:0:
270,268,98462,1,0,3:2:0:0:
270,268,98543,6,0,B|355:253|336:332|456:317,2,163.559997504273,6|10|2,3:2|0:0|3:2,0:0:0:0:
149,142,99349,1,0,3:2:0:0:
300,29,99511,2,0,P|261:45|214:50,1,81.7799987521363,10|2,0:0|3:2,0:0:0:0:
394,147,99833,6,0,P|396:186|410:236,1,81.7799987521363,2|0,0:0|3:2,0:0:0:0:
232,352,100156,1,8,0:0:0:0:
185,291,100317,2,0,P|196:251|202:207,1,81.7799987521363,2|0,0:0|3:2,0:0:0:0:
329,319,100640,1,0,3:2:0:0:
427,210,100801,2,0,P|417:169|414:119,1,81.7799987521363,8|0,0:0|0:0,0:0:0:0:
498,277,101124,5,2,3:2:0:0:
334,128,101285,1,0,3:2:0:0:
278,183,101446,2,0,P|243:199|191:212,1,81.7799987521363,10|0,0:0|0:0,0:0:0:0:
326,52,101769,1,0,3:2:0:0:
427,210,101930,2,0,P|416:251|410:304,1,81.7799987521363,2|8,3:2|0:0,0:0:0:0:
185,197,102253,6,0,P|144:148|190:45,1,163.559997504273,2|2,3:2|3:2,0:0:0:0:
280,183,102737,1,8,0:0:0:0:
135,278,102898,1,2,0:0:0:0:
278,364,103059,2,0,P|320:373|374:390,1,81.7799987521363,0|0,3:2|3:2,0:0:0:0:
135,278,103382,6,0,B|92:291|92:291|77:310|77:310|11:329,1,122.669998128204,8|0,0:0|0:0,0:0:0:0:
0,312,103704,6,0,P|11:275|16:220,1,81.7799987521363,2|0,3:2|3:2,0:0:0:0:
166,58,104027,2,0,P|127:77|70:92,1,81.7799987521363,10|0,0:0|0:0,0:0:0:0:
233,218,104349,1,0,3:2:0:0:
162,183,104511,1,0,3:2:0:0:
290,58,104672,1,8,0:0:0:0:
390,134,104833,6,0,P|394:173|408:221,1,81.7799987521363,2|0,3:2|0:0,0:0:0:0:
215,10,105156,2,0,P|209:50|194:97,1,81.7799987521363,2|8,3:2|0:0,0:0:0:0:
374,18,105478,2,0,P|414:5|463:-1,1,81.7799987521363,2|0,0:0|3:2,0:0:0:0:
307,138,105801,5,2,3:2:0:0:
469,272,105962,2,0,P|492:236|475:185,1,81.7799987521363,10|2,0:0|3:2,0:0:0:0:
286,334,106285,6,0,P|247:341|189:363,1,81.7799987521363,2|0,3:2|3:2,0:2:0:0:
42,179,106608,2,0,B|136:153|136:153|109:189|114:236,1,163.559997504273,10|2,0:0|3:2,0:0:0:0:
26,324,107091,1,2,3:2:0:0:
192,211,107253,5,2,0:0:0:0:
362,384,107414,2,0,P|325:357|337:214,1,198.359997578613,8|8,0:0|0:0,0:0:0:0:
457,103,107898,1,0,3:2:0:0:
353,44,108059,1,8,3:0:0:0:
474,197,108220,1,8,3:2:0:0:
408,234,108382,1,2,3:2:0:0:
466,84,108543,1,2,3:2:0:0:
270,321,108785,5,0,3:2:0:0:
254,336,108866,2,0,B|209:327|209:327|191:299|191:299|137:287,1,128.760003143555,6|2,3:2|3:2,0:0:0:0:
33,121,109511,6,0,L|165:89,1,128.760003143555,8|0,0:0|3:2,0:0:0:0:
54,200,109995,1,8,3:0:0:0:
163,269,110156,5,2,3:2:0:0:
33,121,110317,2,0,L|49:38,1,64.3800015717774,2|0,3:2|3:2,0:0:0:0:
106,11,110640,1,2,0:0:0:0:
260,203,110801,6,0,L|277:338,1,128.760003143555,8|2,0:0|3:2,0:0:0:0:
461,158,111285,1,0,3:2:0:0:
461,158,111366,1,0,3:2:0:0:
461,158,111446,6,0,P|415:111|353:119,1,128.760003143555,4|2,3:2|3:2,0:0:0:0:
478,236,111930,1,2,0:0:0:0:
367,335,112091,2,0,P|424:321|501:311,1,128.760003143555,8|2,0:0|3:2,0:0:0:0:
353,222,112575,1,8,3:0:0:0:
461,158,112737,5,2,3:2:0:0:
273,280,112898,2,0,L|202:257,1,64.3800015717774,10|0,0:0|3:2,0:0:0:0:
334,361,113220,1,2,3:2:0:0:
461,158,113382,6,0,L|474:228,1,64.3800015717774,8|0,3:2|3:2,0:0:0:0:
309,64,113704,1,10,0:0:0:0:
400,0,113866,1,0,3:2:0:0:
400,0,113946,1,0,3:2:0:0:
400,0,114027,6,0,L|371:185,1,180.959998895508,4|10,3:2|0:0,0:0:0:0:
211,260,114511,1,2,0:0:0:0:
292,152,114672,5,0,3:2:0:0:
416,309,114833,1,2,3:2:0:0:
472,221,114995,5,8,0:0:0:0:
310,377,115156,2,0,B|293:336|293:336|311:279,1,90.4799994477539,2|0,3:2|0:0,0:0:0:0:
160,131,115478,1,2,3:2:0:0:
94,172,115640,2,0,L|79:272,1,90.4799994477539,8|2,0:0|0:0,0:0:0:0:
183,348,115962,1,0,3:2:0:0:
113,384,116124,1,2,3:2:0:0:
211,260,116285,1,8,0:0:0:0:
65,156,116446,1,2,0:0:0:0:
194,61,116608,5,8,3:2:0:0:
49,281,116769,1,8,3:2:0:0:
49,281,117091,5,8,3:2:0:0:
351,187,117253,1,8,3:2:0:0:
351,187,117575,5,8,3:2:0:0:
91,79,117737,1,8,3:2:0:0:
91,79,118059,5,8,3:2:0:0:
294,8,118220,1,8,3:2:0:0:
203,163,118382,1,2,0:0:0:0:
203,163,118462,1,2,0:0:0:0:
203,163,118543,6,0,L|189:97,1,45.239999723877,8|0,0:0|0:0,0:0:0:0:
376,214,118704,1,8,0:0:0:0:
376,214,118785,1,8,0:0:0:0:
376,214,118866,2,0,L|365:276,1,45.239999723877,8|8,0:0|0:0,0:0:0:0:
192,384,119027,2,0,L|181:327,1,45.239999723877,8|8,0:0|0:0,0:0:0:0:
284,237,119188,6,0,P|362:235|440:331,2,198.359997578613,4|8|2,3:2|0:0|3:2,0:0:0:0:
114,95,119995,1,0,3:2:0:0:
275,161,120156,1,8,0:0:0:0:
119,295,120317,6,0,P|69:307|21:328,1,99.1799987893067,2|0,3:2|0:0,0:0:0:0:
166,191,120640,1,2,3:2:0:0:
54,232,120801,6,0,B|157:236|105:332|227:340,1,198.359997578613,8|0,0:0|3:2,0:0:0:0:
347,220,121285,1,0,3:2:0:0:
206,116,121446,5,10,0:0:0:0:
326,293,121608,1,2,0:0:0:0:
206,116,121769,6,0,P|158:132|102:147,1,99.1799987893067,2|0,3:2|3:2,0:0:0:0:
283,0,122091,2,0,P|340:45|329:123,1,148.76999818396,8|0,0:0|0:0,0:0:0:0:
313,141,122414,1,2,3:2:0:0:
419,238,122575,2,0,P|466:253|521:276,1,99.1799987893067,0|8,3:2|0:0,0:0:0:0:
334,384,122898,6,0,P|313:340|330:289,1,99.1799987893067,2|2,3:2|3:2,0:0:0:0:
483,175,123220,1,2,3:2:0:0:
289,4,123382,6,0,B|212:29|212:29|159:73|187:137|254:121,1,198.359997578613,8|0,0:0|3:2,0:0:0:0:
289,4,123866,1,0,3:2:0:0:
365,156,124027,5,10,0:0:0:0:
190,21,124188,1,2,0:0:0:0:
54,210,124349,6,0,P|46:261|32:321,1,99.1799987893067,6|0,3:2|3:2,0:0:0:0:
237,137,124672,2,0,P|246:233|265:340,1,198.359997578613,8|2,0:0|3:2,0:0:0:0:
157,207,125156,1,2,3:2:0:0:
349,71,125317,1,10,0:0:0:0:
398,146,125478,6,0,P|445:155|501:179,2,99.1799987893067,2|0|0,3:2|0:0|3:2,0:0:0:0:
284,3,125962,2,0,P|215:50|255:179,1,198.359997578613,8|0,0:0|3:2,0:0:0:0:
418,29,126446,1,0,3:2:0:0:
210,165,126608,6,0,B|153:179|153:179|137:207|137:207|60:224,1,148.76999818396,8|0,0:0|0:0,0:0:0:0:
57,242,126930,6,0,L|129:224,1,49.5899993946533,4|0,3:2|0:0,0:0:0:0:
254,379,127090,1,8,0:0:0:0:
277,341,127171,1,8,0:0:0:0:
263,298,127252,1,8,0:0:0:0:
420,160,127414,6,0,L|348:142,1,49.5899993946533,4|0,3:2|0:0,0:0:0:0:
237,276,127574,1,8,0:0:0:0:
213,238,127655,1,8,0:0:0:0:
228,200,127736,1,8,0:0:0:0:
56,77,127898,6,0,L|128:59,1,49.5899993946533,4|0,3:2|0:0,0:0:0:0:
251,174,128058,1,8,0:0:0:0:
276,134,128140,1,8,0:0:0:0:
261,94,128220,1,8,0:0:0:0:
158,315,128382,6,0,L|142:382,1,49.5899993946533,4|0,3:2|0:0,0:0:0:0:
316,230,128543,2,0,L|383:208,1,49.5899993946533,2|0,0:0|0:0,0:0:0:0:
104,64,128704,2,0,P|93:99|124:142,1,66.9899986711579,8|0,0:0|0:0,0:0:0:0:
211,237,128866,6,0,B|315:225|282:330|398:317,1,198.359997578613,6|8,3:2|0:0,0:0:0:0:
480,176,129349,1,8,0:0:0:0:
480,176,129430,1,8,0:0:0:0:
480,176,129511,6,0,B|371:135|371:135|408:172|398:229,1,198.359997578613,4|8,3:2|0:0,0:0:0:0:
506,307,129995,1,0,0:0:0:0:
304,204,130156,6,0,P|257:223|199:239,1,99.1799987893067,2|0,3:2|3:2,0:0:0:0:
345,108,130478,1,8,0:0:0:0:
278,1,130640,6,0,B|245:39|245:39|262:95,1,99.1799987893067,2|0,3:2|0:0,0:0:0:0:
400,209,130962,1,2,3:2:0:0:
445,132,131124,6,0,P|370:116|306:220,1,198.359997578613,10|0,0:0|3:2,0:0:0:0:
130,348,131608,1,0,3:2:0:0:
54,251,131769,2,0,P|66:204|75:141,1,99.1799987893067,10|0,0:0|0:0,0:0:0:0:
216,302,132091,6,0,P|273:353|363:332,1,148.76999818396,2|0,3:2|0:0,0:0:0:0:
406,331,132414,2,0,B|326:302|326:302|269:318|247:375|310:404,1,198.359997578613,8|0,0:0|3:2,0:0:0:0:
413,238,132898,1,0,3:2:0:0:
238,131,133059,1,8,0:0:0:0:
378,21,133220,6,0,L|450:-1,1,49.5899993946533,4|0,3:2|0:0,0:0:0:0:
234,230,133543,6,0,L|219:295,1,49.5899993946533,4|0,3:2|0:0,0:0:0:0:
172,74,133866,6,0,B|113:85|70:38|87:37|52:-17|-9:5,1,198.359997578613,6|0,3:2|3:2,0:0:0:0:
172,175,134349,1,8,0:0:0:0:
24,277,134511,1,2,0:0:0:0:
24,277,134591,1,2,0:0:0:0:
24,277,134672,6,0,P|38:229|50:161,1,99.1799987893067,4|0,3:2|0:0,0:0:0:0:
175,323,134995,2,0,P|229:368|322:352,1,148.76999818396,8|0,0:0|0:0,0:0:0:0:
323,330,135317,1,0,3:2:0:0:
172,175,135478,1,2,3:2:0:0:
302,72,135640,5,10,0:0:0:0:
83,191,135801,2,0,B|185:168|167:269|292:241,1,198.359997578613,2|0,3:2|3:2,0:2:0:0:
129,95,136285,1,8,0:0:0:0:
264,0,136446,5,2,0:0:0:0:
264,0,136527,1,2,0:0:0:0:
264,0,136608,2,0,P|274:48|281:124,1,99.1799987893067,0|0,3:2|3:2,0:0:0:0:
104,270,136930,1,8,0:0:0:0:
203,142,137091,5,2,0:0:0:0:
355,300,137253,2,0,P|402:317|465:349,1,99.1799987893067,0|0,3:2|3:2,0:0:0:0:
300,210,137575,6,0,P|219:277|268:374,1,198.359997578613,8|0,0:0|3:2,0:0:0:0:
434,202,138059,1,2,3:2:0:0:
280,97,138220,1,10,0:0:0:0:
434,202,138382,6,0,P|441:243|447:312,1,99.1799987893067,2|0,3:2|0:0,0:0:0:0:
300,210,138704,1,0,3:2:0:0:
456,94,138866,1,8,0:0:0:0:
428,177,139027,5,2,0:0:0:0:
245,17,139188,2,0,P|201:36|141:47,1,99.1799987893067,0|0,3:2|3:2,0:2:0:0:
8,187,139511,6,0,P|72:170|129:232,1,148.76999818396,8|0,0:0|0:0,0:0:0:0:
136,250,139833,5,8,0:0:0:0:
278,344,139995,1,0,3:2:0:0:
180,384,140156,1,0,3:2:0:0:
312,178,140317,1,8,0:0:0:0:
317,166,140801,5,8,0:0:0:0:
185,372,140962,1,0,3:2:0:0:
283,332,141123,1,0,3:2:0:0:
141,238,141285,1,8,0:0:0:0:
141,238,141769,5,8,0:0:0:0:
404,383,141930,1,8,0:0:0:0:
138,34,142414,6,0,P|59:22|-6:87,1,163.559997504273,4|8,3:2|0:0,0:0:0:0:
138,34,143059,6,0,P|173:50|227:60,1,81.7799987521363,0|0,3:2|3:2,0:0:0:0:
322,169,143382,1,0,0:0:0:0:
219,262,143543,2,0,P|294:248|391:240,1,163.559997504273,8|2,0:0|3:2,0:0:0:0:
241,141,144027,1,10,0:0:0:0:
385,62,144188,1,2,0:0:0:0:
241,141,144349,5,2,3:2:0:0:
385,255,144511,1,2,3:2:0:0:
221,352,144672,1,10,0:0:0:0:
301,269,144833,1,2,0:0:0:0:
301,269,144914,1,2,0:0:0:0:
301,269,144995,6,0,L|315:367,1,81.7799987521363,0|0,3:2|3:2,0:0:0:0:
120,159,145317,2,0,B|152:125|199:142|199:142|222:186|289:187,1,163.559997504273,8|0,0:0|3:2,0:0:0:0:
122,299,145801,2,0,P|78:310|36:324,1,81.7799987521363,0|2,3:2|0:0,0:0:0:0:
273,107,146124,6,0,P|286:171|304:296,1,163.559997504273,10|0,0:0|3:2,0:0:0:0:
189,174,146608,1,8,0:0:0:0:
355,57,146769,1,0,0:0:0:0:
405,110,146930,2,0,P|396:147|388:200,1,81.7799987521363,0|0,3:2|3:2,0:0:0:0:
278,26,147253,2,0,P|237:14|190:-5,1,81.7799987521363,8|2,0:0|0:0,0:0:0:0:
144,43,147495,1,2,0:0:0:0:
132,60,147575,6,0,P|88:71|44:89,1,81.7799987521363,2|0,3:2|3:2,0:0:0:0:
209,201,147898,2,0,P|250:264|224:353,1,163.559997504273,10|2,0:0|3:2,0:0:0:0:
102,236,148382,2,0,P|112:195|117:136,1,81.7799987521363,2|0,3:2|0:0,0:0:0:0:
230,345,148704,6,0,B|309:365|309:365|360:328|316:278,1,163.559997504273,8|0,0:0|3:2,0:0:0:0:
429,186,149188,1,8,0:0:0:0:
367,139,149349,2,0,P|327:156|280:170,1,81.7799987521363,2|0,0:0|3:2,0:0:0:0:
427,279,149672,1,0,3:2:0:0:
270,150,149833,2,0,P|262:109|297:77,1,81.7799987521363,8|2,0:0|0:0,0:0:0:0:
422,4,150156,5,0,3:2:0:0:
455,107,150317,1,0,3:2:0:0:
367,139,150478,5,0,3:2:0:0:
325,276,150640,1,0,3:2:0:0:
508,189,150801,5,8,0:0:0:0:
286,80,150962,2,0,L|206:99,1,81.7799987521363,8|0,0:0|0:0,0:0:0:0:
332,8,151285,5,0,3:2:0:0:
204,104,151446,2,0,P|216:141|226:194,1,81.7799987521363,0|8,0:0|0:0,0:0:0:0:
67,130,151769,1,0,3:2:0:0:
121,77,151930,1,0,3:2:0:0:
159,246,152091,2,0,P|119:234|78:216,2,81.7799987521363,8|0|4,0:0|3:2|3:2,0:0:0:0:
166,238,152737,6,0,P|111:224|63:305,1,163.559997504273,4|10,3:2|0:0,0:0:0:0:
21,367,153220,1,2,0:0:0:0:
214,305,153382,5,2,3:2:0:0:
297,384,153543,2,0,P|337:370|398:357,1,81.7799987521363,2|2,3:2|0:0,0:0:0:0:
496,171,153866,5,8,0:0:0:0:
405,110,154027,2,0,P|443:126|495:138,1,81.7799987521363,2|2,0:0|3:2,0:0:0:0:
347,276,154349,2,0,P|311:224|329:171,1,122.669998128204,10|0,0:0|0:0,0:0:0:0:
328,171,154672,6,0,P|293:190|249:199,1,81.7799987521363,2|0,3:2|3:2,0:0:0:0:
372,283,154995,2,0,B|463:295|424:351|520:370,1,163.559997504273,8|0,0:0|3:2,0:0:0:0:
403,208,155478,5,2,3:2:0:0:
403,208,155559,1,2,0:0:0:0:
403,208,155640,1,10,0:0:0:0:
224,334,155801,1,8,0:0:0:0:
372,283,155962,5,8,0:0:0:0:
182,152,156124,1,0,3:2:0:0:
332,47,156285,1,0,3:2:0:0:
248,0,156446,5,10,0:0:0:0:
303,119,156608,1,2,0:0:0:0:
175,170,156769,5,2,3:2:0:0:
137,303,156930,1,10,0:0:0:0:
320,372,157172,5,8,0:0:0:0:
309,384,157253,2,8,P|300:343|296:300,1,81.7799987521363
182,152,157575,2,0,P|218:169|267:187,1,81.7799987521363,2|0,3:2|0:0,3:2:0:0:
148,318,157898,6,0,B|60:310|86:379|-3:367,2,163.559997504273,6|10|2,3:2|0:0|3:2,0:0:0:0:
28,182,158704,2,0,P|18:223|11:267,1,81.7799987521363,2|0,3:2|0:0,0:0:0:0:
197,135,159027,2,0,P|212:65|143:21,1,163.559997504273,10|0,0:0|3:2,0:0:0:0:
267,261,159511,2,0,P|308:272|356:293,1,81.7799987521363,8|2,0:0|0:0,0:0:0:0:
241,347,159833,5,0,3:2:0:0:
405,240,159995,1,0,3:2:0:0:
300,105,160156,2,0,P|307:145|312:200,1,81.7799987521363,8|0,0:0|0:0,0:0:0:0:
467,368,160478,6,0,P|487:334|472:285,1,81.7799987521363,2|0,3:2|3:2,0:0:0:0:
300,105,160801,5,8,0:0:0:0:
130,217,160962,1,8,0:0:0:0:
235,33,161124,5,8,0:0:0:0:
385,163,161285,1,2,3:2:0:0:
360,10,161446,5,2,3:2:0:0:
277,276,161608,2,0,P|256:241|272:186,1,81.7799987521363,8|0,0:0|3:2,0:0:0:0:
229,134,161930,1,0,3:2:0:0:
360,10,162091,5,8,0:0:0:0:
491,111,162253,2,0,L|463:254,1,122.669998128204,2|0,3:2|0:0,0:0:0:0:
461,258,162575,5,8,0:0:0:0:
247,378,162737,1,8,0:0:0:0:
247,378,163059,6,0,L|309:361,1,53.9399978600465,4|0,3:2|0:0,0:0:0:0:
150,210,163220,1,8,0:0:0:0:
150,210,163301,1,8,0:0:0:0:
150,210,163382,2,0,L|136:270,1,53.9399978600465,8|0,0:0|0:0,0:0:0:0:
318,158,163543,6,0,P|324:102|274:50,1,107.879995720093,4|8,3:2|0:0,0:0:0:0:
241,6,163785,1,8,0:0:0:0:
232,14,163866,2,0,L|169:29,1,53.9399978600465,8|8,0:0|0:0,0:0:0:0:
318,158,164027,6,0,L|442:194,1,107.879995720093,4|0,3:2|0:0,0:0:0:0:
482,146,164269,1,8,0:0:0:0:
469,125,164349,2,0,L|412:108,1,53.9399978600465,8|8,0:0|0:0,0:0:0:0:
253,292,164511,6,0,L|318:276,1,53.9399978600465,4|0,3:2|0:0,0:0:0:0:
167,130,164672,2,0,L|104:107,1,53.9399978600465,8|8,0:0|0:0,0:0:0:0:
242,12,164833,1,8,0:0:0:0:
242,12,164914,1,8,0:0:0:0:
242,12,164995,6,0,P|256:38|256:85,1,53.9399978600465,4|0,3:2|0:0,0:0:0:0:
70,229,165156,2,0,L|4:255,1,53.9399978600465,10|0,0:0|0:0,0:0:0:0:
242,342,165317,6,0,P|255:315|247:281,1,53.9399978600465,8|0,0:0|0:0,0:0:0:0:
97,99,165478,2,0,L|31:73,1,53.9399978600465,10|0,0:0|0:0,0:0:0:0:
161,260,165640,5,4,3:2:0:0:
200,289,165719,1,8,0:0:0:0:
250,277,165798,1,8,0:0:0:0:
279,233,165878,1,8,0:0:0:0:
269,206,165957,5,4,3:2:0:0:
312,164,166036,1,8,0:0:0:0:
376,173,166116,1,8,0:0:0:0:
410,226,166195,1,8,0:0:0:0:
391,260,166274,5,4,3:2:0:0:
350,230,166354,1,8,0:0:0:0:
344,177,166433,1,8,0:0:0:0:
379,133,166513,1,8,0:0:0:0:
415,135,166592,5,12,3:2:0:0:
461,96,166671,1,8,0:0:0:0:
472,38,166751,1,8,0:0:0:0:
419,0,166830,1,8,0:0:0:0:
387,0,166909,6,0,L|370:57,1,53.9399978600465,12|8,3:2|0:0,0:0:0:0:
149,240,167068,2,0,L|136:156,1,53.9399978600465,8|8,0:0|0:0,0:0:0:0:
14,32,167227,5,12,3:2:0:0:
74,8,167306,1,8,0:0:0:0:
131,36,167386,1,8,0:0:0:0:
152,97,167465,1,8,0:0:0:0:
201,139,167544,1,12,3:2:0:0:
261,115,167624,1,8,0:0:0:0:
273,49,167703,1,8,3:0:0:0:
213,12,167782,1,8,3:0:0:0:
162,51,167862,5,0,3:2:0:0:
165,61,167941,1,0,3:2:0:0:
166,69,168020,1,0,3:0:0:0:
168,78,168100,1,8,3:0:0:0:
201,139,168220,6,0,B|309:146|261:219|365:231,1,194.880002378906,4|2,3:2|0:0,0:0:0:0:
363,230,172091,6,0,L|352:306,1,73.0800008920898,2|0,0:0|0:0,0:0:0:0:
122,381,173382,6,0,B|92:300|92:300|169:262,1,170.520002081543,2|0,0:0|0:0,0:0:0:0:
297,347,175962,2,0,L|391:373,1,97.4400011894531,2|2,0:0|0:0,0:0:0:0:
489,193,178543,6,0,L|472:96,1,97.4400011894531,2|2,0:0|0:0,0:0:0:0:
235,12,181123,6,0,B|196:25|196:25|299:45,1,146.16000178418,2|2,0:0|0:0,0:0:0:0:
356,99,183433,1,2,0:0:0:0:
321,171,183703,6,0,B|250:168|270:211|185:202,1,128.760003143555,2|0,3:2|3:2,0:0:0:0:
158,138,184186,1,2,0:0:0:0:
294,271,184348,6,0,P|332:304|426:288,1,128.760003143555,2|0,3:2|3:2,0:0:0:0:
317,192,184832,1,2,0:0:0:0:
207,309,184993,6,0,P|212:340|216:394,1,64.3800015717774,2|0,3:2|0:0,0:0:0:0:
404,217,185315,2,0,P|410:178|422:143,1,64.3800015717774,0|0,3:2|0:0,0:0:0:0:
232,11,185638,5,2,3:2:0:0:
267,81,185799,1,2,0:0:0:0:
269,0,185961,5,2,3:2:0:0:
234,94,186122,1,2,0:0:0:0:
290,169,186283,6,0,B|333:178|333:178|352:204|352:204|416:220,1,128.760003143555,2|0,3:2|3:2,0:0:0:0:
475,182,186767,1,2,0:0:0:0:
345,359,186928,5,2,3:2:0:0:
313,290,187090,1,2,0:0:0:0:
305,372,187251,5,2,3:2:0:0:
350,282,187412,1,0,0:0:0:0:
225,214,187573,6,0,P|194:207|151:193,1,64.3800015717774,2|0,3:2|3:2,0:0:0:0:
88,293,187896,1,8,3:0:0:0:
241,204,188057,5,2,3:2:0:0:
84,89,188219,1,2,3:2:0:0:
163,210,188380,1,0,3:2:0:0:
0,330,188541,1,8,0:0:0:0:
0,330,188864,6,0,P|53:312|143:390,1,180.959998895508,6|10,3:2|0:0,0:0:0:0:
374,100,189509,6,0,P|331:116|285:126,1,90.4799994477539,2|0,3:2|3:2,0:0:0:0:
433,237,189832,1,8,0:0:0:0:
287,320,189993,2,0,P|298:275|307:213,1,90.4799994477539,2|0,3:2|0:0,0:0:0:0:
416,362,190315,2,0,P|462:371|510:386,1,90.4799994477539,2|8,3:2|0:0,0:0:0:0:
398,257,190638,1,0,0:0:0:0:
511,206,190799,5,0,3:2:0:0:
389,339,190961,1,2,3:2:0:0:
512,282,191122,5,8,0:0:0:0:
323,151,191283,1,2,0:0:0:0:
459,54,191444,5,8,3:2:0:0:
277,266,191606,1,8,3:2:0:0:
277,266,191928,5,8,3:2:0:0:
117,45,192090,1,8,3:2:0:0:
117,45,192412,5,8,3:2:0:0:
349,166,192573,1,8,3:2:0:0:
349,166,192896,5,8,3:2:0:0:
110,340,193057,1,8,3:2:0:0:
110,340,193380,5,8,0:0:0:0:
199,217,193541,1,10,0:0:0:0:
273,375,193703,1,8,0:0:0:0:
193,296,193864,1,2,0:0:0:0:
370,144,194025,5,8,3:2:0:0:
194,384,194186,1,8,3:2:0:0:
194,384,194509,5,8,3:2:0:0:
134,59,194670,1,8,3:2:0:0:
134,59,194993,5,8,3:2:0:0:
389,288,195154,1,8,3:2:0:0:
389,288,195477,5,8,3:2:0:0:
54,202,195638,1,8,3:2:0:0:
54,202,195961,6,0,L|123:186,1,59.160000361084,2|2,0:0|0:0,0:0:0:0:
111,188,196606,6,0,B|32:161|32:161|-23:238|61:281,1,198.359997578613,4|8,3:2|0:0,0:0:0:0:
215,127,197090,1,2,0:0:0:0:
215,127,197170,1,2,0:0:0:0:
215,127,197251,2,0,L|322:103,1,99.1799987893067,2|0,3:2|3:2,0:0:0:0:
439,210,197573,1,8,0:0:0:0:
311,0,197735,6,0,B|284:40|284:40|303:105,1,99.1799987893067,2|0,3:2|0:0,0:0:0:0:
200,218,198057,1,2,3:2:0:0:
256,274,198219,2,0,B|357:250|336:351|448:330,1,198.359997578613,8|0,0:0|3:2,0:0:0:0:
283,190,198703,1,0,3:2:0:0:
443,251,198864,5,10,0:0:0:0:
269,366,199025,1,2,0:0:0:0:
269,366,199106,1,2,0:0:0:0:
269,366,199186,6,0,P|221:349|169:338,1,99.1799987893067,4|0,3:2|3:2,0:0:0:0:
12,210,199509,2,0,P|42:160|174:192,1,198.359997578613,8|2,0:0|3:2,0:0:0:0:
288,0,199993,2,0,P|242:18|178:33,1,99.1799987893067,0|8,3:2|0:0,0:0:0:0:
359,137,200315,1,0,3:2:0:0:
142,260,200477,5,2,0:0:0:0:
261,104,200638,1,0,3:2:0:0:
417,219,200799,2,0,P|465:230|523:251,2,99.1799987893067,8|0|0,0:0|0:0|3:2,0:0:0:0:
507,146,201283,1,0,3:2:0:0:
336,288,201444,2,0,P|328:338|370:387,1,99.1799987893067,10|2,0:0|0:0,0:0:0:0:
261,104,201767,6,0,B|217:65|161:96|161:96|139:148|68:143,1,198.359997578613,6|8,3:2|0:0,0:0:0:0:
33,98,202251,1,2,0:0:0:0:
227,241,202412,2,0,P|280:251|345:271,1,99.1799987893067,2|0,3:2|3:2,0:0:0:0:
162,370,202735,1,10,0:0:0:0:
348,241,202896,1,2,3:2:0:0:
187,130,203057,1,2,0:0:0:0:
241,269,203219,1,2,3:2:0:0:
396,104,203380,6,0,P|386:53|381:2,1,99.1799987893067,8|0,0:0|0:0,0:0:0:0:
179,214,203702,2,0,P|132:222|83:239,1,99.1799987893067,0|0,3:2|3:2,0:0:0:0:
335,384,204025,2,0,P|376:328|345:247,1,148.76999818396,10|0,0:0|0:0,0:0:0:0:
348,241,204348,6,0,L|277:216,1,49.5899993946533,4|0,3:2|0:0,0:0:0:0:
199,8,204509,1,8,0:0:0:0:
165,42,204590,1,8,0:0:0:0:
179,87,204670,1,8,0:0:0:0:
44,270,204832,6,0,L|105:254,1,49.5899993946533,4|0,3:2|0:0,0:0:0:0:
204,105,204993,1,8,0:0:0:0:
238,139,205074,1,8,0:0:0:0:
224,184,205154,1,8,0:0:0:0:
335,384,205315,6,0,L|279:366,1,49.5899993946533,4|0,3:2|0:0,0:0:0:0:
199,202,205477,1,8,0:0:0:0:
165,236,205558,1,8,0:0:0:0:
179,281,205638,1,8,0:0:0:0:
311,90,205799,6,0,P|305:68|299:31,1,49.5899993946533,4|0,3:2|0:0,0:0:0:0:
131,157,205961,2,0,P|104:164|70:175,1,49.5899993946533,2|0,3:2|0:0,0:0:0:0:
335,384,206122,2,0,P|350:359|335:314,1,66.9899986711579,12|0,0:0|0:0,0:0:0:0:
286,273,206283,6,0,B|174:256|219:361|71:335,1,198.359997578613,4|8,3:2|0:0,0:0:0:0:
318,97,206767,1,8,0:0:0:0:
318,97,206848,1,8,0:0:0:0:
318,97,206928,6,0,B|382:117|382:117|441:150|426:226|366:213,1,198.359997578613,4|8,3:2|0:0,0:0:0:0:
222,30,207412,1,0,0:0:0:0:
123,132,207573,2,0,P|76:142|27:157,1,99.1799987893067,2|0,3:2|3:2,0:0:0:0:
209,255,207896,1,8,0:0:0:0:
11,145,208057,6,0,P|1:97|47:55,1,99.1799987893067,2|0,3:2|0:0,0:0:0:0:
205,163,208380,1,2,3:2:0:0:
54,307,208541,2,0,B|149:281|139:378|242:358,1,198.359997578613,8|0,0:0|3:2,0:0:0:0:
97,219,209025,1,0,3:2:0:0:
236,68,209186,2,0,P|188:88|135:101,1,99.1799987893067,10|0,0:0|0:0,0:0:0:0:
311,273,209509,6,0,P|372:227|331:104,2,198.359997578613,2|8|2,3:2|0:0|3:2,0:0:0:0:
164,120,210315,1,0,3:2:0:0:
407,241,210477,5,8,0:0:0:0:
227,384,210638,2,0,P|221:363|222:317,1,49.5899993946533,6|0,3:2|0:0,0:0:0:0:
400,108,210961,6,0,L|351:118,1,49.5899993946533,6|0,3:2|0:0,0:0:0:0:
7,34,211283,6,0,B|124:7|124:7|94:43|90:90,1,198.359997578613,6|0,3:2|3:2,0:0:0:0:
224,245,211767,2,0,P|275:193|215:127,1,148.76999818396,8|0,0:0|0:0,0:0:0:0:
218,64,212090,5,6,3:2:0:0:
54,201,212251,1,2,0:0:0:0:
54,201,212332,1,2,0:0:0:0:
54,201,212412,2,0,L|33:302,1,99.1799987893067,8|0,0:0|0:0,0:0:0:0:
178,179,212735,5,0,3:2:0:0:
23,107,212896,1,2,3:2:0:0:
167,190,213057,1,8,0:0:0:0:
0,371,213219,6,0,P|59:315|178:346,1,198.359997578613,2|0,3:2|3:2,0:0:0:0:
341,167,213702,2,0,P|386:188|452:210,1,99.1799987893067,8|0,0:0|0:0,0:0:0:0:
357,382,214025,6,0,P|404:368|470:357,1,99.1799987893067,0|2,3:2|3:2,0:0:0:0:
278,261,214348,1,8,0:0:0:0:
439,169,214509,1,2,0:0:0:0:
268,0,214670,6,0,L|293:120,1,99.1799987893067,0|0,3:2|3:2,0:0:0:0:
94,299,214993,2,0,B|64:285|33:276|33:276|44:237|59:173,1,148.76999818396,8|0,0:0|0:0,0:0:0:0:
64,162,215315,1,0,3:2:0:0:
243,334,215477,2,0,L|252:389,2,49.5899993946533,0|0|8,3:2|3:2|0:0,0:0:0:0:
342,205,215799,6,0,P|407:191|496:288,1,198.359997578613,2|0,3:2|3:2,0:0:0:0:
288,97,216283,1,8,0:0:0:0:
415,30,216444,1,2,3:2:0:0:
332,189,216606,6,0,P|324:235|311:289,1,99.1799987893067,2|0,3:2|3:2,0:0:0:0:
432,159,216928,1,8,0:0:0:0:
280,68,217090,1,0,3:2:0:0:
423,240,217251,5,12,0:0:0:0:
211,352,217412,1,0,3:2:0:0:
248,228,217573,1,0,3:2:0:0:
368,371,217735,5,12,0:0:0:0:
136,161,217896,1,0,3:2:0:0:
159,276,218057,1,0,3:2:0:0:
247,138,218219,5,12,0:0:0:0:
38,344,218380,1,0,3:2:0:0:
73,238,218541,1,0,3:2:0:0:
186,384,218702,5,12,0:0:0:0:
0,270,218864,1,0,3:2:0:0:
151,135,219025,1,0,3:2:0:0:
177,366,219186,5,10,0:0:0:0:
73,124,219348,1,8,0:0:0:0:
236,257,219509,1,8,0:0:0:0:
38,344,219670,1,8,0:0:0:0:
214,179,219832,6,0,B|328:165|285:286|427:269,1,219.239993309326,4|0,3:2|3:2,0:0:0:0:
499,66,220477,2,0,P|457:47|372:98,1,146.159995539551,10|0,0:0|0:0,0:0:0:0:
485,196,220961,2,0,L|501:274,1,73.0799977697755,10|0,0:0|3:2,0:0:0:0:
390,173,221283,5,10,0:0:0:0:
219,345,221444,2,0,L|234:260,1,73.0799977697755,0|0,3:2|3:2,0:0:0:0:
51,65,221767,2,0,B|112:48|112:48|136:137,1,146.159995539551,8|2,0:0|0:0,0:0:0:0:
0,236,222251,1,8,0:0:0:0:
59,164,222412,6,0,P|110:153|183:212,1,146.159995539551,6|0,3:2|0:0,0:0:0:0:
302,320,222896,1,0,3:2:0:0:
368,362,223057,2,0,P|404:357|442:337,1,73.0799977697755,10|0,0:0|0:0,0:0:0:0:
471,274,223380,1,2,0:0:0:0:
290,131,223541,5,10,0:0:0:0:
263,203,223702,1,0,3:2:0:0:
442,131,223864,5,10,0:0:0:0:
393,37,224025,1,0,3:2:0:0:
368,103,224186,1,0,3:2:0:0:
442,216,224348,6,0,L|519:237,1,73.0799977697755,8|0,0:0|3:2,0:0:0:0:
368,339,224670,1,8,0:0:0:0:
249,229,224832,1,2,0:0:0:0:
249,229,224912,1,2,0:0:0:0:
249,229,224993,6,0,B|200:212|165:253|165:253|155:308|90:323,2,180.959998895508,6|10|0,3:2|0:0|3:2,0:0:0:0:
105,131,225799,1,0,3:2:0:0:
230,316,225961,1,10,0:0:0:0:
105,131,226122,6,0,P|61:121|9:104,1,90.4799994477539,2|0,3:2|0:0,0:0:0:0:
84,238,226444,1,0,3:2:0:0:
223,48,226606,2,0,P|227:88|244:147,1,90.4799994477539,8|0,0:0|0:0,0:0:0:0:
127,18,226928,1,0,3:2:0:0:
263,152,227090,2,0,P|304:163|359:186,1,90.4799994477539,2|8,3:2|0:0,0:0:0:0:
489,99,227412,1,2,0:0:0:0:
394,0,227573,6,0,P|363:33|377:81,1,90.4799994477539,0|0,3:2|0:0,0:0:0:0:
508,250,227896,2,0,B|410:236|440:320|340:298,1,180.959998895508,8|0,0:0|3:2,0:0:0:0:
460,175,228380,1,2,3:2:0:0:
512,360,228541,5,10,0:0:0:0:
348,180,228702,2,0,P|286:167|222:262,1,180.959998895508,2|0,3:2|3:2,0:0:0:0:
88,379,229186,1,8,0:0:0:0:
155,345,229348,1,2,0:0:0:0:
41,185,229509,5,2,3:2:0:0:
1,301,229670,1,0,3:2:0:0:
239,151,229832,6,0,B|195:136|195:136|180:101|180:101|129:84,1,135.719999171631,8|0,0:0|0:0,0:0:0:0:
108,62,230154,5,10,0:0:0:0:
225,258,230315,1,0,3:2:0:0:
225,258,230396,1,0,3:2:0:0:
225,258,230477,1,0,3:2:0:0:
281,0,230638,1,8,0:0:0:0:
281,0,231122,5,8,0:0:0:0:
162,154,231283,1,0,3:2:0:0:
314,71,231444,1,0,3:2:0:0:
390,268,231606,1,8,0:0:0:0:
390,268,232090,5,8,3:2:0:0:
211,72,232251,1,8,3:2:0:0:
381,139,232412,1,8,0:0:0:0:
377,152,232493,1,8,0:0:0:0:
372,166,232573,1,0,3:2:0:0:
183,294,232735,5,8,0:0:0:0:
314,71,232896,1,0,3:2:0:0:
402,289,233057,1,0,3:2:0:0:
162,154,233219,1,8,0:0:0:0:
162,154,233541,5,8,0:0:0:0:
288,339,233702,5,8,0:0:0:0:
113,238,233864,1,0,3:2:0:0:
267,154,234025,1,0,3:2:0:0:
162,384,234186,1,8,0:0:0:0:
162,384,234509,6,0,P|154:348|156:316,1,57.4200017523194,2|0,0:0|0:0,0:0:0:0:
126,319,234832,2,0,P|143:309|179:305,1,45.239999723877,8|0,3:2|0:0,0:0:0:0:
402,175,234993,2,0,P|371:171|338:146,1,62.6400015292969,8|0,3:2|0:0,0:0:0:0:
193,0,235154,2,0,P|191:30|209:65,1,62.6400015292969,8|0,3:2|0:0,0:0:0:0:
279,75,235315,6,0,B|182:60|199:150|94:126,1,180.959998895508,6|8,3:2|0:0,0:0:0:0:
288,262,235799,1,2,0:0:0:0:
288,262,235880,1,2,0:0:0:0:
288,262,235961,2,0,P|294:304|307:361,1,90.4799994477539,2|0,3:2|0:0,0:0:0:0:
418,113,236283,2,0,P|461:102|522:76,1,90.4799994477539,10|2,0:0|0:0,0:0:0:0:
377,229,236606,6,0,P|293:234|261:132,1,180.959998895508,2|8,3:2|0:0,0:0:0:0:
92,285,237090,1,2,0:0:0:0:
92,285,237170,1,2,0:0:0:0:
92,285,237251,2,0,P|129:295|193:324,1,90.4799994477539,2|2,3:2|3:2,0:0:0:0:
45,167,237573,1,10,0:0:0:0:
196,77,237735,1,2,0:0:0:0:
110,8,237896,6,0,L|128:213,1,180.959998895508,6|8,3:2|0:0,0:0:0:0:
255,364,238380,2,0,P|279:327|259:274,1,90.4799994477539,2|0,0:0|3:2,0:0:0:0:
371,109,238702,2,0,L|278:140,1,90.4799994477539,2|10,0:0|0:0,0:0:0:0:
495,313,239025,6,0,B|451:305|451:305|426:269|426:269|362:256,1,135.719999171631,10|0,0:0|0:0,0:0:0:0:
349,254,239348,1,2,3:2:0:0:
488,147,239509,1,8,0:0:0:0:
358,10,239670,1,2,0:0:0:0:
358,10,239751,1,2,0:0:0:0:
358,10,239832,2,0,P|392:28|454:33,1,90.4799994477539,2|2,3:2|3:2,0:0:0:0:
285,137,240154,1,8,0:0:0:0:
453,239,240315,1,0,3:2:0:0:
285,137,240477,6,0,B|182:124|212:206|89:182,1,180.959998895508,4|8,3:2|0:0,0:0:0:0:
289,353,240961,1,2,0:0:0:0:
289,353,241041,1,2,0:0:0:0:
289,353,241122,2,0,B|310:313|310:313|292:263,1,90.4799994477539,2|2,3:2|0:0,0:0:0:0:
99,360,241444,2,0,P|145:369|215:393,1,90.4799994477539,10|2,0:0|0:0,0:0:0:0:
97,106,241767,6,0,P|26:149|41:252,1,180.959998895508,2|8,3:2|0:0,0:0:0:0:
227,115,242251,1,2,0:0:0:0:
227,115,242332,1,2,0:0:0:0:
227,115,242412,2,0,P|271:103|344:78,1,90.4799994477539,2|2,3:2|3:2,0:0:0:0:
471,279,242735,2,0,P|430:262|376:248,1,90.4799994477539,10|2,0:0|0:0,0:0:0:0:
416,32,243057,6,0,P|482:84|455:182,1,180.959998895508,6|10,3:2|0:0,0:0:0:0:
295,295,243541,1,2,0:0:0:0:
199,143,243702,2,0,P|210:96|220:41,1,90.4799994477539,0|2,3:2|0:0,0:0:0:0:
95,186,244025,1,2,0:0:0:0:
240,37,244186,5,10,0:0:0:0:
321,171,244348,1,0,3:2:0:0:
212,232,244509,5,12,0:0:0:0:
142,384,244670,1,2,3:2:0:0:
288,298,244832,5,2,3:2:0:0:
288,298,244912,1,2,3:2:0:0:
288,298,244993,1,10,3:2:0:0:
112,194,245154,1,8,0:0:0:0:
252,381,245315,1,8,0:0:0:0:
218,241,245477,1,10,0:0:0:0:
218,241,245557,1,10,0:0:0:0:
218,241,245638,6,0,B|126:229|145:320|34:293,1,180.959998895508,4|8,3:2|0:0,0:0:0:0:
243,111,246122,1,2,0:0:0:0:
243,111,246202,1,2,0:0:0:0:
243,111,246283,2,0,P|282:124|331:132,1,90.4799994477539,2|2,3:2|0:0,0:0:0:0:
193,333,246606,2,0,P|241:320|293:311,1,90.4799994477539,10|2,0:0|0:0,0:0:0:0:
234,198,246928,6,0,B|332:201|295:275|419:284,1,180.959998895508,2|8,3:2|0:0,0:0:0:0:
496,187,247412,1,2,0:0:0:0:
496,187,247493,1,2,0:0:0:0:
496,187,247573,2,0,L|480:92,1,90.4799994477539,2|2,3:2|3:2,0:0:0:0:
346,215,247896,1,8,0:0:0:0:
494,340,248057,1,2,0:0:0:0:
401,293,248219,6,0,B|349:278|314:318|314:318|291:370|233:363,1,180.959998895508,4|8,3:2|0:0,0:0:0:0:
161,178,248702,1,0,0:0:0:0:
212,124,248864,2,0,P|254:136|314:150,1,90.4799994477539,0|2,3:2|0:0,0:0:0:0:
183,289,249186,1,10,0:0:0:0:
42,185,249348,6,0,P|-24:267|16:343,1,180.959998895508,8|0,0:0|3:2,0:0:0:0:
161,178,249832,1,8,0:0:0:0:
123,113,249993,2,0,P|81:96|29:84,1,90.4799994477539,2|0,0:0|3:2,0:0:0:0:
151,273,250315,1,2,3:2:0:0:
228,93,250477,5,10,0:0:0:0:
36,215,250638,1,2,3:2:0:0:
236,337,250799,6,0,B|336:318|309:399|430:379,1,180.959998895508,6|8,3:2|0:0,0:0:0:0:
479,272,251283,1,2,0:0:0:0:
479,272,251364,1,2,0:0:0:0:
479,272,251444,2,0,L|460:169,1,90.4799994477539,0|2,3:2|0:0,0:0:0:0:
236,337,251767,2,0,L|249:243,1,90.4799994477539,10|2,0:0|0:0,0:0:0:0:
352,101,252090,6,0,B|369:164|369:164|346:211|346:211|363:277,1,180.959998895508,2|8,3:2|0:0,0:0:0:0:
229,103,252573,2,0,P|183:90|122:67,1,90.4799994477539,2|0,0:0|3:2,0:0:0:0:
283,8,252896,1,0,3:2:0:0:
405,171,253057,2,0,P|449:157|501:150,1,90.4799994477539,10|2,0:0|0:0,0:0:0:0:
249,364,253380,6,0,P|191:372|155:300,1,135.719999171631,4|0,3:2|0:0,0:0:0:0:
109,254,253702,1,8,0:0:0:0:
308,74,253864,6,0,L|324:222,1,135.719999171631,4|0,3:2|0:0,0:0:0:0:
361,272,254186,1,8,0:0:0:0:
179,113,254348,5,4,3:2:0:0:
395,22,254509,1,8,0:0:0:0:
238,169,254670,1,8,0:0:0:0:
452,346,254832,2,0,P|475:315|454:248,1,90.4799994477539,4|0,3:2|0:0,0:0:0:0:
227,35,255154,5,8,0:0:0:0:
48,194,255315,1,0,3:2:0:0:
361,272,255477,5,8,3:0:0:0:
287,102,255638,1,8,3:0:0:0:
75,339,255799,6,0,B|59:300|16:292|16:292|79:296|103:346|94:341|127:397|188:383,1,271.439998343262,12|0,0:0|0:0,0:0:0:0:
