osu file format v14

[General]
AudioFilename: audio.ogg
AudioLeadIn: 0
PreviewTime: 55857
Countdown: 0
SampleSet: Soft
StackLeniency: 0.7
Mode: 3
LetterboxInBreaks: 0
SpecialStyle: 0
WidescreenStoryboard: 0

[Editor]
DistanceSpacing: 0.8
BeatDivisor: 4
GridSize: 32
TimelineZoom: 1.5

[Metadata]
Title:Hologram (TV Size)
TitleUnicode:ホログラム (TV Size)
Artist:NICO Touches the Walls
ArtistUnicode:NICO Touches the Walls
Creator:Arzenvald
Version:7K Insane
Source:鋼の錬金術師 FULLMETAL ALCHEMIST
Tags:hagane no renkinjutsushi brotherhood edward alphonse elric square enix Anime Japanese JRock J-Rock Rock Guitar Opening OP 2 Two Aurora Ki/oon Records ExUsagi ajeemaniz
BeatmapID:802710
BeatmapSetID:365702

[Difficulty]
HPDrainRate:8
CircleSize:7
OverallDifficulty:8
ApproachRate:5
SliderMultiplier:1.4
SliderTickRate:1

[Events]
//Background and Video events
0,0,"BG.jpg",0,0
Video,-350,"FMA.mp4"
//Break Periods
//Storyboard Layer 0 (Background)
//Storyboard Layer 1 (Fail)
//Storyboard Layer 2 (Pass)
//Storyboard Layer 3 (Foreground)
//Storyboard Layer 4 (Overlay)
//Storyboard Sound Samples

[TimingPoints]
708,384.319754,4,2,1,69,1,0

[HitObjects]
328,192,708,128,0,1092:0:0:0:0:
182,192,1092,128,0,1284:0:0:0:0:
401,192,1284,128,0,1668:0:0:0:0:
328,192,1668,128,0,2053:0:0:0:0:
182,192,1860,128,0,2053:0:0:0:0:
401,192,2053,128,0,2437:0:0:0:0:
182,192,2437,128,0,2821:0:0:0:0:
328,192,2629,128,0,2821:0:0:0:0:
401,192,2821,128,0,3206:0:0:0:0:
328,192,3206,128,0,3590:0:0:0:0:
109,192,3398,128,0,3590:0:0:0:0:
182,192,3590,128,0,3782:0:0:0:0:
36,192,3782,128,0,4166:0:0:0:0:
182,192,4166,128,0,4359:0:0:0:0:
474,192,4359,128,0,4743:0:0:0:0:
36,192,4743,128,0,5127:0:0:0:0:
182,192,4935,128,0,5127:0:0:0:0:
401,192,5127,128,0,5511:0:0:0:0:
36,192,5511,128,0,5896:0:0:0:0:
182,192,5704,128,0,5896:0:0:0:0:
474,192,5896,128,0,6280:0:0:0:0:
36,192,6280,1,2,0:0:0:0:
182,192,6280,1,0,0:0:0:0:
36,192,6472,1,4,0:0:0:0:
255,192,6472,1,8,0:0:0:0:
328,192,6472,1,0,0:0:0:0:
474,192,6472,1,0,0:0:0:0:
36,192,6857,128,2,8298:0:0:0:0:
182,192,6857,1,4,0:0:0:0:
255,192,6857,128,0,8298:0:0:0:0:
401,192,6857,1,0,0:0:0:0:
36,192,8394,1,2,0:0:0:0:
109,192,8394,128,4,9835:0:0:0:0:
328,192,8394,128,0,9835:0:0:0:0:
474,192,8394,1,0,0:0:0:0:
182,192,9355,1,2,0:0:0:0:
182,192,9547,1,4,0:0:0:0:
401,192,9547,1,8,0:0:0:0:
474,192,9547,128,0,9835:0:0:0:0:
36,192,9931,128,4,10123:0:0:0:0:
109,192,9931,1,8,0:0:0:0:
328,192,9931,128,0,10123:0:0:0:0:
401,192,9931,1,0,0:0:0:0:
182,192,10123,1,2,0:0:0:0:
474,192,10123,1,0,0:0:0:0:
109,192,10315,128,2,10508:0:0:0:0:
401,192,10315,128,0,10508:0:0:0:0:
36,192,10508,1,4,0:0:0:0:
182,192,10508,128,8,10700:0:0:0:0:
328,192,10508,1,0,0:0:0:0:
474,192,10508,128,0,10700:0:0:0:0:
109,192,10700,1,2,0:0:0:0:
401,192,10700,1,0,0:0:0:0:
36,192,10892,128,2,11084:0:0:0:0:
328,192,10892,128,0,11084:0:0:0:0:
109,192,11084,128,4,11276:0:0:0:0:
182,192,11084,1,8,0:0:0:0:
401,192,11084,128,0,11276:0:0:0:0:
474,192,11084,1,0,0:0:0:0:
36,192,11276,1,2,0:0:0:0:
328,192,11276,1,0,0:0:0:0:
182,192,11468,128,2,11661:0:0:0:0:
474,192,11468,128,0,11661:0:0:0:0:
36,192,11661,1,4,0:0:0:0:
109,192,11661,128,8,11853:0:0:0:0:
328,192,11661,1,0,0:0:0:0:
401,192,11661,128,0,11853:0:0:0:0:
182,192,11853,1,2,0:0:0:0:
474,192,11853,1,0,0:0:0:0:
182,192,12045,128,2,12237:0:0:0:0:
328,192,12045,128,0,12237:0:0:0:0:
255,192,12237,1,2,0:0:0:0:
474,192,12237,1,8,0:0:0:0:
36,192,12333,1,8,0:0:0:0:
401,192,12333,1,0,0:0:0:0:
109,192,12429,1,8,0:0:0:0:
328,192,12429,1,0,0:0:0:0:
182,192,12525,1,8,0:0:0:0:
474,192,12525,1,0,0:0:0:0:
36,192,12621,1,2,0:0:0:0:
401,192,12621,1,8,0:0:0:0:
109,192,12717,1,8,0:0:0:0:
255,192,12717,1,0,0:0:0:0:
328,192,12814,1,8,0:0:0:0:
474,192,12814,1,0,0:0:0:0:
36,192,12910,1,8,0:0:0:0:
182,192,12910,1,0,0:0:0:0:
255,192,13006,1,2,0:0:0:0:
401,192,13006,1,4,0:0:0:0:
474,192,13006,128,0,13198:0:0:0:0:
182,192,13198,128,0,13390:0:0:0:0:
36,192,13390,128,8,13582:0:0:0:0:
109,192,13390,1,0,0:0:0:0:
474,192,13390,1,0,0:0:0:0:
255,192,13582,1,2,0:0:0:0:
328,192,13582,128,0,13774:0:0:0:0:
474,192,13774,128,0,13967:0:0:0:60:drum-hitclap.wav
36,192,13967,128,2,14351:0:0:0:0:
255,192,13967,1,0,0:0:0:0:
182,192,14159,1,8,0:0:0:0:
328,192,14159,1,0,0:0:0:0:
474,192,14159,128,0,14543:0:0:0:0:
109,192,14351,128,2,14543:0:0:0:0:
255,192,14351,1,0,0:0:0:0:
401,192,14543,128,0,14735:0:0:0:60:drum-hitclap.wav
109,192,14735,128,2,15119:0:0:0:0:
255,192,14735,1,0,0:0:0:0:
36,192,14927,128,8,15312:0:0:0:0:
182,192,14927,1,0,0:0:0:0:
328,192,14927,1,0,0:0:0:0:
401,192,15119,128,0,15504:0:0:0:0:
255,192,15312,1,2,0:0:0:0:
474,192,15312,128,0,15696:0:0:0:0:
109,192,15504,128,2,15696:0:0:0:0:
255,192,15504,1,0,0:0:0:0:
182,192,15696,1,8,0:0:0:0:
328,192,15696,1,0,0:0:0:0:
401,192,15696,128,0,15888:0:0:0:0:
36,192,15888,128,0,16080:0:0:0:0:
109,192,16080,128,2,16272:0:0:0:0:
182,192,16080,1,4,0:0:0:0:
328,192,16080,1,0,0:0:0:0:
474,192,16080,1,0,0:0:0:0:
255,192,16272,128,0,16465:0:0:0:0:
36,192,16465,128,8,18386:0:0:0:0:
109,192,16465,1,0,0:0:0:0:
401,192,16465,1,0,0:0:0:0:
182,192,16657,1,2,0:0:0:0:
255,192,16657,1,4,0:0:0:0:
328,192,16657,128,0,18386:0:0:0:0:
474,192,16657,1,0,0:0:0:0:
255,192,17041,1,2,0:0:0:0:
109,192,17233,1,8,0:0:0:0:
401,192,17233,1,0,0:0:0:0:
182,192,17425,128,2,18386:0:0:0:0:
255,192,17425,1,4,0:0:0:0:
474,192,17425,128,0,18386:0:0:0:0:
255,192,17810,1,8,0:0:0:0:
255,192,18002,1,8,0:0:0:0:
255,192,18194,1,8,0:0:0:0:
109,192,18386,1,2,0:0:0:0:
401,192,18386,1,8,0:0:0:0:
109,192,18578,128,2,18771:0:0:0:0:
401,192,18578,1,8,0:0:0:0:
255,192,18771,128,8,18963:0:0:0:0:
182,192,18867,1,8,0:0:0:0:
328,192,18867,1,0,0:0:0:0:
109,192,18963,128,8,22037:0:0:0:0:
401,192,18963,128,0,22037:0:0:0:0:
182,192,19059,1,0,0:0:0:0:
328,192,19059,1,0,0:0:0:0:
36,192,19155,1,2,0:0:0:0:
255,192,19155,1,4,0:0:0:0:
474,192,19155,1,0,0:0:0:0:
255,192,19539,1,8,0:0:0:0:
474,192,19539,1,0,0:0:0:0:
36,192,19731,1,2,0:0:0:0:
328,192,19731,1,0,0:0:0:0:
182,192,19923,1,0,0:0:0:60:drum-hitclap.wav
36,192,20116,1,2,0:0:0:0:
328,192,20116,1,0,0:0:0:0:
255,192,20308,1,8,0:0:0:0:
474,192,20308,1,0,0:0:0:0:
36,192,20500,1,2,0:0:0:0:
328,192,20500,1,0,0:0:0:0:
182,192,20692,1,0,0:0:0:60:drum-hitclap.wav
328,192,20884,1,2,0:0:0:0:
474,192,20884,1,0,0:0:0:0:
36,192,21076,1,8,0:0:0:0:
255,192,21076,1,0,0:0:0:0:
474,192,21461,1,2,0:0:0:0:
474,192,21653,1,2,0:0:0:0:
36,192,21845,1,8,0:0:0:0:
255,192,21845,1,0,0:0:0:0:
182,192,22037,128,0,22614:0:0:0:75:drum-hitwhistle.wav
328,192,22037,128,0,22229:0:0:0:0:
36,192,22422,1,2,0:0:0:0:
109,192,22422,1,0,0:0:0:0:
328,192,22614,1,8,0:0:0:0:
474,192,22614,1,0,0:0:0:0:
36,192,22806,1,2,0:0:0:0:
182,192,22806,1,0,0:0:0:0:
401,192,22806,128,0,23382:0:0:0:0:
328,192,22998,1,0,0:0:0:60:drum-hitclap.wav
36,192,23190,1,2,0:0:0:0:
109,192,23190,1,0,0:0:0:0:
328,192,23382,1,8,0:0:0:0:
474,192,23382,1,0,0:0:0:0:
36,192,23575,1,2,0:0:0:0:
182,192,23575,128,0,24920:0:0:0:0:
401,192,23575,1,0,0:0:0:0:
328,192,23767,1,0,0:0:0:60:drum-hitclap.wav
36,192,23959,1,2,0:0:0:0:
401,192,23959,1,0,0:0:0:0:
328,192,24151,1,8,0:0:0:0:
474,192,24151,1,0,0:0:0:0:
255,192,24535,1,2,0:0:0:0:
255,192,24727,1,2,0:0:0:0:
36,192,24920,1,8,0:0:0:0:
474,192,24920,1,0,0:0:0:0:
36,192,25304,1,2,0:0:0:0:
255,192,25304,128,0,25688:0:0:0:0:
401,192,25304,1,0,0:0:0:0:
109,192,25496,1,0,0:0:0:0:
36,192,25688,1,8,0:0:0:0:
474,192,25688,128,0,25880:0:0:0:0:
109,192,25880,128,2,26649:0:0:0:0:
182,192,25880,1,0,0:0:0:0:
328,192,25880,1,0,0:0:0:0:
401,192,26073,1,0,0:0:0:60:drum-hitclap.wav
182,192,26265,1,2,0:0:0:0:
328,192,26265,1,0,0:0:0:0:
36,192,26457,1,8,0:0:0:0:
474,192,26457,1,0,0:0:0:0:
182,192,26649,1,2,0:0:0:0:
255,192,26649,1,0,0:0:0:0:
401,192,26649,128,0,27994:0:0:0:0:
109,192,26841,1,0,0:0:0:60:drum-hitclap.wav
182,192,27033,1,2,0:0:0:0:
328,192,27033,1,0,0:0:0:0:
36,192,27226,1,8,0:0:0:0:
474,192,27226,1,0,0:0:0:0:
36,192,27610,1,2,0:0:0:0:
36,192,27802,1,2,0:0:0:0:
255,192,27994,1,8,0:0:0:0:
474,192,27994,1,0,0:0:0:0:
36,192,28186,128,0,29724:0:0:0:75:drum-hitwhistle.wav
182,192,28186,128,0,28379:0:0:0:0:
401,192,28186,128,0,28379:0:0:0:0:
109,192,28379,1,0,0:0:0:0:
182,192,28571,1,2,0:0:0:0:
328,192,28571,1,0,0:0:0:0:
255,192,28763,1,8,0:0:0:0:
401,192,28763,1,0,0:0:0:0:
109,192,28955,1,2,0:0:0:0:
474,192,28955,1,0,0:0:0:0:
109,192,29147,1,0,0:0:0:60:drum-hitclap.wav
182,192,29339,1,2,0:0:0:0:
328,192,29339,1,0,0:0:0:0:
255,192,29531,1,8,0:0:0:0:
401,192,29531,1,0,0:0:0:0:
109,192,29724,1,2,0:0:0:0:
255,192,29724,128,0,30684:0:0:0:0:
474,192,29724,1,0,0:0:0:0:
36,192,29916,1,0,0:0:0:60:drum-hitclap.wav
109,192,30108,1,2,0:0:0:0:
328,192,30108,1,0,0:0:0:0:
182,192,30300,1,8,0:0:0:0:
401,192,30300,1,0,0:0:0:0:
36,192,30684,1,2,0:0:0:0:
109,192,30684,1,8,0:0:0:0:
401,192,30684,1,0,0:0:0:0:
474,192,30684,1,0,0:0:0:0:
36,192,30877,1,2,0:0:0:0:
36,192,31069,1,2,0:0:0:0:
109,192,31069,1,8,0:0:0:0:
401,192,31069,1,0,0:0:0:0:
474,192,31069,1,0,0:0:0:0:
256,192,31261,1,2,0:0:0:0:
474,192,31261,1,0,0:0:0:0:
36,192,31453,1,2,0:0:0:0:
182,192,31453,1,4,0:0:0:0:
329,192,31453,1,0,0:0:0:0:
474,192,31453,128,0,31645:0:0:0:0:
109,192,31645,1,0,0:0:0:0:
401,192,31645,128,0,31837:0:0:0:0:
36,192,31837,1,8,0:0:0:0:
255,192,31837,1,0,0:0:0:0:
328,192,31837,128,0,32030:0:0:0:0:
182,192,32030,1,2,0:0:0:0:
401,192,32030,128,0,32798:0:0:0:0:
109,192,32222,1,0,0:0:0:60:drum-hitclap.wav
182,192,32414,1,2,0:0:0:0:
328,192,32414,1,0,0:0:0:0:
36,192,32606,1,8,0:0:0:0:
255,192,32606,1,0,0:0:0:0:
182,192,32798,1,2,0:0:0:0:
474,192,32798,128,0,34528:0:0:0:0:
109,192,32990,1,0,0:0:0:60:drum-hitclap.wav
182,192,33183,1,2,0:0:0:0:
328,192,33183,1,0,0:0:0:0:
36,192,33375,1,8,0:0:0:0:
255,192,33375,1,0,0:0:0:0:
182,192,33567,1,0,0:0:0:0:
109,192,33759,1,2,0:0:0:0:
328,192,33759,1,0,0:0:0:0:
109,192,33951,1,2,0:0:0:0:
328,192,33951,1,0,0:0:0:0:
255,192,34143,1,8,0:0:0:0:
401,192,34143,1,0,0:0:0:0:
36,192,34335,128,0,34528:0:0:0:75:drum-hitwhistle.wav
182,192,34335,128,0,34528:0:0:0:0:
36,192,34720,128,2,34912:0:0:0:0:
255,192,34720,1,0,0:0:0:0:
109,192,34912,128,8,35104:0:0:0:0:
328,192,34912,1,0,0:0:0:0:
474,192,34912,1,0,0:0:0:0:
182,192,35104,128,2,35296:0:0:0:0:
401,192,35104,1,0,0:0:0:0:
255,192,35296,1,0,0:0:0:60:drum-hitclap.wav
474,192,35296,128,0,35488:0:0:0:0:
182,192,35488,1,2,0:0:0:0:
401,192,35488,128,0,35681:0:0:0:0:
109,192,35681,1,8,0:0:0:0:
255,192,35681,1,0,0:0:0:0:
328,192,35681,128,0,35873:0:0:0:0:
36,192,35873,128,2,37218:0:0:0:0:
401,192,35873,128,0,37602:0:0:0:0:
474,192,36065,1,0,0:0:0:60:drum-hitclap.wav
182,192,36257,1,2,0:0:0:0:
255,192,36257,1,0,0:0:0:0:
328,192,36449,1,8,0:0:0:0:
474,192,36449,1,0,0:0:0:0:
182,192,36834,1,2,0:0:0:0:
255,192,36834,1,0,0:0:0:0:
182,192,37026,1,2,0:0:0:0:
255,192,37026,1,0,0:0:0:0:
328,192,37218,1,8,0:0:0:0:
474,192,37218,1,0,0:0:0:0:
36,192,37602,128,2,37987:0:0:0:0:
255,192,37602,1,0,0:0:0:0:
328,192,37794,128,0,37987:0:0:0:0:
109,192,37987,1,8,0:0:0:0:
255,192,37987,1,0,0:0:0:0:
474,192,37987,128,0,38179:0:0:0:0:
182,192,38179,1,2,0:0:0:0:
328,192,38179,128,0,38947:0:0:0:0:
109,192,38371,1,0,0:0:0:60:drum-hitclap.wav
36,192,38563,1,2,0:0:0:0:
255,192,38563,1,0,0:0:0:0:
182,192,38755,1,8,0:0:0:0:
474,192,38755,1,0,0:0:0:0:
109,192,38947,128,2,40677:0:0:0:0:
255,192,38947,1,0,0:0:0:0:
401,192,39139,1,0,0:0:0:60:drum-hitclap.wav
182,192,39332,1,2,0:0:0:0:
328,192,39332,1,0,0:0:0:0:
401,192,39524,1,8,0:0:0:0:
474,192,39524,1,0,0:0:0:0:
182,192,39716,1,0,0:0:0:0:
255,192,39908,1,2,0:0:0:0:
401,192,39908,1,0,0:0:0:0:
255,192,40100,1,2,0:0:0:0:
401,192,40100,1,0,0:0:0:0:
36,192,40292,1,8,0:0:0:0:
328,192,40292,1,0,0:0:0:0:
474,192,40292,1,0,0:0:0:0:
255,192,40485,128,2,40677:0:0:0:0:
401,192,40485,128,0,40677:0:0:0:75:drum-hitwhistle.wav
255,192,40869,1,2,0:0:0:0:
328,192,40869,128,0,41445:0:0:0:0:
109,192,41061,1,8,0:0:0:0:
182,192,41061,128,0,41445:0:0:0:0:
401,192,41061,1,0,0:0:0:0:
36,192,41253,128,2,41445:0:0:0:0:
474,192,41253,128,0,41445:0:0:0:75:drum-hitwhistle.wav
182,192,41638,128,2,42406:0:0:0:0:
255,192,41638,1,0,0:0:0:0:
109,192,41830,1,8,0:0:0:0:
328,192,41830,128,0,42406:0:0:0:0:
401,192,41830,1,0,0:0:0:0:
36,192,42022,128,2,42406:0:0:0:0:
255,192,42022,1,4,0:0:0:0:
474,192,42022,128,0,42406:0:0:0:0:
255,192,42406,1,2,0:0:0:0:
36,192,42598,1,8,0:0:0:0:
182,192,42598,1,0,0:0:0:0:
328,192,42598,1,0,0:0:0:0:
474,192,42598,128,0,42791:0:0:0:0:
401,192,42791,128,0,42983:0:0:0:0:
109,192,42983,1,2,0:0:0:0:
328,192,42983,128,0,43367:0:0:0:0:
36,192,43175,1,8,0:0:0:0:
182,192,43175,1,0,0:0:0:0:
474,192,43175,1,0,0:0:0:0:
36,192,43367,1,2,0:0:0:0:
182,192,43367,1,8,0:0:0:0:
474,192,43367,1,0,0:0:0:0:
402,192,43559,1,0,0:0:0:0:
255,192,43559,1,0,0:0:0:0:
328,192,43655,1,8,0:0:0:0:
182,192,43655,1,0,0:0:0:0:
36,192,43751,128,2,44520:0:0:0:0:
475,192,43751,1,4,0:0:0:0:
109,192,43751,1,0,0:0:0:75:drum-hitwhistle.wav
256,192,43751,1,0,0:0:0:0:
255,192,44136,128,0,44328:0:0:0:75:drum-hitwhistle.wav
474,192,44136,1,0,0:0:0:0:
182,192,44328,128,0,44520:0:0:0:0:
255,192,44520,128,8,45289:0:0:0:0:
328,192,44520,1,0,0:0:0:75:drum-hitwhistle.wav
474,192,44520,1,0,0:0:0:0:
182,192,44904,128,0,45289:0:0:0:75:drum-hitwhistle.wav
474,192,44904,1,0,0:0:0:0:
401,192,45096,128,0,45289:0:0:0:0:
36,192,45289,128,0,45865:0:0:0:75:drum-hitwhistle.wav
328,192,45289,1,0,0:0:0:0:
182,192,45481,128,8,45673:0:0:0:0:
255,192,45481,1,0,0:0:0:0:
474,192,45481,1,0,0:0:0:0:
328,192,45673,1,0,0:0:0:75:drum-hitwhistle.wav
401,192,45673,128,0,45865:0:0:0:0:
182,192,45865,128,0,46057:0:0:0:0:
36,192,46057,1,8,0:0:0:0:
328,192,46057,1,0,0:0:0:75:drum-hitwhistle.wav
474,192,46057,128,0,46634:0:0:0:0:
36,192,46442,1,0,0:0:0:75:drum-hitwhistle.wav
182,192,46442,128,0,46634:0:0:0:0:
109,192,46634,1,8,0:0:0:0:
328,192,46634,128,0,46826:0:0:0:0:
401,192,46634,1,0,0:0:0:0:
36,192,46826,1,2,0:0:0:0:
255,192,46826,128,4,47979:0:0:0:0:
474,192,46826,1,0,0:0:0:75:drum-hitwhistle.wav
182,192,47210,1,0,0:0:0:75:drum-hitwhistle.wav
474,192,47210,128,0,47402:0:0:0:0:
36,192,47402,128,0,47979:0:0:0:0:
109,192,47595,1,8,0:0:0:0:
328,192,47595,1,0,0:0:0:75:drum-hitwhistle.wav
474,192,47595,1,0,0:0:0:0:
329,192,47979,128,0,48363:0:0:0:75:drum-hitwhistle.wav
474,192,47979,1,0,0:0:0:0:
182,192,48171,128,0,48555:0:0:0:0:
402,192,48363,128,0,48747:0:0:0:75:drum-hitwhistle.wav
109,192,48363,1,0,0:0:0:0:
475,192,48555,1,8,0:0:0:0:
256,192,48555,128,0,48940:0:0:0:0:
36,192,48555,1,0,0:0:0:0:
329,192,48747,1,0,0:0:0:75:drum-hitwhistle.wav
109,192,48747,128,0,49516:0:0:0:0:
402,192,48940,128,0,49516:0:0:0:0:
475,192,49132,1,8,0:0:0:0:
256,192,49132,1,0,0:0:0:75:drum-hitwhistle.wav
36,192,49132,1,0,0:0:0:0:
475,192,49324,1,8,0:0:0:0:
256,192,49324,1,0,0:0:0:0:
36,192,49324,1,0,0:0:0:0:
182,192,49516,1,0,0:0:0:75:drum-hitwhistle.wav
329,192,49516,1,0,0:0:0:0:
36,192,49708,1,8,0:0:0:0:
255,192,49708,1,0,0:0:0:0:
474,192,49708,1,0,0:0:0:0:
36,192,49900,1,2,0:0:0:0:
182,192,49900,1,4,0:0:0:0:
328,192,49900,1,0,0:0:0:75:drum-hitwhistle.wav
474,192,49900,128,0,50669:0:0:0:0:
36,192,50285,1,0,0:0:0:75:drum-hitwhistle.wav
328,192,50285,128,0,50477:0:0:0:0:
401,192,50477,128,0,50669:0:0:0:0:
36,192,50669,1,8,0:0:0:0:
109,192,50669,1,0,0:0:0:75:drum-hitwhistle.wav
328,192,50669,128,0,51438:0:0:0:0:
182,192,50861,1,0,0:0:0:0:
36,192,51053,1,0,0:0:0:75:drum-hitwhistle.wav
401,192,51053,128,0,51246:0:0:0:0:
109,192,51246,128,0,51438:0:0:0:0:
474,192,51246,1,0,0:0:0:0:
36,192,51438,1,0,0:0:0:75:drum-hitwhistle.wav
255,192,51438,128,0,51630:0:0:0:0:
109,192,51630,128,8,52206:0:0:0:0:
182,192,51630,1,0,0:0:0:0:
401,192,51630,1,0,0:0:0:0:
36,192,51822,1,0,0:0:0:75:drum-hitwhistle.wav
328,192,51822,128,0,52206:0:0:0:0:
475,192,52014,128,0,52206:0:0:0:0:
36,192,52206,1,8,0:0:0:0:
182,192,52206,128,0,52591:0:0:0:75:drum-hitwhistle.wav
401,192,52206,128,0,52591:0:0:0:0:
36,192,52591,1,0,0:0:0:75:drum-hitwhistle.wav
255,192,52591,128,0,52975:0:0:0:0:
109,192,52975,1,4,0:0:0:0:
182,192,52975,1,8,0:0:0:0:
401,192,52975,1,0,0:0:0:0:
474,192,52975,128,0,53551:0:0:0:0:
255,192,53167,1,2,0:0:0:0:
328,192,53167,1,0,0:0:0:0:
36,192,53359,1,2,0:0:0:0:
182,192,53359,128,0,53551:0:0:0:0:
36,192,53551,1,4,0:0:0:0:
109,192,53551,1,8,0:0:0:0:
328,192,53551,1,0,0:0:0:0:
401,192,53551,128,0,54128:0:0:0:0:
182,192,53744,1,2,0:0:0:0:
255,192,53744,1,0,0:0:0:0:
36,192,53936,1,2,0:0:0:0:
109,192,53936,128,0,54128:0:0:0:0:
255,192,54128,1,8,0:0:0:0:
328,192,54128,128,0,56050:0:0:0:0:
474,192,54128,1,0,0:0:0:0:
36,192,54320,128,2,56050:0:0:0:0:
109,192,54320,1,0,0:0:0:0:
182,192,54416,1,2,0:0:0:0:
109,192,54512,1,2,0:0:0:0:
401,192,54704,1,0,0:0:0:50:drum-hitfinish.wav
474,192,54704,128,0,54897:0:0:0:0:
109,192,54897,1,0,0:0:0:50:drum-hitfinish.wav
182,192,54897,128,0,55089:0:0:0:0:
401,192,55089,1,0,0:0:0:50:drum-hitfinish.wav
474,192,55089,128,0,55281:0:0:0:0:
109,192,55281,1,8,0:0:0:0:
182,192,55281,128,0,56050:0:0:0:0:
255,192,55281,1,0,0:0:0:0:
474,192,55665,128,0,56050:0:0:0:0:
109,192,56050,1,2,0:0:0:0:
255,192,56050,1,4,0:0:0:0:
401,192,56050,128,0,56434:0:0:0:0:
182,192,56434,128,8,57010:0:0:0:0:
328,192,56434,1,0,0:0:0:0:
474,192,56434,1,0,0:0:0:0:
109,192,56626,128,2,57010:0:0:0:0:
329,192,56626,1,0,0:0:0:0:
36,192,56818,1,0,0:0:0:60:drum-hitclap.wav
255,192,57010,1,2,0:0:0:0:
401,192,57010,128,0,57587:0:0:0:0:
182,192,57203,1,8,0:0:0:0:
328,192,57203,1,0,0:0:0:0:
474,192,57203,1,0,0:0:0:0:
109,192,57395,128,2,57971:0:0:0:0:
182,192,57395,1,0,0:0:0:0:
36,192,57587,1,0,0:0:0:60:drum-hitclap.wav
328,192,57779,128,2,57971:0:0:0:0:
474,192,57779,1,0,0:0:0:0:
36,192,57971,1,8,0:0:0:0:
182,192,57971,1,0,0:0:0:0:
401,192,57971,128,0,58355:0:0:0:0:
255,192,58163,128,0,58355:0:0:0:0:
36,192,58355,1,2,0:0:0:0:
182,192,58355,1,0,0:0:0:0:
474,192,58355,128,0,58740:0:0:0:0:
36,192,58548,1,2,0:0:0:0:
182,192,58548,1,0,0:0:0:0:
328,192,58548,128,0,58740:0:0:0:0:
109,192,58740,128,8,59124:0:0:0:0:
255,192,58740,1,0,0:0:0:0:
401,192,58740,1,0,0:0:0:0:
36,192,59124,1,2,0:0:0:0:
182,192,59124,128,0,59508:0:0:0:0:
328,192,59124,1,0,0:0:0:0:
474,192,59316,1,0,0:0:0:0:
36,192,59508,1,8,0:0:0:0:
255,192,59508,1,0,0:0:0:0:
328,192,59508,128,0,60085:0:0:0:0:
36,192,59701,1,2,0:0:0:0:
401,192,59701,128,0,60085:0:0:0:0:
474,192,59893,1,0,0:0:0:60:drum-hitclap.wav
36,192,60085,1,2,0:0:0:0:
182,192,60085,128,0,60469:0:0:0:0:
109,192,60277,1,8,0:0:0:0:
255,192,60277,1,0,0:0:0:0:
474,192,60277,1,0,0:0:0:0:
401,192,60469,128,2,61046:0:0:0:0:
474,192,60469,1,0,0:0:0:0:
36,192,60661,1,0,0:0:0:60:drum-hitclap.wav
255,192,60661,128,0,60854:0:0:0:0:
109,192,60854,128,2,61046:0:0:0:0:
182,192,60854,1,0,0:0:0:0:
36,192,61046,1,8,0:0:0:0:
255,192,61046,1,0,0:0:0:0:
474,192,61046,128,0,61430:0:0:0:0:
182,192,61238,128,0,61430:0:0:0:0:
328,192,61238,1,0,0:0:0:0:
109,192,61430,1,2,0:0:0:0:
255,192,61430,1,0,0:0:0:0:
401,192,61430,128,0,61814:0:0:0:0:
109,192,61622,128,2,61814:0:0:0:0:
255,192,61622,1,0,0:0:0:0:
36,192,61814,128,8,62007:0:0:0:0:
328,192,61814,128,0,62007:0:0:0:0:
474,192,61814,1,0,0:0:0:0:
36,192,62199,1,2,0:0:0:0:
182,192,62199,1,4,0:0:0:0:
328,192,62199,1,0,0:0:0:0:
474,192,62199,128,0,62775:0:0:0:0:
109,192,62391,1,0,0:0:0:0:
36,192,62583,128,8,62775:0:0:0:0:
182,192,62583,1,0,0:0:0:0:
328,192,62583,1,0,0:0:0:0:
255,192,62775,1,2,0:0:0:0:
328,192,62775,1,0,0:0:0:0:
401,192,62775,128,0,63544:0:0:0:0:
182,192,62967,1,0,0:0:0:60:drum-hitclap.wav
36,192,63159,1,2,0:0:0:0:
109,192,63159,128,0,63544:0:0:0:0:
182,192,63352,1,8,0:0:0:0:
255,192,63352,1,0,0:0:0:0:
328,192,63352,1,0,0:0:0:0:
36,192,63544,1,2,0:0:0:0:
255,192,63544,1,0,0:0:0:0:
474,192,63544,128,0,64120:0:0:0:0:
182,192,63736,1,0,0:0:0:60:drum-hitclap.wav
109,192,63928,128,2,64120:0:0:0:0:
255,192,63928,1,0,0:0:0:0:
36,192,64120,128,8,65273:0:0:0:0:
255,192,64120,1,0,0:0:0:0:
328,192,64120,1,0,0:0:0:0:
401,192,64312,128,0,64505:0:0:0:0:
182,192,64505,1,2,0:0:0:0:
328,192,64505,1,0,0:0:0:0:
474,192,64505,128,0,65273:0:0:0:0:
182,192,64697,128,2,64889:0:0:0:0:
328,192,64697,1,0,0:0:0:0:
109,192,64889,1,8,0:0:0:0:
255,192,64889,128,0,65273:0:0:0:0:
401,192,64889,1,0,0:0:0:0:
109,192,65273,1,2,0:0:0:0:
182,192,65273,1,4,0:0:0:0:
328,192,65273,1,0,0:0:0:0:
401,192,65273,128,0,65850:0:0:0:0:
109,192,65465,1,0,0:0:0:0:
36,192,65658,1,8,0:0:0:0:
182,192,65658,1,0,0:0:0:0:
255,192,65658,128,0,66234:0:0:0:0:
109,192,65850,1,2,0:0:0:0:
474,192,65850,128,0,66234:0:0:0:0:
401,192,66042,1,0,0:0:0:60:drum-hitclap.wav
109,192,66234,1,2,0:0:0:0:
328,192,66234,128,0,66618:0:0:0:0:
36,192,66426,128,8,66618:0:0:0:0:
182,192,66426,1,0,0:0:0:0:
255,192,66426,1,0,0:0:0:0:
109,192,66618,1,2,0:0:0:0:
255,192,66618,1,4,0:0:0:0:
401,192,66618,128,0,67099:0:0:0:0:
474,192,66618,1,0,0:0:0:0:
36,192,67003,1,4,0:0:0:0:
109,192,67003,1,8,0:0:0:0:
255,192,67003,1,0,0:0:0:0:
36,192,67195,1,4,0:0:0:0:
109,192,67195,1,8,0:0:0:0:
255,192,67195,1,0,0:0:0:0:
401,192,67195,128,0,67483:0:0:0:0:
182,192,67387,1,2,0:0:0:0:
474,192,67387,1,0,0:0:0:0:
36,192,67579,1,8,0:0:0:0:
255,192,67579,1,0,0:0:0:0:
328,192,67579,1,0,0:0:0:0:
401,192,67579,128,0,67867:0:0:0:0:
109,192,67675,1,8,0:0:0:0:
182,192,67675,1,0,0:0:0:0:
474,192,67771,1,2,0:0:0:0:
182,192,67867,1,2,0:0:0:0:
255,192,67867,1,0,0:0:0:0:
36,192,67963,128,4,68252:0:0:0:0:
109,192,67963,1,8,0:0:0:0:
328,192,67963,1,0,0:0:0:0:
401,192,67963,1,0,0:0:0:0:
36,192,68348,1,2,0:0:0:0:
109,192,68348,1,4,0:0:0:0:
255,192,68348,1,0,0:0:0:0:
401,192,68348,1,0,0:0:0:0:
474,192,68348,128,0,68732:0:0:0:0:
109,192,68732,1,8,0:0:0:0:
255,192,68732,128,0,68924:0:0:0:75:drum-hitwhistle.wav
401,192,68732,1,0,0:0:0:0:
182,192,68924,1,2,0:0:0:0:
474,192,68924,128,0,69309:0:0:0:0:
109,192,69116,1,8,0:0:0:0:
255,192,69116,1,0,0:0:0:75:drum-hitwhistle.wav
401,192,69116,1,0,0:0:0:0:
182,192,69309,128,2,69693:0:0:0:0:
328,192,69309,1,0,0:0:0:0:
109,192,69501,1,8,0:0:0:0:
255,192,69501,1,0,0:0:0:75:drum-hitwhistle.wav
401,192,69501,1,0,0:0:0:0:
36,192,69693,128,2,70077:0:0:0:0:
474,192,69693,1,0,0:0:0:0:
109,192,69885,1,8,0:0:0:0:
255,192,69885,1,0,0:0:0:75:drum-hitwhistle.wav
401,192,69885,1,0,0:0:0:0:
182,192,70077,1,0,0:0:0:0:
328,192,70077,128,0,70365:0:0:0:0:
36,192,70269,1,8,0:0:0:0:
255,192,70269,128,0,70558:0:0:0:75:drum-hitwhistle.wav
474,192,70269,1,0,0:0:0:0:
182,192,70462,128,2,70750:0:0:0:0:
328,192,70462,1,0,0:0:0:0:
255,192,70654,1,8,0:0:0:0:
328,192,70654,1,0,0:0:0:75:drum-hitwhistle.wav
474,192,70654,128,0,71038:0:0:0:0:
109,192,70846,1,2,0:0:0:0:
182,192,70846,1,0,0:0:0:0:
36,192,71038,128,8,71422:0:0:0:0:
182,192,71038,1,0,0:0:0:75:drum-hitwhistle.wav
401,192,71038,1,0,0:0:0:0:
328,192,71230,1,2,0:0:0:0:
474,192,71230,1,0,0:0:0:0:
109,192,71422,1,8,0:0:0:0:
255,192,71422,1,0,0:0:0:75:drum-hitwhistle.wav
474,192,71422,128,0,71807:0:0:0:0:
182,192,71614,1,0,0:0:0:0:
328,192,71614,1,0,0:0:0:0:
109,192,71807,1,8,0:0:0:0:
255,192,71807,128,0,71999:0:0:0:75:drum-hitwhistle.wav
401,192,71807,1,0,0:0:0:0:
36,192,71999,1,2,0:0:0:0:
328,192,71999,128,0,72383:0:0:0:0:
36,192,72191,1,8,0:0:0:0:
255,192,72191,1,0,0:0:0:75:drum-hitwhistle.wav
474,192,72191,1,0,0:0:0:0:
182,192,72383,128,2,72767:0:0:0:0:
474,192,72383,1,0,0:0:0:0:
36,192,72575,1,8,0:0:0:0:
255,192,72575,1,0,0:0:0:75:drum-hitwhistle.wav
474,192,72575,1,0,0:0:0:0:
36,192,72767,1,2,0:0:0:0:
328,192,72767,128,0,73152:0:0:0:0:
36,192,72960,1,8,0:0:0:0:
255,192,72960,1,0,0:0:0:75:drum-hitwhistle.wav
474,192,72960,1,0,0:0:0:0:
182,192,73152,128,0,73440:0:0:0:0:
401,192,73152,1,0,0:0:0:0:
36,192,73344,1,8,0:0:0:0:
255,192,73344,128,0,73632:0:0:0:75:drum-hitwhistle.wav
474,192,73344,1,0,0:0:0:0:
182,192,73536,1,2,0:0:0:0:
328,192,73536,128,0,73824:0:0:0:0:
182,192,73728,1,8,0:0:0:0:
255,192,73728,1,0,0:0:0:75:drum-hitwhistle.wav
474,192,73728,128,0,74113:0:0:0:0:
109,192,73920,1,2,0:0:0:0:
328,192,73920,1,0,0:0:0:0:
36,192,74113,128,8,74497:0:0:0:0:
255,192,74113,1,0,0:0:0:75:drum-hitwhistle.wav
328,192,74113,1,0,0:0:0:0:
182,192,74305,1,2,0:0:0:0:
474,192,74305,1,0,0:0:0:0:
109,192,74497,1,2,0:0:0:0:
255,192,74497,1,4,0:0:0:0:
401,192,74497,128,8,75458:0:0:0:0:
474,192,74497,1,0,0:0:0:75:drum-hitwhistle.wav
182,192,74689,1,0,0:0:0:0:
36,192,74881,1,8,0:0:0:0:
182,192,74881,128,0,75073:0:0:0:75:drum-hitwhistle.wav
328,192,74881,1,0,0:0:0:0:
109,192,75073,1,2,0:0:0:0:
255,192,75073,1,0,0:0:0:0:
474,192,75073,128,0,75650:0:0:0:0:
36,192,75266,1,8,0:0:0:0:
182,192,75266,1,0,0:0:0:75:drum-hitwhistle.wav
328,192,75266,1,0,0:0:0:0:
182,192,75458,128,2,76034:0:0:0:0:
36,192,75650,1,8,0:0:0:0:
109,192,75650,1,0,0:0:0:75:drum-hitwhistle.wav
401,192,75650,128,0,76034:0:0:0:0:
328,192,75842,1,2,0:0:0:0:
36,192,76034,1,8,0:0:0:0:
109,192,76034,128,0,76995:0:0:0:75:drum-hitwhistle.wav
255,192,76034,1,0,0:0:0:0:
328,192,76226,1,0,0:0:0:0:
182,192,76418,1,8,0:0:0:0:
328,192,76418,128,0,76611:0:0:0:75:drum-hitwhistle.wav
474,192,76418,1,0,0:0:0:0:
36,192,76611,128,2,77187:0:0:0:0:
255,192,76611,1,0,0:0:0:0:
401,192,76611,1,0,0:0:0:0:
182,192,76803,1,8,0:0:0:0:
328,192,76803,1,0,0:0:0:75:drum-hitwhistle.wav
474,192,76803,1,0,0:0:0:0:
328,192,76995,128,2,77571:0:0:0:0:
109,192,77187,128,8,77571:0:0:0:0:
401,192,77187,1,0,0:0:0:75:drum-hitwhistle.wav
474,192,77187,1,0,0:0:0:0:
182,192,77379,1,2,0:0:0:0:
36,192,77571,1,2,0:0:0:0:
255,192,77571,128,4,77860:0:0:0:0:
401,192,77571,1,8,0:0:0:0:
474,192,77571,1,0,0:0:0:75:drum-hitwhistle.wav
36,192,77956,128,8,78052:0:0:0:0:
255,192,77956,1,0,0:0:0:75:drum-hitwhistle.wav
474,192,77956,128,0,78052:0:0:0:0:
36,192,78148,128,2,78628:0:0:0:0:
474,192,78148,128,0,78628:0:0:0:0:
109,192,78340,1,8,0:0:0:0:
255,192,78340,1,0,0:0:0:75:drum-hitwhistle.wav
401,192,78340,1,0,0:0:0:0:
182,192,78532,128,2,78628:0:0:0:0:
328,192,78532,128,0,78628:0:0:0:0:
182,192,78724,128,8,79013:0:0:0:0:
255,192,78724,1,0,0:0:0:75:drum-hitwhistle.wav
328,192,78724,128,0,79013:0:0:0:0:
109,192,78917,128,2,79013:0:0:0:0:
401,192,78917,128,0,79013:0:0:0:0:
36,192,79109,1,2,0:0:0:0:
109,192,79109,128,4,79493:0:0:0:0:
255,192,79109,1,8,0:0:0:0:
401,192,79109,128,0,79493:0:0:0:75:drum-hitwhistle.wav
474,192,79109,1,0,0:0:0:0:
36,192,79493,1,8,0:0:0:0:
255,192,79493,1,0,0:0:0:75:drum-hitwhistle.wav
474,192,79493,1,0,0:0:0:0:
109,192,79685,1,2,0:0:0:0:
255,192,79685,128,0,80070:0:0:0:0:
474,192,79685,128,0,80070:0:0:0:0:
36,192,79877,1,8,0:0:0:0:
182,192,79877,1,0,0:0:0:75:drum-hitwhistle.wav
328,192,79877,1,0,0:0:0:0:
109,192,80070,1,2,0:0:0:0:
401,192,80070,1,0,0:0:0:50:drum-hitfinish.wav
109,192,80262,128,2,80646:0:0:0:0:
401,192,80262,128,0,80646:0:0:0:50:drum-hitfinish.wav
256,192,80454,128,0,80646:0:0:0:0:
36,192,80646,128,2,83336:0:0:0:0:
182,192,80646,1,4,0:0:0:0:
329,192,80646,1,0,0:0:0:0:
474,192,80646,1,0,0:0:0:0:
182,192,82183,1,2,0:0:0:0:
255,192,82183,1,4,0:0:0:0:
401,192,82183,1,0,0:0:0:0:
474,192,82183,128,0,83336:0:0:0:0:
255,192,82568,1,0,0:0:0:75:drum-hitwhistle.wav
109,192,82952,1,0,0:0:0:50:drum-hitfinish.wav
182,192,82952,1,0,0:0:0:0:
328,192,83144,1,2,0:0:0:0:
401,192,83144,1,0,0:0:0:0:
109,192,83240,1,8,0:0:0:0:
182,192,83240,1,0,0:0:0:0:
255,192,83336,1,8,0:0:0:0:
401,192,83336,1,0,0:0:0:0:
109,192,83528,1,8,0:0:0:0:
182,192,83528,1,0,0:0:0:0:
328,192,83624,1,8,0:0:0:0:
401,192,83624,1,0,0:0:0:0:
36,192,83721,1,2,0:0:0:0:
182,192,83721,1,4,0:0:0:0:
255,192,83721,128,0,83913:0:0:0:0:
474,192,83721,128,0,83913:0:0:0:0:
109,192,83913,128,0,84105:0:0:0:0:
328,192,83913,128,0,84105:0:0:0:0:
182,192,84105,128,8,84297:0:0:0:0:
255,192,84105,1,0,0:0:0:0:
474,192,84105,128,0,84297:0:0:0:0:
109,192,84297,128,2,84681:0:0:0:0:
328,192,84297,128,0,84489:0:0:0:0:
401,192,84489,128,0,84681:0:0:0:60:drum-hitclap.wav
36,192,84681,1,2,0:0:0:0:
182,192,84681,128,0,84874:0:0:0:0:
474,192,84681,128,0,84874:0:0:0:0:
109,192,84874,128,8,85066:0:0:0:0:
255,192,84874,128,0,85066:0:0:0:0:
401,192,84874,1,0,0:0:0:0:
36,192,85066,128,2,85450:0:0:0:0:
328,192,85066,1,0,0:0:0:0:
474,192,85066,128,0,85258:0:0:0:0:
255,192,85258,128,0,85450:0:0:0:60:drum-hitclap.wav
109,192,85450,128,2,85642:0:0:0:0:
182,192,85450,1,0,0:0:0:0:
474,192,85450,128,0,85642:0:0:0:0:
36,192,85642,128,8,85834:0:0:0:0:
255,192,85642,1,0,0:0:0:0:
328,192,85642,128,0,85834:0:0:0:0:
109,192,85834,128,0,86026:0:0:0:0:
401,192,85834,128,0,86026:0:0:0:0:
36,192,86026,1,2,0:0:0:0:
182,192,86026,128,4,86219:0:0:0:0:
328,192,86026,1,0,0:0:0:0:
474,192,86026,128,0,86219:0:0:0:0:
109,192,86219,128,2,86411:0:0:0:0:
255,192,86219,1,0,0:0:0:0:
328,192,86315,1,2,0:0:0:0:
36,192,86411,128,8,86603:0:0:0:0:
182,192,86411,1,0,0:0:0:0:
401,192,86411,128,0,86603:0:0:0:0:
255,192,86507,1,8,0:0:0:0:
109,192,86603,1,8,0:0:0:0:
328,192,86603,128,0,86795:0:0:0:0:
182,192,86699,1,8,0:0:0:0:
36,192,86795,128,2,86987:0:0:0:0:
255,192,86795,128,4,86987:0:0:0:0:
401,192,86795,1,0,0:0:0:0:
474,192,86795,1,0,0:0:0:0:
109,192,86987,128,2,87179:0:0:0:0:
328,192,86987,128,0,87179:0:0:0:0:
182,192,87179,128,8,87372:0:0:0:0:
255,192,87179,1,0,0:0:0:0:
401,192,87179,128,0,87372:0:0:0:0:
36,192,87372,128,8,87948:0:0:0:0:
255,192,87372,1,0,0:0:0:0:
474,192,87372,128,0,89870:0:0:0:0:
109,192,87468,1,8,0:0:0:0:
328,192,87468,1,0,0:0:0:0:
182,192,87564,1,8,0:0:0:0:
401,192,87564,1,0,0:0:0:0:
255,192,87756,128,0,87948:0:0:0:50:drum-hitfinish.wav
401,192,87756,128,0,89870:0:0:0:0:
182,192,87948,1,0,0:0:0:50:drum-hitfinish.wav
328,192,87948,1,0,0:0:0:0:
36,192,88140,128,2,89870:0:0:0:0:
109,192,88140,128,4,89870:0:0:0:0:
255,192,88140,1,0,0:0:0:0:
